#TITLE:Love Hina;
#SUBTITLE:- Sakura Saku;
#ARTIST:林原めぐみ;
#TITLETRANSLIT:;
#SUBTITLETRANSLIT:;
#ARTISTTRANSLIT:Megumi Hayashibara;
#CREDIT:Anime Toshokan;
#BANNER:Love Hina - Sakura Saku.png;
#BACKGROUND:Love Hina - Sakura Saku bg.png;
#LYRICSPATH:;
#CDTITLE:dejiko.png;
#MUSIC:Love Hina - Sakura Saku.mp3;
#OFFSET:1.575;
#SAMPLESTART:39.280;
#SAMPLELENGTH:11.300;
#SELECTABLE:YES;
#DISPLAYBPM:170.000;
#BPMS:0.000=170.000,256.000=160.000,256.250=150.000,256.500=140.000,256.750=130.000,257.000=120.000,257.250=110.000,257.500=100.000,257.750=90.000,258.000=80.000;
#STOPS:;
#BGCHANGES:7.000=Love Hina - Sakura Saku.avi=1.000=0=0=1,
255.500=Love Hina - Sakura Saku bg.png=1.000=0=0=1,
99999=-nosongbg-=1.000=0=0=0 // don't automatically add -songbackground-
;
// cache tags:
#FIRSTBEAT:12.000;
#LASTBEAT:261.500;
#SONGFILENAME:Songs/Anime Mix 1/Love Hina - Sakura Saku/Love Hina - Sakura Saku.sm;
#HASMUSIC:1;
#HASBANNER:1;
#MUSICLENGTH:98.303;
// end cache tags

//---------------dance-single - CHALLENGE----------------
#NOTES:
     dance-single:
     CHALLENGE:
     Challenge:
     9:
     0.557,0.632,0.203,0.285,0.071,335.000,20.000,28.000,0.000,0.000:
0000
0000
0000
0000
,
0000
0000
0000
0000
,
0000
0000
0000
0000
,
0010
0100
0001
0010
1100
0000
0001
0010
,
1000
0010
2200
0000
0000
0000
3300
0000
,
0010
0010
0100
0010
1100
0000
0001
0010
,
1000
0010
0202
0000
0000
0000
0000
0303
,
1000
0001
1000
0001
0110
0000
0010
0100
,
0010
0000
0100
0000
1001
0000
0000
0000
0010
0001
0010
0000
0000
1000
0000
0000
,
1000
0100
0001
0100
1000
0000
1000
0010
,
0001
0100
2020
0000
0000
0000
3030
0000
,
1000
0000
0000
0000
0000
0000
0010
0000
0000
0000
0000
0000
0100
0000
0000
0000
0000
0001
0000
0000
0000
0000
0000
0000
0000
0000
0000
0000
0000
0000
0000
0000
0000
0000
0000
0000
1000
0000
0000
0000
0000
0000
0010
0000
0000
0000
0000
0000
,
0000
0000
0100
0000
0000
0000
0010
0000
0000
0000
0000
0000
0000
0000
0000
0000
0000
0000
0000
0000
0001
0000
0000
0000
0000
0000
0010
0000
0000
0000
0000
0000
0010
0000
0000
0000
0000
1100
0000
0000
0000
0000
0000
0000
0000
0000
0000
0000
,
1000
0100
0010
0001
0100
0001
1000
0010
,
1000
0001
0100
0001
0010
0001
0100
1000
,
0010
1000
0100
0001
0100
1000
0010
0100
,
0000
0010
0000
0100
0000
0100
0000
0001
,
0100
1000
0100
0001
0010
0001
0100
1000
,
0010
0100
1000
0010
0100
0001
1000
0010
,
0100
0001
0010
0001
0100
0010
1000
0100
,
0010
0000
0000
1000
0000
0100
0010
1000
,
0010
0000
0200
0000
0000
0300
0001
0000
,
1000
0000
1000
0000
0000
1001
0000
0000
0000
0000
0000
0000
0000
0000
0000
0000
,
0000
0000
0000
0000
0000
0000
0000
0000
0000
0000
0000
0000
0000
0200
0000
0000
0000
0000
0000
0000
0000
0000
0000
0000
0000
0000
0000
0000
0000
0000
0000
0300
0000
0000
0000
0000
0000
0010
0000
0000
0000
0000
0000
0000
0000
0000
0000
0000
,
0000
0001
0000
0000
0000
0000
0000
1000
0000
0000
0000
0000
0000
0000
0000
0000
0000
1001
0000
0000
0000
0000
0000
0000
0000
0000
0000
0000
0000
0000
0000
0000
0000
0000
0000
0000
0000
0000
0000
0000
0000
0000
0000
0000
0000
0000
0000
0000
,
0000
0001
1000
0100
1000
0001
0000
0101
,
0000
1000
0001
0100
0010
1000
0000
1000
,
2000
0000
0000
0000
0000
0000
0000
0020
,
0000
0000
0000
3030
0000
1000
1000
1000
,
0100
0010
0001
0100
0001
1000
0010
1000
,
0010
1000
0100
0001
0000
0100
0100
0100
,
1000
0001
1000
0100
0001
0010
0001
1000
,
0100
0010
0001
1000
0000
0000
0000
0000
,
0000
0010
0100
0001
1000
0010
1000
0001
,
2000
0000
0001
0100
0000
3000
0000
0000
,
0000
1000
0100
0001
0100
1000
0200
0002
,
0000
0000
0000
0000
0303
0001
0001
0001
,
1000
0010
0100
0001
1000
0010
0100
0001
,
1000
0001
0010
1000
0000
0010
0010
0010
,
0001
1000
0100
0010
1000
0001
1000
0010
,
0100
0010
0001
0100
0000
0000
0000
0000
,
0000
0001
0100
0001
0010
0001
0100
0001
,
0011
0000
0110
1100
0000
0000
0000
0000
,
0010
0001
1000
0010
0000
0100
0000
2200
,
0000
0000
0000
3300
0000
1000
1000
1000
,
0100
0001
0100
1000
0100
0001
0010
0001
,
0100
1000
0010
0100
0000
0001
0001
0001
,
0010
1000
0010
0001
0010
1000
0001
0100
,
0001
1000
0010
0100
0000
0000
0000
0000
,
0000
0010
0001
0100
0010
0001
1000
0001
,
0020
0000
0031
0200
0000
0000
0000
0000
,
0300
0010
0001
0100
0010
1000
0001
0200
,
0000
0000
0000
0300
0000
0010
0010
0010
,
0001
0010
0100
0001
1000
0010
0100
0001
,
1000
0010
0100
0010
0000
1001
1001
1001
,
1000
0010
0100
0001
1000
0010
1000
0001
,
0100
0001
0010
0100
0000
0000
0000
0000
,
0000
1000
0001
1000
0001
0100
0010
0001
,
1000
0000
0100
1001
0000
0000
0000
0000
,
1000
0001
0100
0002
0000
2003
0000
0002
,
0000
3003
0000
0000
,
0010
0001
0100
0002
0000
0023
0000
0200
,
0000
0330
0000
0000
,
2000
0000
3001
0200
0000
0310
0000
2002
,
0000
0000
0000
0000
,
0000
0000
0000
3003
0000
0000
0000
0000
;
