#TITLE:I'm Not Cool;
#SUBTITLE:;
#ARTIST:Scott Krippayne;
#TITLETRANSLIT:;
#SUBTITLETRANSLIT:;
#ARTISTTRANSLIT:;
#CREDIT:;
#BANNER:I'm Not Cool_bn.png;
#BACKGROUND:I'm Not Cool_bg.png;
#LYRICSPATH:I'm Not Cool.lrc;
#CDTITLE:;
#MUSIC:I'm Not Cool.mp3;
#OFFSET:-2.060;
#SAMPLESTART:29.820;
#SAMPLELENGTH:12.260;
#SELECTABLE:YES;
#BPMS:0.000=137.000,136.000=68.500,148.000=137.000,160.000=68.500,164.000=137.000;
#STOPS:;
#BGCHANGES:;
// cache tags:
#FIRSTBEAT:0.000;
#LASTBEAT:252.000;
#SONGFILENAME:Songs/StepMix 2/I'm Not Cool/I'm Not Cool.sm;
#HASMUSIC:1;
#HASBANNER:1;
#MUSICLENGTH:126.275;
// end cache tags

//---------------dance-single - Easy to dance. Coupl----------------
#NOTES:
     dance-single:
     Easy to dance. Coupl:
     Hard:
     8:
     0.528,0.574,0.459,0.166,0.040,388.000,58.000,21.000,0.000,0.000:
1010
0001
0100
0010
1000
0001
0010
0100
,
1000
0000
0110
0000
0001
0010
0000
0100
,
1000
0010
0100
1001
0000
0010
1000
0010
,
0110
0000
1000
0010
0100
0001
0100
0010
,
1000
0000
0010
0100
0001
1000
0100
0010
,
0001
0000
1100
0000
1000
0101
0000
0100
,
0010
1000
0100
0010
0000
0010
1000
0001
,
0100
0000
1000
0001
0010
0100
0010
0001
,
1100
0000
0001
0010
0100
0010
0001
0100
,
0010
0110
0000
0000
0000
0010
1000
0101
,
0000
1000
0001
1010
0000
0100
0001
1000
,
0100
0000
0000
0011
0000
1000
1000
0001
,
0101
0000
0100
0001
1000
0001
0100
0010
,
1000
1001
0000
0000
0000
0010
0100
1001
,
0000
0100
0010
1001
0000
1000
0100
0010
,
0001
0020
0000
0001
0000
0030
0001
1000
,
0010
0100
0001
1000
0010
0100
0001
1000
,
0100
0010
0001
0100
0010
1000
0100
0010
,
0001
1000
0010
0100
0010
1000
0100
0001
,
0020
0000
0001
0130
0000
1000
0001
0010
,
0100
1000
0010
0100
0001
0010
1000
0100
,
0010
0001
1000
0010
0001
0100
0101
0000
,
0010
0001
0100
0001
0010
0001
0100
0010
,
1000
0100
0010
0100
0000
0001
1001
1000
,
0001
0100
0010
1000
0001
0100
0010
1000
,
0100
0010
0100
0010
0001
1000
0001
0010
,
0100
1000
0010
0100
0010
1000
0100
0001
,
2000
0000
0001
3100
0000
1000
0100
0010
,
0001
1000
0010
0100
0010
0001
1000
0100
,
0001
1010
0001
0110
1000
0001
1100
0000
,
0100
0010
0100
0010
0001
0010
1000
0100
,
0000
0110
0000
0000
0100
0010
1001
0000
,
0002
0203
2300
3200
,
0320
0000
0031
0000
0010
1000
0101
0000
,
0012
0000
0000
0000
2003
0000
0000
0100
3002
0000
0000
0000
0010
0000
0000
0100
,
2003
0000
0000
0100
3002
0000
0000
0103
2000
0000
0001
3100
0000
0000
1000
0001
,
0020
0000
1000
0001
0000
0000
0100
0001
0031
0000
0100
1000
0000
0000
0110
0000
,
0001
1000
0010
0100
0010
1000
0101
0000
,
1000
0001
0100
0010
0100
0001
1010
0000
,
0010
1000
0010
0100
0001
1000
0110
0000
,
2002
0000
0000
3003
,
0001
0000
0011
0000
0001
0000
0101
0110
,
0000
1001
0000
2010
0000
0100
3001
0000
,
1000
0000
1010
0000
0100
0000
0011
0002
,
0000
0000
0100
1003
0000
0000
0110
0000
,
1000
0000
0000
0000
0101
0000
0000
0000
0001
0000
1000
0100
1000
0000
0101
0000
,
0000
1010
0000
1001
0000
0100
0100
1000
,
0010
0100
0010
1000
0001
0010
0100
1001
,
0010
0101
1000
0110
0001
1000
1001
0010
,
1000
0100
0001
0100
1000
0010
0100
0010
,
0001
0010
0100
0001
1000
0100
0010
0001
,
0100
1000
0001
0100
1000
0010
0100
0010
,
1000
0010
0100
0001
1000
0100
0001
0100
,
1000
0001
0010
0100
0001
1000
0010
1001
,
0100
0011
1000
0110
0001
0010
0001
0100
,
1010
0000
1000
0011
1000
0000
1000
0110
,
0001
0000
0100
1010
0000
0110
0000
0001
,
0010
0100
1000
0101
0010
1100
0100
0011
,
0000
0010
0000
0000
0010
0100
1001
0000
,
0220
0000
0000
0000
,
0000
0000
0000
0000
,
0000
0000
0000
0000
,
0000
0000
0000
0000
,
0330
0000
0000
0000
;

//---------------dance-single - Very fun dance for a----------------
#NOTES:
     dance-single:
     Very fun dance for a:
     Easy:
     3:
     0.288,0.399,0.150,0.127,0.036,220.000,19.000,16.000,0.000,0.000:
1000
1000
0001
0001
,
1000
1000
0010
0010
,
0100
0100
0001
0001
,
0010
0010
0100
0001
,
1000
1000
0010
0010
,
0100
0100
0001
0001
,
0010
0010
0001
0001
,
1000
1000
0100
0001
,
1000
1000
0001
0001
,
0010
0010
0100
0100
,
1000
1000
0010
0010
,
0100
0100
0001
0010
,
1000
1000
0010
0010
,
0100
0100
0001
0001
,
0010
0000
0010
0000
0100
0000
0100
0220
,
0000
0330
0000
2002
0000
3003
0000
0000
,
0100
0010
1000
0100
,
1000
1000
1000
0001
,
0010
0100
1000
0010
,
0100
0100
0100
0010
,
1000
0001
0010
0100
,
1000
0001
1000
0001
,
0010
0100
0010
0100
,
1000
0001
1000
0001
,
0100
0001
1000
0100
,
0010
0010
0010
0001
,
0100
0010
1000
0010
,
1000
1000
1000
0010
,
0100
0001
0010
0100
,
1000
0001
1000
0001
,
0010
0000
0100
0000
0010
0000
0100
1000
,
0000
0001
0000
0000
0000
0000
2002
0000
,
0000
0000
0000
0000
,
0000
3003
0010
1001
,
0010
0000
0000
0001
0000
0001
0000
1000
0010
0000
0000
0100
0000
0100
0000
0010
,
1000
0000
0000
0000
0001
0000
0000
0100
0010
0000
0000
0000
0100
0000
0100
0010
,
1000
0000
0000
0000
0001
0000
0000
0100
0010
0000
0000
0000
0100
0000
0100
0000
,
1001
0100
0010
0100
,
0010
1000
0100
1000
,
0001
0010
0001
1000
,
0220
0000
0000
0330
,
0002
0000
1003
0000
,
0020
0000
0130
0000
,
0002
0000
2003
0000
,
3010
0100
0101
0000
,
2000
0000
0000
0000
3001
0000
0000
0100
,
0000
0010
0000
0101
0000
0000
0100
0000
,
1000
0100
1000
0100
,
0010
0001
0010
0001
,
1000
1010
0001
0101
,
1000
1100
0001
0011
,
1000
0100
1000
0100
,
0010
0001
0011
0000
,
0100
1001
0010
1001
,
0010
1100
0100
0011
,
0001
0100
1000
0100
,
0010
1000
1010
0000
,
0001
0000
0000
1000
0000
0001
0000
0000
,
0000
0100
0020
0000
0000
0000
0000
0030
,
2002
0000
0000
0000
,
0000
0000
0000
0000
,
0000
0000
0000
0000
,
0000
0000
0000
0000
,
3003
0000
0000
0000
;

//---------------dance-single - A quite difficult St----------------
#NOTES:
     dance-single:
     A quite difficult St:
     Medium:
     6:
     0.393,0.449,0.238,0.032,0.028,313.000,30.000,4.000,0.000,0.000:
1010
0000
0100
0010
0000
0001
0100
0000
,
0000
1000
0100
0010
0001
0100
0000
0001
,
0100
0000
0100
0001
0000
0000
0001
0010
,
0100
0000
0001
1000
0000
0000
0010
0100
,
0000
0010
0100
0000
0100
1000
0000
0100
,
0000
1000
0100
0010
0001
0100
0000
0010
,
1000
0000
1000
0100
0000
1000
0000
0010
,
0100
0000
0001
1000
0100
0000
0100
0010
,
0000
0001
0010
0000
0010
0001
0000
0001
,
0100
0010
0000
0000
0000
0000
0001
0100
,
0000
0100
0010
0000
0010
0000
1000
0100
,
0000
0000
0000
0010
0000
0001
0101
0000
,
1001
0000
0010
0000
0010
0100
0000
0100
,
1000
0010
0000
0000
0000
0000
1000
0001
,
0000
0001
0100
0000
0100
0000
0001
0100
,
0000
0000
0000
0010
0000
1000
1001
0000
,
1000
0001
0010
0000
0010
0001
0000
0001
,
1000
0010
0100
0000
0100
0010
0000
0010
,
1000
0001
0100
0000
0100
0010
0000
0010
,
0100
0001
1000
0000
1000
0100
0000
0100
,
0010
0001
0100
0000
0100
0001
0000
0000
,
0001
0010
0100
0000
0100
0010
0000
0010
,
0001
0100
0010
0000
0010
1000
0000
1000
,
0001
0010
0100
0000
0100
1000
0000
1000
,
0001
1000
0100
0000
0100
1000
0000
1000
,
0001
0100
0010
0000
0010
0100
0000
0100
,
0001
1000
0010
0000
0010
0100
0000
0100
,
0010
1000
0001
0000
0001
0010
0000
0010
,
0100
1000
0010
0000
0010
1000
0000
0000
,
1000
0100
0010
0000
0010
0100
0000
0100
,
1000
0010
0100
0000
0100
0001
0000
0001
,
1000
0100
0010
0000
0010
0001
0100
0000
,
1001
0100
0011
1000
,
0110
1000
0011
0100
,
1010
0000
0000
0000
0011
0000
0000
0001
1000
0000
0000
0000
1010
0000
0000
1000
,
0001
0000
0000
0001
0010
0000
0000
0010
0100
0000
0000
0000
1100
0000
0000
0010
,
1000
0000
0000
0000
0110
0000
0000
0010
0001
0000
0000
0001
0100
0000
0000
0000
,
1001
0000
0100
0000
0100
0010
0001
0000
,
1000
0000
0010
0000
0010
0100
0001
0000
,
1000
0000
0100
0000
0100
0010
0001
0000
,
2002
0000
0000
0000
0000
0000
0000
3003
,
0001
0010
0000
0010
0000
0100
0000
1000
,
0010
0100
0000
0100
0000
0001
0000
0010
,
0001
1000
0000
1000
0000
0001
0000
0100
,
0001
0010
0000
0010
0000
0100
0000
1000
,
0010
0100
0000
0100
0001
0100
0000
0110
,
0000
1001
0000
0110
0000
0100
1001
0000
,
0001
0010
0100
0000
0100
1000
0010
0100
,
0010
0100
0001
0010
0001
0100
0001
0010
,
0100
1010
0001
0110
,
1000
0001
0100
0000
0100
0010
1000
0000
,
0001
1100
0010
0101
,
1000
0001
0010
0000
0010
0001
0100
0000
,
1010
0000
0101
0000
0110
0000
1000
0001
,
0100
0010
1000
0010
0100
0001
1000
0000
,
1001
0001
0100
0000
0100
0010
1000
0000
,
1000
0001
0010
0000
0010
0001
1000
0000
,
0101
0000
0000
1100
0000
0010
0001
0000
,
0001
1000
0000
0000
1000
0001
0100
0000
,
2002
0000
0000
0000
,
0000
0000
0000
0000
,
0000
0000
0000
0000
,
0000
0000
0000
0000
,
3003
0000
0000
0000
;

//---------------dance-single - Challenge - Lots of----------------
#NOTES:
     dance-single:
     Challenge - Lots of:
     Challenge:
     9:
     0.636,0.973,0.792,0.055,0.150,455.000,100.000,7.000,0.000,0.000:
0101
0010
0100
1000
0100
0010
0001
0100
,
0010
0000
0110
0000
1010
0110
0000
1000
,
0001
0010
0100
1001
0000
0011
0001
0100
,
1010
0100
0001
0100
1000
0000
1010
1001
,
0000
0010
0001
0010
0100
1000
0100
0010
,
0001
0000
0000
0010
0100
0000
0000
0001
1000
0000
0010
0000
0000
0000
1000
0000
,
0100
0010
0101
1100
0000
0001
0010
0100
,
0001
0100
1000
0011
1001
0100
1000
0110
,
0000
1000
0001
0010
0110
0100
1100
1000
,
0001
0100
0000
0000
0010
0010
0100
2000
,
0000
3100
0010
0002
0000
1003
0010
0200
,
0000
0000
0000
0301
0000
1000
1010
0001
,
0101
0000
1000
0000
0100
0010
0001
0000
0010
0000
0100
0000
1000
0000
0101
0000
,
1000
0110
0000
0000
0000
0001
0010
0101
,
0000
1000
0100
0011
0000
0001
0100
1010
,
0000
0101
0000
0110
0000
1000
0101
0010
,
1000
0000
0100
0000
0010
0000
0001
0000
1000
0000
0100
0001
0100
0000
0010
0000
,
0100
0000
0010
0000
1000
0000
0010
0000
0001
0000
0100
1000
0100
0000
0001
0000
,
0010
0000
0100
0000
0010
0000
0001
0000
0100
0000
0010
0001
0010
0000
0100
0000
,
1000
0000
0100
0000
0010
0000
1000
0000
0100
0000
0010
1000
0010
0000
0100
0000
,
1000
0000
0001
0000
0010
0000
0100
0000
0010
0000
0001
1000
0100
0000
0110
0000
,
0000
1001
0000
0110
0001
1000
0101
0000
,
1100
0001
0110
1000
0011
1000
0100
0011
,
0100
1000
0010
0000
1001
0000
0010
0000
1100
0000
0001
0000
0101
0000
0001
0000
,
1000
0000
0001
0000
0010
0000
0100
0000
1000
0000
0001
0010
0001
0000
0100
0000
,
1000
0000
0010
0000
1000
0000
0100
0000
0001
0000
1000
0010
1000
0000
0001
0000
,
1000
0000
0010
0000
1000
0000
0001
0000
0100
0000
0010
1000
0010
0000
0100
0000
,
0001
0000
1000
0000
0100
0000
0010
0000
0001
0000
0010
0100
0010
0000
0001
0000
,
1000
0100
0010
0101
0000
1000
0001
1100
,
0010
0000
0101
0000
1000
0000
0110
0000
0001
0000
0100
0000
1010
0000
0000
0010
,
0100
0010
1001
0100
0011
1000
0001
1010
,
0000
0101
0000
0000
1000
0100
0010
0000
,
0001
0000
1000
0000
0100
0000
0001
0100
0000
0000
0001
0000
0100
0000
1000
0100
,
0000
0000
0010
0000
0100
0000
0001
1000
0100
0000
0010
0000
1100
0000
0000
0000
,
1001
0000
0011
0000
0101
0000
1001
0110
1001
0000
0101
0000
1100
0000
0110
0011
,
1100
0000
0100
1010
0101
0000
1001
0010
0100
1000
0001
0010
0000
0000
1001
0100
,
1001
0000
1010
0000
1001
0010
1000
1100
0011
0000
1001
0000
0110
0000
0001
0000
,
1100
0001
0100
0001
0010
0100
1000
0001
,
0011
1000
0010
1000
0100
0010
0001
0100
,
0110
1000
0001
0100
1000
0100
0110
0001
,
2002
0000
0000
3003
,
0100
0001
1000
0001
1000
0001
1000
0001
,
1000
0010
0100
0010
0100
0010
0100
0010
,
0100
0001
1000
0100
0010
0001
1000
0100
,
0010
0001
0100
0010
1000
0001
0100
0010
,
1000
0000
0001
0000
0100
0000
0010
0000
1000
0100
1000
0100
1000
0000
0110
0000
,
1000
0011
0100
1010
0001
0110
0110
1000
,
0001
0010
0100
1000
0010
0001
0110
1000
,
0110
0001
1100
0010
0101
1100
0001
0100
,
0010
0000
1000
0000
0010
0000
0001
0000
0010
0000
0100
0001
0100
0001
0100
0000
,
0010
0000
1000
0000
0100
0000
0001
0000
0100
0000
1000
0010
1000
0010
1000
0000
,
0001
0000
0100
0000
0110
0000
1000
0100
0000
0000
0010
0001
0000
0000
0010
0100
,
0000
0000
1001
0000
0010
0000
0100
0000
0011
0000
1000
0100
1000
0100
1000
0000
,
0101
0000
1000
0000
0010
0000
0100
0000
0001
0000
1000
0000
0001
1000
0110
0000
,
1000
0101
0010
1100
0001
0101
0010
1000
,
0001
1000
0001
1000
0010
1000
0010
0100
,
1000
0100
0001
0100
1010
0001
1000
0001
,
1100
0001
0001
0001
1001
0101
0011
1100
,
0000
0011
0000
0000
0000
0000
1020
0000
,
0200
0000
0000
0000
,
0000
0000
0000
0000
,
0000
0000
0000
0000
,
0000
0000
0000
0000
,
0330
0000
0000
0000
;

//---------------dance-single - Advanced Beginners----------------
#NOTES:
     dance-single:
     Advanced Beginners:
     Beginner:
     2:
     0.144,0.249,0.158,0.103,0.020,94.000,20.000,13.000,0.000,0.000:
1000
0000
0000
0000
,
0001
0000
0000
0000
,
0100
0000
0000
0000
,
0010
0000
0000
0000
,
1000
0000
0000
0000
,
0100
0000
0000
0000
,
0010
0000
0000
0000
,
0001
0000
0000
0000
,
1000
0000
0000
0000
,
0010
0000
0000
0000
,
0001
0000
0000
0000
,
0100
0000
0000
0000
,
0010
0000
0000
0000
,
1000
0000
0000
0000
,
0001
0000
0000
0000
0000
0000
1000
0001
,
0000
0000
0000
2002
0000
3003
0000
0000
,
0100
0000
0000
0000
,
1000
0000
0000
0000
,
0010
0000
0000
0000
,
0100
0000
0000
0000
,
0001
0000
0000
0000
,
1000
0000
0000
0000
,
0010
0000
0000
0000
,
0100
0000
0000
0000
,
0001
0000
0000
0000
,
0010
0000
0000
0000
,
0100
0000
0000
0000
,
1000
0000
0000
0000
,
0100
0000
0000
0000
,
0010
0000
0000
0000
,
0001
0000
0100
0000
0001
0000
0100
0001
,
0000
1000
0000
0000
0000
0000
2002
0000
,
0000
0000
0000
0000
,
0000
3003
0010
1001
,
0010
0000
0000
0000
0000
0000
0000
1000
0001
0000
0000
0000
0000
0000
0000
0001
,
1000
0000
0000
0000
0001
0000
0000
1000
0001
0000
0000
0000
0000
0000
0000
0001
,
1000
0000
0000
0000
0001
0000
0000
1000
0001
0000
0000
0000
0100
0000
0000
0000
,
1001
0000
0000
0000
,
0110
0000
0000
0000
,
1001
0000
0000
0000
,
0220
0000
0000
0330
,
2000
0000
0000
0000
,
3200
0000
0000
0000
,
0302
0000
0000
0000
,
0103
0000
1100
0000
,
1000
0000
0001
0000
,
0000
0000
0000
0101
0000
0000
0000
0000
,
1001
0000
1000
0000
,
0011
0000
0010
0000
,
1010
0000
0001
0000
,
1001
0000
0010
0000
,
1000
1000
1000
1000
,
0001
0000
0110
0000
,
1000
0000
0110
0000
,
0001
0000
1100
0000
,
0001
0000
1010
0000
,
0100
0000
0011
0000
,
0001
0000
0000
1000
0000
0001
0000
0000
,
0000
0000
0220
0000
0000
0000
0000
0330
,
2002
0000
0000
0000
,
0000
0000
0000
0000
,
0000
0000
0000
0000
,
0000
0000
0000
0000
,
3003
0000
0000
0000
;

//---------------dance-double - ----------------
#NOTES:
     dance-double:
     :
     Hard:
     9:
     0.570,0.798,0.436,0.032,0.067,445.000,55.000,4.000,0.000,0.000:
10010000
00100000
01000000
00010000
00100000
00001000
00010000
00000100
,
00001000
00000010
00000001
00000010
00000100
00001000
00000000
00010000
,
00001000
00000010
00000001
00000100
00000010
00001000
00000100
00010000
,
00001000
00100000
00010000
01000000
00100000
10000000
00010000
01100000
,
10010000
01000000
00100000
00010000
01000000
00001000
00010000
00000100
,
00001000
00000010
00000100
00000001
00000010
00001000
00000000
00010000
,
01000000
10000000
01000000
00010000
00001000
00000100
00000010
00001000
,
00000001
00000010
00000100
00001000
00000100
00010000
00001000
00100000
,
10010000
01000000
00010000
00001000
00000100
00000001
00000100
00001000
,
00010000
10000000
00000000
00000000
10000000
00010000
01000000
00100000
,
00000000
00010000
00001000
00000100
00000000
00001000
00010000
01000000
,
00000000
00000000
10000000
00000000
11000000
00100000
00100000
00010000
,
00010000
00000010
00001000
00010000
00100000
10000000
00100000
00010000
,
00001000
00000001
00000000
00000000
00000001
00001000
00000010
00000100
,
00000000
00001000
00010000
00100000
00000000
00010000
00001000
00000110
,
00000000
00001001
00000001
00001010
00000000
00000100
00000100
00001000
,
00010000
00001000
00010000
00100000
00010000
00001000
00010000
00000100
,
00000001
00000100
00000010
00000001
00000010
00000100
00010000
00010000
,
01000000
10000000
01000000
10000000
00100000
00010000
00001000
00000010
,
00000001
00000010
00000001
00000100
00001000
00010000
00100000
00010000
,
00001000
00000100
00001000
00010000
00100000
01000000
10100000
01000000
,
00100000
01000000
10000000
01000000
00010000
00001000
00011000
00000100
,
00000010
00000100
00000001
00000010
00001000
00010000
00100000
01010000
,
00010000
01100000
10000000
00010000
01000000
00011000
00001000
00100000
,
00001000
00010000
00001000
00000100
00001000
00010000
00001000
01000000
,
00010000
00100000
01000000
10000000
01000000
00100000
00001000
00001000
,
00000010
00000001
00000010
00000001
00000100
00001000
00010000
01000000
,
10000000
01000000
10000000
00100000
00010000
00001000
00000100
00001000
,
00010000
00100000
00010000
00001000
00000100
00000010
00000100
00001010
,
00000001
00000110
00000001
00001100
00010000
00001000
00011000
00100000
,
01000000
00100000
10000000
01000000
00010000
00001000
00000100
00001010
,
00001000
00000110
00000001
00001000
00000010
00010000
00001000
00010000
,
00100000
00010000
00001000
00000100
00000000
00001000
00010000
01000000
,
00000000
00010000
00001000
00000100
00001000
00010000
00011000
00000000
,
00010100
00000000
00011000
00000000
00010010
00000000
00000000
00011000
00101000
00000000
00010100
00000000
00011000
00000000
00000000
00001010
,
00010100
00000000
00000000
01010000
00101000
00000000
00010000
00000100
00001000
00000000
00000010
00010000
00001000
00000000
00010000
00001000
,
00101000
00000000
00011000
00010100
00000000
00001000
00010000
00001000
00010100
00000000
00010000
00001000
00101000
00000000
10010000
00000000
,
01000000
00010000
00001000
00000100
00000001
00000100
00001000
00000000
,
00010000
01000000
10000000
01000000
00010000
00001000
00000100
00000000
,
00001000
00100000
00110000
00000000
00000000
10010000
00000000
00000000
,
00022000
00000000
00000000
00000000
00000000
00000000
00000000
00033000
,
01000000
00001000
00100000
00001000
00010000
00001000
00010000
00000010
,
00010000
00001000
00100000
00001000
01000000
00001000
00010000
00000010
,
00010000
00000100
00010000
00001000
00100000
00001000
01000000
00001000
,
00010000
00000100
00001000
00000010
00010000
00001000
01000000
00010000
,
00100000
00000000
01000000
00000000
00010000
00000000
00001000
00000000
00000100
00000000
00001000
00010000
01000000
00000000
10010000
00000000
,
00000000
01100000
00000000
00101000
00000000
00001000
00001000
00010100
,
00000010
00000001
00000010
00000100
00000010
00001000
00010000
01100000
,
10000000
01010000
00100000
00011000
00010000
00001000
00010100
00000010
,
00001000
00000000
00010000
00000000
00001000
00000000
00000100
00000000
00001000
00000000
00010000
00001000
00010000
00001000
00010000
00000000
,
01000000
00000000
00100000
00000000
01000000
00000000
10000000
00000000
01000000
00000000
00010000
00001000
00010000
00001000
00010000
00000000
,
00000100
00001000
00000010
00001000
00000100
00011000
00000000
01000000
,
10000000
00000000
01000000
00000000
10000000
00000000
00100000
00000000
00010000
00000000
00001000
00010000
00001000
00010000
00001000
00000000
,
00010000
00100000
00010000
00001000
00000100
00000010
00000101
00000010
,
00000100
00000010
00000001
00000010
00001000
00010000
00011000
00100000
,
01000000
00100000
10000000
01000000
00010000
00001000
00000100
00000010
,
00010000
00001000
00000100
00001000
00010000
01000000
00010000
01000000
,
10000000
00010000
00100000
00001000
00010000
00000100
00001000
00000110
,
00000000
00010010
00000000
00000000
00000000
00000000
00101000
00000000
,
00022000
00000000
00000000
00000000
,
00000000
00000000
00000000
00000000
,
00000000
00000000
00000000
00000000
,
00000000
00000000
00000000
00000000
,
00033000
00000000
00000000
00000000
;

//---------------dance-double - ----------------
#NOTES:
     dance-double:
     :
     Medium:
     6:
     0.453,0.424,0.404,0.428,0.000,295.000,51.000,54.000,0.000,0.000:
10010000
00000000
00011000
00000000
,
00001001
00000000
00010000
00001000
00010000
00001000
00000000
00000000
,
00001001
00000000
00011000
00000000
,
10010000
00000000
01000000
00001000
00100000
00000000
00001000
00010000
,
00011000
00000000
00010100
00000000
,
01001000
00000000
00001000
00010000
00001000
00010000
00000000
00000000
,
00011000
00000000
00101000
00000000
,
00010010
00000000
00001000
00100000
00000100
00010000
00001000
01000000
,
10010000
00000000
00000000
00000000
00011000
00000000
00000000
00000100
,
00001001
00000100
00000000
00000000
00010000
00001000
01000000
00010000
,
00000000
00001000
00010000
00000100
00000000
00010000
00001000
02000000
,
00000000
00000000
00000000
03001000
00000000
00010100
00000000
00010010
,
00000000
00000000
00000000
00000000
00011000
00000000
00000000
00100000
,
10010000
00100000
00000000
00000000
00001000
00010000
00000010
00001000
,
00000000
00010000
00001000
00100000
00000000
00001000
00010000
00000020
,
00000000
00000000
00000000
00010030
00000000
00101000
00000000
00010000
,
00001000
00010000
00000200
00000000
00020300
00000000
00032000
00000000
,
00103000
01000000
20000000
00000000
30020000
00000000
02030000
00000000
,
03001000
00010000
00000200
00000000
00000320
00000000
00000032
00000000
,
00000103
00000010
00002000
00000000
00003200
00000000
00020300
00000000
,
00031000
00100000
00001000
00010000
00001000
00100000
00000100
00011000
,
00000000
00110000
00000000
01100000
00000000
11000000
00000000
00000000
,
00010000
00100000
00001000
00000000
00001000
00010000
00001000
00000000
,
00001000
00100000
00020000
00000000
01000000
00000000
00130000
00000000
,
00001000
01000000
00020000
00000000
00230000
00000000
00302000
00000000
,
00013000
00000010
00000200
00000000
00000302
00000000
00000023
00000000
,
00000130
00001000
00000020
00000000
00020030
00000000
00032000
00000000
,
00103000
01000000
20000000
00000000
30200000
00000000
02300000
00000000
,
03001000
00100000
00001000
00010000
00001000
00100000
00000100
00011000
,
00000000
00110000
00000000
01100000
00000000
11000000
00000000
00000000
,
00010000
00100000
00001000
00010000
00001000
00010000
00001000
00020000
,
00000000
00030100
00000000
00000000
00100000
00001000
00010000
00000000
,
10000000
01000000
00010000
00001000
00000000
00001000
00000100
00000001
,
00000000
00000001
00000100
00001000
00010000
01000000
10000000
00000000
,
10010000
00000000
00000000
00000000
01100000
00000000
00000000
00001000
,
00011000
00000000
00000000
00000100
00000110
00000000
00000000
00000001
,
00001001
00000000
00000000
00000000
00011000
00000000
00000000
01100000
,
10010000
01000000
00010000
00100000
00010000
01000000
00010000
00100000
,
00001000
00010000
00001000
00010000
00001000
00010000
00001000
00010000
,
00000100
00000010
00000100
00001000
00000100
00000010
00000100
00000000
,
00002002
00000000
00000000
00000000
00000000
00000000
00000000
00003003
,
00020000
00000000
00032000
00000000
00103000
00001000
00010000
00000000
,
00002000
00000000
00023000
00000000
00030100
00010000
00001000
00000000
,
00020000
00000000
02030000
00000000
13000000
00010000
00100000
00000000
,
00002000
00000000
00003200
00000000
00000301
00000010
00000100
00000000
,
00020000
00000000
00030200
00000000
00010300
00001000
00100000
00011000
,
00000000
00010100
00000000
00101000
00000000
00011000
00000000
00000000
,
00010000
01000000
10000000
00000000
01000000
00010000
00001000
00000000
,
00000100
00000001
00000100
00000000
00001000
00010000
01000000
00000000
,
00010000
00000010
00002000
00000000
00003200
00000000
00020300
00000000
,
00031000
01000000
00200000
00000000
20300000
00000000
32000000
00000000
,
03100000
00010000
02000000
00000000
03002000
00000000
00023000
00000000
,
00030100
00000010
00000002
00000000
00000203
00000000
00000320
00000000
,
00010030
00000100
00010000
00001000
00010000
00000100
00100000
00011000
,
00000000
00001100
00000000
00000110
00000000
00000011
00000000
00000000
,
00001000
00000100
00010000
00001000
00010000
00001000
00010000
00000100
,
00000010
00000001
00000100
00000010
00001000
00000100
00010000
00001000
,
00011000
00000000
00000000
00101000
00000000
01010000
00000000
10010000
,
00000000
01100000
00000000
00000000
00100000
00010000
00001000
00000000
,
00022000
00000000
00000000
00000000
,
00000000
00000000
00000000
00000000
,
00000000
00000000
00000000
00000000
,
00000000
00000000
00000000
00000000
,
00033000
00000000
00000000
00000000
;

//---------------dance-double - ----------------
#NOTES:
     dance-double:
     :
     Easy:
     4:
     0.288,0.374,0.404,0.079,0.000,194.000,51.000,10.000,0.000,0.000:
00011000
00000000
00010000
00000000
,
00001001
00000000
00010000
00000000
,
00001001
00000000
00010000
00000000
,
10010000
00000000
00001000
00000000
,
00011000
00000000
00100000
00000000
,
00011000
00000000
00001000
00000000
,
10010000
00000000
00001000
00000000
,
10010000
00000000
00001000
00000000
,
00001001
00000000
00010000
00000000
,
00011000
00000000
00101000
00000000
,
01100000
00000000
00011000
00000000
,
00001100
00000000
00000000
00011000
,
00101000
00000000
00000000
00011000
,
00101000
00000000
00011000
00000000
,
00001010
00000000
00011000
00000000
,
00101000
00000000
00000000
01001000
00000000
00000000
00000000
00000000
,
00000100
00001000
00000001
00000000
00000000
00000000
00000000
00000000
,
00000000
00000100
00001000
00000000
00000000
00000000
00000000
00000000
,
01000000
00010000
10000000
00000000
00000000
00000000
00000000
00000000
,
00000000
00010000
00001000
00000000
00000000
00100000
00010000
00000000
,
00001000
00010000
00000100
00000000
00000000
00000000
00000000
00000000
,
00000000
00000100
00000010
00000000
00000000
00000000
00000000
00000000
,
00000001
00000010
00001000
00000000
00000000
00000000
00000000
00000000
,
00000000
00001000
00010000
00000000
00100000
01000000
00010000
00000000
,
00100000
00010000
10000000
00000000
00000000
00000000
00000000
00000000
,
00000000
00100000
00010000
00000000
00000000
00000000
00000000
00000000
,
00000010
00001000
00000001
00000000
00000000
00000000
00000000
00000000
,
00000000
00001000
00010000
00000000
00000000
00000100
00001000
00000000
,
00010000
00001000
00100000
00000000
00000000
00000000
00000000
00000000
,
00000000
00100000
01000000
00000000
00000000
00000000
00000000
00000000
,
10000000
01000000
00010000
00000000
00000000
00000000
00000000
00000000
,
00000000
00010000
00001000
00000000
00000100
00000010
00001000
00000000
,
00001001
00000000
00001010
00000000
,
00011000
00000000
01010000
00000000
,
10010000
00010000
00011000
00001000
,
00001100
00000000
00000100
00000000
00000110
00000000
00000010
00001000
,
00000011
00001000
00011000
01000000
,
10010000
00000000
00010000
00000000
00001000
00010000
00001000
00000000
,
00011000
00000000
00000100
00000000
00000010
00000001
00000010
00000000
,
00001100
00000000
00010000
00000000
00001000
00010000
00001000
00000000
,
00202000
00000000
00000000
00000000
00000000
00000000
00000000
00303000
,
10000000
01000000
00100000
00001000
,
00010000
00001000
01000000
00010000
,
00011000
00000100
00011000
00100000
,
00001000
00000000
00010000
00001000
00000000
00000000
00010000
00000000
,
00000010
00000100
00001000
01100000
,
00000000
01001000
00000000
00011000
00000000
00001000
00010000
00000000
,
00010000
00001000
00010000
00000000
00011000
00000000
00010000
00000100
,
00000010
00000000
00000001
00000001
00000001
00000000
00000100
00000000
,
00002000
00023000
00230000
01300000
,
10000000
01000000
00100000
00000000
00010000
00000000
00011000
00000000
,
00020000
00032000
00003200
00000310
,
00001000
00000100
00000010
00000000
00001000
00000000
00011000
00000000
,
00010000
00001000
00100000
00010000
,
00000000
10010000
00000000
01100000
00000000
00010000
00001000
00000000
,
00010000
01000000
10000000
00100000
,
00010000
00000000
00001000
00010000
00001000
00000000
00000100
00000000
,
00000001
00000000
00000010
00000000
00000100
00001001
00000000
00001100
,
00000000
00011000
00000000
00000000
00001000
00000000
00010000
00000000
,
00022000
00000000
00000000
00000000
,
00000000
00000000
00000000
00000000
,
00000000
00000000
00000000
00000000
,
00000000
00000000
00000000
00000000
,
00033000
00000000
00000000
00000000
;
