#TITLE:Initial D;
#SUBTITLE:- I Need Your Love;
#ARTIST:Dave Simon;
#TITLETRANSLIT:;
#SUBTITLETRANSLIT:;
#ARTISTTRANSLIT:;
#CREDIT:Anime Toshokan;
#BANNER:Initial D - I Need Your Love.png;
#BACKGROUND:Initial D - I Need Your Love bg.png;
#LYRICSPATH:;
#CDTITLE:dejiko.png;
#MUSIC:Initial D - I Need Your Love.mp3;
#OFFSET:-3.933;
#SAMPLESTART:43.360;
#SAMPLELENGTH:12.200;
#SELECTABLE:YES;
#BPMS:0.000=158.000,232.000=79.000,248.500=67.200,249.000=64.180,249.500=38.160,250.000=27.340;
#STOPS:;
#BGCHANGES:;
// cache tags:
#FIRSTBEAT:0.000;
#LASTBEAT:250.750;
#SONGFILENAME:Songs/DDR Anime 4th Mix/Initial D - I Need Your Love/Initial D - I Need Your Love.sm;
#HASMUSIC:1;
#HASBANNER:1;
#MUSICLENGTH:112.828;
// end cache tags

//---------------dance-single - BASIC----------------
#NOTES:
     dance-single:
     BASIC:
     Easy:
     4:
     0.315,0.361,0.151,0.160,0.000,214.000,17.000,18.000,0.000,0.000:
2000
0000
0000
0000
,
3020
0000
0000
0000
,
0230
0000
0000
0000
,
0302
0000
0000
0000
,
1003
0100
0010
0100
,
1000
0001
0100
1000
,
0100
0010
1000
0100
,
0022
0000
0000
0033
,
1000
0001
1000
0100
,
0010
0100
1000
0010
,
1000
0001
0010
0001
,
0100
1000
0100
0010
,
0001
0010
1000
0100
,
0001
0010
0001
0100
,
1000
0010
0001
0010
,
1000
0010
0100
0001
,
2002
0000
0000
0000
,
3003
0220
0000
0330
,
1000
0100
0010
0100
,
1000
0001
0100
0001
,
0010
0100
0010
0100
,
1000
0010
0100
0001
,
1000
0100
1000
0100
,
0001
0100
0001
0100
,
1000
0010
0001
0100
,
2000
0000
0000
0000
,
3010
0000
0100
0000
,
0001
1000
0100
0001
,
0100
0000
0010
0000
1001
0000
0000
2002
,
0000
0000
0000
3003
,
0010
0100
1000
0100
,
0010
0001
0100
0001
,
1000
0100
0001
0100
,
1000
0010
0001
0010
,
0110
0100
0100
0100
,
1001
0001
0001
0001
,
1100
1000
0101
0001
,
1010
1000
0011
0001
,
1000
0100
0010
0001
,
0100
0010
1000
0100
,
1000
0010
0010
0010
,
0100
0001
0001
0001
,
1001
1000
0100
0001
,
0010
0100
1000
0010
,
0100
0001
0010
1000
,
0010
0001
0100
1000
,
0010
0101
1000
0100
,
0010
0101
1000
0100
,
0010
1100
0010
0100
,
0001
1100
0010
0001
,
0100
0010
1000
1000
,
0001
0100
0001
0001
,
0010
0100
1000
1000
,
0010
0100
0001
1000
,
0100
0100
0010
0001
,
1000
1000
0010
0001
,
0100
0100
0010
0001
,
1000
0100
1000
0010
,
1002
0000
0100
0000
,
0023
0000
0100
0001
,
0230
0000
0001
0010
,
2300
0000
0010
0100
,
3002
0000
0000
0000
0000
0000
0000
0000
0003
0000
0000
0000
;

//---------------dance-single - ANOTHER----------------
#NOTES:
     dance-single:
     ANOTHER:
     Medium:
     6:
     0.390,0.444,0.266,0.124,0.000,264.000,30.000,14.000,0.000,0.000:
0001
0000
1000
0000
,
0110
0000
0001
0000
,
1100
0000
0010
0000
,
0101
0000
0010
0000
,
1000
1100
0010
0001
,
0100
0110
0010
1000
,
0001
0101
0100
0010
,
2002
0000
0000
3003
,
0010
0000
0100
0000
1000
0001
0100
0000
,
0010
1000
0100
0010
,
0001
0100
0001
1000
,
0100
0000
0010
0000
0001
0100
0010
0000
,
1000
1100
0010
0001
,
0100
0110
0010
1000
,
0001
0100
0010
0000
1000
0000
0100
0000
,
0010
0001
0100
0000
0010
0000
1000
0000
,
0001
0000
0000
1000
0100
0010
0000
0001
,
0000
0100
0000
0000
0000
0000
0000
0000
,
0010
0000
0001
0000
1000
0100
1000
0000
,
0001
0000
0100
0000
0010
1000
0010
0000
,
0100
0000
0001
0000
0010
0100
0010
0000
,
0001
0100
1000
0010
,
0001
0000
0100
0000
0010
1000
0100
0000
,
0010
0000
0001
0000
0100
1000
0001
0000
,
0100
0000
0001
0000
0010
1000
0010
0000
,
0001
0000
0100
0000
0010
1000
0100
0000
,
1001
0100
0010
1000
,
0100
0001
0100
0000
1000
0010
1000
0000
,
0001
0000
0100
0000
0010
0000
1000
0100
,
0000
0100
0000
0100
0000
0000
0000
0000
,
1000
0010
0100
0000
0001
0010
0100
0000
,
1000
0001
0100
0010
,
1000
0000
1100
0000
0010
0001
0100
0000
,
0110
1001
0110
0010
,
0001
0100
0010
0000
1000
0100
1000
0000
,
0001
0100
0010
1000
,
0001
0000
0000
0101
0000
0000
1000
0000
,
0000
1100
0000
0000
0010
0000
0000
0000
,
0101
1000
0100
0010
,
0001
0010
1000
0010
,
0100
1000
0010
0000
0100
0001
1000
0000
,
0100
0010
0011
0011
,
1000
0010
0100
0001
,
1100
0101
1100
0101
,
0010
0100
1000
0010
,
1010
1100
0011
0101
,
0010
1000
0100
0000
1000
0001
0100
0000
,
0001
0100
0010
1000
,
0100
1000
0100
0000
1000
0100
1000
0000
,
0001
0100
0010
1000
,
0001
0000
0100
0000
0010
1000
0100
0000
,
1000
0000
0010
0000
0100
0001
1000
0000
,
0100
0000
0010
0000
0001
1000
0001
0000
,
0010
0110
1001
0110
,
0100
0000
0001
0000
1000
0100
1000
0000
,
0010
0000
1000
0000
0001
0010
0001
0000
,
0100
0000
0010
0000
1000
0100
1000
0000
,
0001
0100
0100
0100
,
0020
0000
0000
0000
2030
0001
0000
0000
,
3200
0010
0000
0000
0320
0001
0032
1000
,
2003
0000
0000
0000
3020
0100
0230
0000
,
0302
1000
0000
0000
0023
1000
0230
0000
,
2300
0000
0000
0000
0000
0000
0000
0000
3000
0000
0000
0000
;

//---------------dance-single - MANIAC----------------
#NOTES:
     dance-single:
     MANIAC:
     Hard:
     8:
     0.471,0.472,0.292,0.071,0.115,331.000,33.000,8.000,0.000,0.000:
1000
0000
0000
0100
0000
0000
0010
0000
0001
0000
0000
0100
0000
0000
0010
0000
,
0100
0000
0000
0001
0000
0000
1000
0000
0100
0000
0000
0010
0000
0000
0001
0000
,
1000
0000
0000
0010
0000
0000
0100
0000
0001
0000
0000
1000
0000
0000
0100
0000
,
1000
0000
0000
0010
0000
0000
0001
0000
0010
0000
0000
0100
0000
0000
0001
0000
,
1000
0000
0000
0100
0000
0000
0010
0000
0001
0000
0000
1000
0000
0000
0100
0000
,
1000
0000
0000
0010
0000
0000
0001
0000
0010
0000
0000
1000
0000
0000
0100
0000
,
0010
0000
0000
0001
0000
0000
0100
0000
0001
0000
0000
1000
0000
0000
0100
0000
,
1000
0000
0000
0010
0000
0000
0001
0000
0010
0000
0000
0100
0000
0000
0001
0000
,
1000
0000
0000
0110
0000
0000
0000
0000
,
0001
0100
0110
0010
,
1000
0100
1100
0010
,
0011
0000
0001
0000
0100
0010
1000
0100
,
0010
0000
0000
1001
0000
0000
0000
0000
,
1100
0000
0000
0011
0000
0000
0000
0000
,
1000
0000
0100
0010
0000
0001
0000
0100
,
0000
0010
1000
0001
,
0100
0000
0000
1000
0100
0001
0000
0110
,
0000
1001
0000
0000
0000
0000
0000
0000
,
1000
0100
0010
0001
1000
0100
0010
0001
,
0100
1000
0100
0010
1000
0001
0010
0100
,
0010
0001
0100
0010
0100
0001
1000
0100
,
1000
0000
0010
0000
0100
0001
1000
0000
,
0010
0001
1000
0100
1000
0010
0100
0001
,
0010
0100
1000
0010
1000
0100
0010
0001
,
0010
1000
0010
0100
1000
0010
0001
0010
,
0100
0000
0101
0000
1000
0100
0010
0000
,
0001
0000
0100
0000
0010
0000
1000
0000
0100
0000
0000
0010
0000
0000
1001
0000
,
0000
0000
0100
0000
0010
0000
0100
0000
0001
0000
0000
1000
0000
0000
2100
0000
,
0000
0010
0000
3001
0000
0000
0000
0100
,
0000
0101
0000
1100
0000
0000
0000
0000
,
0010
0000
0001
0000
1000
0000
0010
0000
0100
0000
0000
1001
0000
0000
0100
0000
,
0000
0000
1000
0000
0001
0000
0100
0000
0010
0000
0000
1010
0000
0000
0100
0000
,
0000
0001
0000
2000
0000
0000
0000
0001
,
0000
0100
0000
3010
0000
0000
0000
0000
,
0021
0000
0000
1000
0000
0000
0000
0000
,
0230
0000
0000
1000
0000
0000
0000
0000
,
0320
0000
0000
0001
0000
0000
0001
0000
,
0000
0001
0000
0000
0031
0000
0100
0010
,
1000
0000
0000
1100
0000
0000
0000
0000
,
0011
0000
0000
0220
0000
0000
0330
0000
,
1001
0000
0100
0010
0000
1001
0000
0101
,
0000
1000
0100
0010
,
0101
0001
1000
0100
,
0110
0010
0001
1000
,
1010
0000
0010
0000
0100
0001
1000
0000
,
0100
0010
0001
0000
1000
0010
0100
0000
,
0001
1000
0100
1000
0001
0100
0010
0100
,
0001
1000
0100
0010
0001
0000
1100
0000
,
1000
0010
0100
0001
1000
0100
0010
0001
,
0100
0110
1000
1100
,
0010
0001
0100
0010
0100
0001
1000
0100
,
0010
0100
1000
0010
0001
0010
0100
0001
,
0010
0001
1000
0100
1000
0010
0100
0001
,
0011
1100
1010
0101
,
0010
0100
1000
0010
0001
0010
0100
0001
,
0010
1000
0010
0001
0100
1000
0100
0001
,
1000
0100
1000
0001
0100
0001
1000
0010
,
1000
0001
0010
0100
,
1000
0000
0000
0000
0000
0000
0100
0010
0001
0000
0100
0000
0000
0000
0010
1000
,
0100
0000
0010
0000
0000
0000
0001
1000
0100
0000
0010
0000
0001
0000
0100
0000
,
0010
0000
0000
0000
0000
0000
1000
0100
0010
0000
0001
0000
0000
0000
1000
0100
,
1000
0000
0010
0000
0000
0000
0100
0001
0010
0000
0100
0000
1000
0000
0010
0000
,
0200
0000
0000
0000
0000
0000
0000
0000
0000
0000
0000
0300
0000
0000
0000
0000
;

//---------------dance-single - SMANIAC----------------
#NOTES:
     dance-single:
     SMANIAC:
     Challenge:
     9:
     0.606,0.778,0.381,0.018,0.350,434.000,43.000,2.000,0.000,0.000:
1000
0000
0000
0001
0000
0000
0010
0000
0100
0000
0000
1000
0000
0000
0010
0000
,
0110
0000
0000
0100
0000
0000
0001
0000
1000
0000
0000
0100
0000
0000
0010
0000
,
0011
0000
0000
0001
0000
0000
0100
0000
0010
0000
0000
1000
0000
0000
0100
0000
,
1100
0000
0000
0010
0000
0000
0001
0000
0100
0000
0000
0010
0000
0000
1000
0000
,
1010
0000
0000
1000
0000
0000
0100
0000
0010
0000
0000
0001
0000
0000
0100
0000
,
0010
0000
0000
0100
0000
0000
0001
0000
0010
0000
0000
1000
0000
0000
0010
0000
,
0100
0000
0000
1000
0000
0000
0010
0000
1000
0000
0000
0001
0000
0000
0100
0000
,
0010
0000
0100
0000
0000
1001
0000
0000
0010
0000
0000
2000
0000
0000
0000
0000
,
3001
0000
1000
0100
0010
0000
0001
0000
,
0100
0000
0010
1000
0100
0000
0010
0000
,
0001
0000
1000
0010
0100
0000
0101
0000
,
1000
0000
0100
0010
0001
0000
0110
0000
,
1001
1100
0101
0011
,
0110
1010
0101
0011
,
0100
0000
1000
0010
0100
0000
1001
0000
,
1100
0010
0001
0100
,
0010
0000
0000
1000
0100
0010
0000
0110
,
0000
1010
0000
0000
0000
0000
0000
0000
,
0001
0100
0001
0100
0001
0000
1000
0100
0000
0100
1000
0000
0010
0000
0100
0000
,
0001
1000
0001
1000
0001
0000
0010
0100
0000
0100
0010
0000
0001
0000
0100
0000
,
0010
1000
0010
1000
0010
0000
0100
0001
0000
0001
0100
0000
0010
0000
1000
0000
,
0100
0010
0001
1000
0010
0100
0001
1000
,
0100
0010
0001
0010
0001
0000
1000
0010
0000
0100
0001
0000
1000
0000
0100
0000
,
0010
0001
0100
0001
0100
0000
0010
1000
0000
0100
0010
0000
0001
0000
0100
0000
,
0010
1000
0001
1000
0001
0000
0100
0010
0000
1000
0001
0000
1000
0000
0100
0000
,
0010
0001
1000
0100
1000
0010
0100
0000
,
0001
1000
0100
0010
0001
1000
0010
0100
,
0001
1000
0100
1000
0010
0100
0001
0010
,
0100
1000
0000
1010
0000
0000
0000
1100
,
0000
0000
0011
0000
0000
0000
0100
0000
0010
1000
0010
1000
0001
0100
0001
0100
,
0010
1000
0100
0001
0100
0010
1000
0010
,
0001
0100
0010
0100
0001
1000
0100
0010
,
0001
1000
0010
0100
0001
0010
0100
0010
,
0000
0011
0000
0100
0000
0000
0000
0000
,
1001
0000
0010
0100
0000
1000
0010
0000
,
0101
0000
1000
0100
0000
0010
0001
0000
,
1010
0000
0100
0001
0000
0010
0100
0000
,
1000
0010
0000
0100
0001
1000
0100
0000
,
0011
0000
0100
0010
0000
0100
0001
0000
,
1100
0000
0010
0001
0000
1000
0001
0000
,
0100
0000
0010
1000
0000
0100
0000
0010
,
0000
0001
0110
1000
,
0010
0001
1000
1010
,
0100
0001
1100
0101
,
0010
0100
1010
0100
,
0001
0010
0110
1001
,
0010
0001
1000
0010
0100
0001
0001
1000
,
0100
0010
0001
1000
0010
0100
0100
0001
,
1000
0010
1000
0001
0010
0100
0100
1000
,
0010
0100
0001
0010
0100
0000
1100
0000
,
0010
0001
1000
0100
0010
0000
0001
0100
0000
0010
1000
0000
0100
0000
0010
0000
,
0001
0100
0010
1000
0100
0000
0010
0001
0000
1000
0100
0000
0010
0000
0001
0000
,
1000
0010
0100
0010
1000
0000
0001
0010
0000
0100
1000
0000
0001
0000
0100
0000
,
0010
1000
0010
1000
0001
0100
0001
0100
,
0010
1000
0001
0100
0001
0000
1000
0100
0000
0100
0010
0000
0001
0000
1000
0000
,
0100
0010
0100
1000
0100
0000
0010
0001
0000
0001
1000
0000
0010
0000
0100
0000
,
0001
1000
0100
0010
0100
0000
1000
0010
0000
0010
0100
0000
0001
0000
1000
0000
,
0100
0011
1010
0110
,
0101
0000
0001
0000
1000
0000
0100
0010
0001
0000
1000
0000
0001
0000
0010
0100
,
1000
0000
0010
0000
0100
0000
0001
0010
1000
0000
0001
0000
0100
0000
1000
0000
,
0101
0000
0010
0000
0001
0000
1000
0100
0010
0000
0011
0000
1000
0000
0001
0100
,
0010
0000
1010
0000
0100
0001
1000
0100
1000
0010
0100
0001
0100
0010
1000
0100
,
0020
0000
0000
0000
0000
0000
0000
0000
0000
0000
0000
0030
0000
0000
0000
0000
;

//---------------dance-single - BEGINNER----------------
#NOTES:
     dance-single:
     BEGINNER:
     Beginner:
     2:
     0.180,0.305,0.106,0.142,0.000,114.000,12.000,16.000,0.000,0.000:
1000
0000
0000
0000
,
0010
0000
0000
0000
,
0100
0000
0000
0000
,
0001
0000
0000
0000
,
1000
0000
0010
0000
,
1000
0000
0100
0000
,
0100
0000
1000
0000
,
0022
0000
0000
0033
,
1000
0000
1000
0000
,
0010
0000
1000
0000
,
1000
0000
0010
0000
,
0100
0000
0100
0000
,
0001
0000
1000
0000
,
0001
0000
0001
0000
,
1000
0000
0001
0000
,
1000
0000
0100
0000
,
2002
0000
0000
0000
,
3003
0000
0000
0000
,
1000
0000
0010
0000
,
1000
0000
0100
0000
,
0010
0000
0010
0000
,
1000
0000
0100
0000
,
1000
0000
1000
0000
,
0001
0000
0001
0000
,
1000
0000
0001
0000
,
2000
0000
3000
0000
,
0010
0000
0100
0000
,
0001
0000
0100
0000
,
0100
0000
1001
0000
,
0000
0000
0000
0000
,
0010
0000
1000
0000
,
0010
0000
0100
0000
,
1000
0000
0001
0000
,
1000
0000
0001
0000
,
0110
0000
0100
0000
,
1001
0000
0001
0000
,
1100
0000
0101
0000
,
1010
0000
0011
0000
,
1000
0000
0010
0000
,
0100
0000
1000
0000
,
1000
0000
0010
0000
,
0100
0000
0001
0000
,
1001
0000
0100
0000
,
0010
0000
1000
0000
,
0100
0000
0010
0000
,
0010
0000
0100
0000
,
0010
0000
1000
0000
,
0010
0000
1000
0000
,
0010
0000
0010
0000
,
0001
0000
0010
0000
,
0100
0000
1000
0000
,
0001
0000
0001
0000
,
0010
0000
1000
0000
,
0010
0000
0001
0000
,
0100
0000
0010
0000
,
1000
0000
0010
0000
,
0100
0000
0010
0000
,
1000
0000
1000
0000
,
2002
3003
0200
0300
,
0020
0030
0200
0300
,
0200
0300
0002
0003
,
2000
3000
0020
0030
,
2002
0000
0000
0000
0000
3003
0000
0000
;
