#TITLE:Street Fighter 2;
#SUBTITLE:- Ken's Theme [Fight it Out Mix];
#ARTIST:Capcom;
#TITLETRANSLIT:;
#SUBTITLETRANSLIT:;
#ARTISTTRANSLIT:;
#CREDIT:;
#BANNER:banner.png;
#BACKGROUND:ken-bg.png;
#LYRICSPATH:;
#CDTITLE:;
#MUSIC:KenEX.mp3;
#OFFSET:0.000;
#SAMPLESTART:0.120;
#SAMPLELENGTH:12.000;
#SELECTABLE:YES;
#BPMS:0.000=171.000;
#STOPS:;
#BGCHANGES:;
// cache tags:
#FIRSTBEAT:0.500;
#LASTBEAT:366.000;
#SONGFILENAME:Songs/Games/Ken/Ken.sm;
#HASMUSIC:1;
#HASBANNER:1;
#MUSICLENGTH:142.053;
// end cache tags

//---------------dance-single - CHALLENGE----------------
#NOTES:
     dance-single:
     CHALLENGE:
     Challenge:
     8:
     0.585,0.580,0.282,1.000,0.521,359.000,40.000,183.000,0.000,0.000:

0000
2002
0000
0000
0000
0000
0000
0000
,
0000
0000
0000
0000
0000
0000
0000
3003
0000
0000
1001
0000
0110
0000
0011
0000
,
0000
0110
0000
1100
0000
2002
0000
0000
,
0000
0000
0000
0000
0000
0000
0000
0000
0000
0000
0000
0000
0000
3003
0010
0000
,
0100
0000
2000
0000
0000
0000
0000
3000
0002
0000
0000
0000
0000
0003
0020
0000
,
0000
0000
0000
0030
0200
0000
0000
0000
0000
0300
2000
0000
0000
0000
0000
3000
,
0010
0000
0000
0020
0000
0000
0000
0030
0002
0000
0000
0000
0000
0003
0200
0000
,
0000
0300
0000
2000
0000
0000
0000
3000
0000
0100
0001
0000
0001
0000
0010
0000
,
0001
0100
0000
0000
0000
0000
0000
0000
0000
0020
0000
0000
0030
0001
0000
0000
,
0100
0000
2000
0000
0000
0000
3000
0010
0000
0200
0000
0000
0000
0000
0300
2000
,
0000
0000
3000
0200
0000
0000
0000
0000
0300
0020
0000
0000
0030
0002
0000
0000
,
0003
0010
0000
0200
0000
0000
0300
0001
0000
0020
0000
0000
0000
0000
0030
0100
,
0000
2000
0000
0000
0000
0000
0000
0000
3000
0020
0000
0000
0030
0200
0000
0000
,
0300
0001
0000
0010
0000
0000
0000
0100
0000
1000
0000
0020
0000
0000
0030
0100
,
0000
0001
0000
0020
0000
0000
0000
0000
0000
0000
0030
0200
0000
0000
0000
0000
,
0300
2000
0000
0000
3000
0010
0000
0000
0000
0100
0000
0002
0000
0000
0000
0003
,
0010
0100
0000
2000
0000
0000
0000
3000
0020
0000
0000
0000
0030
0200
0000
0000
,
0300
0001
0000
0020
0000
0000
0000
0030
0100
0000
2000
0000
0000
0000
0000
3000
,
0010
0000
0000
0200
0000
0000
0000
0000
0300
2000
0000
0000
3000
0200
0000
0000
,
0000
0300
0010
0000
0002
0000
0000
0003
0010
0000
0200
0000
0000
0000
0000
0300
,
0100
0000
0000
0020
0000
0000
0000
0000
0000
0030
0200
0000
0000
0300
0002
0000
,
0000
0003
1000
0000
0020
0000
0000
0030
0100
0000
0100
0000
0020
0000
0000
0030
,
0001
0000
1000
0000
0020
0000
0000
0000
0000
0000
0000
0030
0002
0000
0000
0000
,
0000
0003
2000
0000
0000
3000
0001
0000
0001
0000
1000
0000
0000
0001
1000
0000
,
0000
0002
0000
0000
0000
0003
0020
0000
0000
0000
0000
0030
0200
0000
0000
0000
,
0000
0000
0000
0000
0000
0300
2000
0000
0000
0000
0000
3000
0002
0000
0000
0000
,
0003
0010
0000
0100
0000
1000
0000
0020
0000
0000
0000
0030
0000
0200
0000
0000
,
0000
0000
0000
0000
0000
0000
0000
1300
0000
0000
0000
0001
0000
0000
1000
0001
,
1000
0000
0000
1000
0000
0200
0000
0000
0000
0300
0020
0000
0000
0030
0002
0000
,
0000
0000
0003
0020
0000
0000
0030
0200
0000
0000
0300
0002
0000
0000
0003
0020
,
0000
0000
0030
0200
0000
0000
0300
2000
0000
0000
0000
0000
3000
0020
0000
0000
,
0000
0000
0000
0000
0000
0000
0030
0200
0000
0000
0000
0300
0002
0000
0000
0000
,
0003
0010
0000
1000
0000
0020
0000
0000
0000
0000
0000
0000
0030
0200
0000
0000
,
0000
0000
0000
0000
0000
0000
0300
0001
0010
0001
0000
0010
0100
0010
0000
0100
,
1000
0100
0000
1000
0000
0020
0000
0000
0000
0030
0200
0000
0000
0000
0300
2000
,
0000
0000
3000
0200
0000
0000
0300
0020
0000
0000
0030
0002
0000
0000
0003
0020
,
0000
0000
0030
0200
0000
0000
0300
0002
0000
0000
0000
0003
0020
0000
0000
0030
,
0200
0000
0000
0300
1000
0000
0200
0000
0000
0000
0000
0000
0000
0000
0300
0000
,
1000
0001
1000
0000
0001
0000
0000
0000
2000
0000
0000
3000
0200
0000
0000
0300
,
0020
0000
0000
0030
1000
0000
0020
0000
0000
0000
0000
0030
0100
0000
0002
0000
,
0000
0003
0020
0000
0000
0030
0200
0000
0000
0000
0000
0300
1000
0000
2000
0000
,
0000
3000
0200
0000
0000
0300
0002
0000
0000
0000
0000
0000
0000
0000
0003
0010
,
0100
0000
2000
0000
0000
0000
0000
0000
0000
0000
0000
3000
0002
0000
0000
0003
,
0020
0000
0000
0030
0100
0000
2000
0000
0000
3000
0010
0000
0020
0000
0000
0030
,
0200
0000
0000
0300
1000
0000
0200
0000
0000
0000
0000
0300
0020
0000
0000
0030
,
0002
0000
0000
0003
0010
0000
0200
0000
0000
0000
0300
0001
2000
0000
0000
3000
,
0100
0000
0010
0000
0002
0000
0003
2000
0000
0000
0000
3000
0020
0000
0000
0000
,
0030
0200
0000
0000
0300
0001
2000
0000
0000
0000
0000
0000
3000
0100
0000
0020
,
0000
0000
0030
0001
0000
0000
2000
0000
0000
0000
0000
3000
0010
0000
0000
2000
,
0000
0000
3000
0200
0000
0000
0300
0002
0000
0000
0000
0000
0000
0000
0003
0100
,
0000
0100
0000
0020
0000
0000
0000
0000
0000
0000
0000
0000
0030
2000
0000
0000
,
3000
0200
0000
0000
0300
1000
0000
0002
0000
0000
0003
0010
0000
0200
0000
0000
,
0300
0010
0000
0000
0010
0000
0000
0020
0000
0000
0000
0030
0002
0000
0000
0000
,
0000
0000
1000
0100
,
1000
0000
0103
0000
0000
0220
0000
0000
,
0000
0000
0000
0000
0000
0000
0330
1001
,
1001
0110
0000
0011
0000
0110
0000
1200
,
0000
0000
0000
0000
0000
0001
0000
1000
,
0000
0000
0001
0000
0000
0000
1300
0000
0002
0000
0000
0000
0003
0020
0000
0000
,
0000
0000
0030
0200
0000
0000
0000
0000
0300
2000
0000
0000
0000
0000
3000
0020
,
0000
0000
0000
0000
0000
0030
0100
0000
0020
0000
0000
0000
0030
0001
0000
1000
,
0000
0000
0010
0000
0100
0000
0001
0000
0020
0000
0000
0000
0000
0030
0200
0000
,
0000
0300
2000
0000
0000
3000
0100
0000
0000
0020
0000
0000
0000
0000
0000
0000
,
0000
0000
0000
0000
0000
0000
0030
0002
0000
0000
0000
0003
2000
0000
3000
0001
,
0000
0020
0000
0030
0100
0000
0000
2000
0000
0000
0000
0000
0000
0000
3000
0010
,
0000
0200
0000
0000
0300
0020
0000
0000
0030
0002
0000
0000
0000
0000
0000
0000
,
0003
0010
0000
0100
0000
0001
0000
0000
0020
0000
0000
0000
0000
0030
0100
0000
,
0000
1000
0000
0000
0022
0000
0000
0033
2200
0000
0000
3300
0002
0000
0000
0003
,
0020
0000
0000
0030
0200
0000
0000
0300
0000
2000
0000
0000
0000
0000
0000
0000
,
0000
0000
0000
0000
3000
0010
0000
0100
0001
0000
0000
0010
0000
0000
0100
0000
,
0000
2000
0000
0000
0000
3000
0010
0000
0000
0200
0000
0000
0000
0000
0300
0002
,
0000
0000
0000
0000
0000
0000
0000
0000
0003
0020
0000
0000
0000
0000
0000
0000
,
0000
0000
0000
0000
0000
0030
0200
0000
0000
0300
0000
1000
0000
0100
0000
0010
,
0000
0001
0000
1000
0000
0100
0000
0000
0010
0001
0000
0010
0000
1000
0000
0000
,
2000
0000
0000
3000
0200
0000
0000
0300
0020
0000
0000
0000
0000
0000
0000
0030
,
0002
0000
0000
0000
0000
0000
0000
0003
0100
0000
0000
0002
0000
0000
0000
0000
,
0000
0003
0200
0000
0000
0000
0300
2000
0000
0000
0000
3000
0200
0000
0000
0000
,
0000
0000
0300
0020
0000
0000
0000
0000
0000
0000
0000
0030
0002
0000
0000
0000
,
0000
0000
0000
0000
0000
0000
0000
0000
0000
0000
0000
0003
0100
0000
0010
0000
,
1000
0100
0010
0001
0010
0100
1000
1000
,
1000
0001
0001
0001
0001
1000
0100
0010
,
0010
0100
1000
0001
1000
0010
0001
0100
,
0100
0010
0001
1000
1001
0110
2002
0000
,
0000
0000
0000
3003
0220
0000
0000
0000
0000
0000
0000
0330
2002
0000
0000
0000
,
0000
0000
0000
3003
0022
0000
0000
0000
0000
0000
0000
0033
2200
0000
0000
0000
,
0000
0000
0000
3300
0022
0000
0000
0000
0000
0000
0000
0033
0220
0000
0000
0000
,
0000
0000
0000
0330
2002
0000
0000
0000
0000
0000
0000
3003
0110
0000
0000
0000
,
1010
0011
1100
0011
,
0110
0000
0000
0000
1001
0000
0000
0000
1100
0000
0000
0000
0000
0010
0100
0000
,
0001
0000
0000
1000
0010
0000
0001
0000
1000
0000
0010
0000
0000
0000
0000
1010
,
0000
0011
0000
0000
0101
0000
1100
0000
0000
0220
0000
0000
0000
0000
0330
0000
,
2002
0000
3003
0000;
