#TITLE:Koala in the Spider's Web;
#SUBTITLE:;
#ARTIST:Machinae Supremacy;
#TITLETRANSLIT:;
#SUBTITLETRANSLIT:;
#ARTISTTRANSLIT:;
#CREDIT:;
#BANNER:KoalaSpidersWeb-BN.png;
#BACKGROUND:KoalaSpidersWeb-BG1.png;
#LYRICSPATH:;
#CDTITLE:;
#MUSIC:Machinae Supremacy - Koala in the Spider's Web.mp3;
#OFFSET:-0.072;
#SAMPLESTART:27.400;
#SAMPLELENGTH:20.760;
#SELECTABLE:YES;
#BPMS:0.000=139.980;
#STOPS:;
#BGCHANGES:30.000=KoalaSpidersWeb-BG2.png=1.000=1=0=1,
272.000=KoalaSpidersWeb-BG1.png=1.000=1=0=1,
99999=-nosongbg-=1.000=0=0=0 // don't automatically add -songbackground-
;
// cache tags:
#FIRSTBEAT:16.000;
#LASTBEAT:282.000;
#SONGFILENAME:Songs/StepMix 2/Koala in the Spider's Web/Machinae Supremacy - Koala in the Spider's Web.sm;
#HASMUSIC:1;
#HASBANNER:1;
#MUSICLENGTH:122.670;
// end cache tags

//---------------dance-single - ----------------
#NOTES:
     dance-single:
     :
     Hard:
     8:
     0.475,0.489,0.334,0.359,0.000,323.000,41.000,44.000,0.000,0.000:
0000
0000
0000
0000
,
0000
0000
0000
0000
,
0000
0000
0000
0000
,
0000
0000
0000
0000
,
1000
0000
0001
0000
,
0100
0000
0010
0000
,
1000
0100
0010
0001
,
1000
0100
1000
0010
0100
0001
0010
0100
,
2000
0010
3000
0020
0100
0030
0000
0000
,
0002
0010
0003
0020
0100
0030
1001
0000
,
1000
0100
0000
0010
0001
0000
0102
0003
,
2100
0000
0001
3010
,
0020
0100
0030
0200
0001
0300
1001
0000
,
0002
0010
0003
2000
0010
3000
0110
0000
,
1000
0010
0100
0001
1000
0000
0011
0000
,
1020
0000
0100
0031
,
0020
1000
0030
2000
0100
3000
0000
0000
,
0020
0001
0030
0002
0100
0003
1010
0000
,
1000
0100
1000
0010
0100
0000
0011
0000
,
1100
0000
1000
0001
,
2000
0100
3000
0200
0001
0300
1001
0000
,
0001
0010
0000
0100
1000
0000
0101
0000
,
0010
1000
0100
0010
0001
0100
0010
0000
,
2000
0000
0000
0000
0200
3000
0002
0300
,
0200
0000
0003
2000
0000
0300
3001
1000
,
0002
0000
0000
0000
2000
0003
0020
3000
,
0002
0000
0030
0020
0000
0003
1030
0001
,
2000
0000
0000
3000
0010
0100
0001
1000
,
0100
0010
0000
0100
1000
0000
0000
0000
,
0001
0100
0000
0001
0010
0000
1001
0000
,
1000
0010
0100
0010
1000
0000
1001
0000
,
0210
0000
0001
1300
,
0010
1000
0000
0001
0010
0000
1100
0000
,
1000
0001
0000
0100
0010
0000
1001
0000
,
0001
0010
0100
1000
0010
0100
0001
0000
,
1001
0000
0101
1100
,
0001
0010
0100
1000
0001
0000
0000
0000
,
1000
0010
0100
0001
1000
0100
1000
0000
,
0001
0010
0001
0100
0010
1000
0100
0000
,
1001
0000
0010
0100
,
0001
0100
0010
1000
0001
0000
1100
0000
,
0001
1000
0100
0010
0001
0100
0010
0000
,
0100
0001
0010
0100
1000
0000
1001
0000
,
0110
0000
0000
0000
0002
0000
2000
0003
,
0200
0000
3000
0020
0000
0300
0032
0200
,
0000
0000
0000
0003
0020
0300
2000
0030
,
3001
0010
0100
1000
0001
0000
0100
0020
,
0000
0000
0000
0000
1030
0001
0200
0000
,
0301
0010
0100
1000
0001
0000
1000
0020
,
1000
0000
0000
0000
0000
0000
0000
0000
0001
0000
0000
0000
2000
0030
0000
0000
,
3100
0010
0001
0100
0010
1000
0010
0100
,
0001
0010
0100
1000
1001
0000
1001
0000
,
0001
1000
0000
0001
0101
0000
0000
0000
,
1000
0010
0000
1000
1100
0000
0101
0000
,
0001
1000
0010
0100
0001
0000
1001
0000
,
0120
0000
1000
0031
,
1000
0100
0000
0010
0001
0000
1001
0000
,
0001
0100
0000
0010
1000
0000
1100
0000
,
0001
0100
0001
0000
1000
0100
1000
0000
,
0001
0010
0001
1000
1100
0000
0101
0000
,
1000
0100
0010
0001
0010
0100
1000
0000
,
0001
0100
0010
1000
0010
0100
0001
0000
,
1000
0100
1000
0010
0100
0010
0100
0001
,
0101
1100
1010
0011
,
0001
0010
0001
1000
0100
1000
0010
0100
,
0001
0010
0100
1000
0001
0100
0010
1000
,
0100
0010
1001
0000
0001
0000
1000
0000
,
0010
0100
0001
0000
0010
0100
1000
0001
,
2002
0000
0000
0000
,
0000
0000
0000
0000
,
0000
0000
3003
0000
;

//---------------dance-single - ----------------
#NOTES:
     dance-single:
     :
     Challenge:
     9:
     0.551,0.575,0.326,0.057,0.196,426.000,40.000,7.000,20.000,0.000:
0000
0000
0000
0000
,
0000
0000
0000
0000
,
0000
0000
0000
0000
,
0000
0000
0000
0000
,
0001
0000
1000
0000
,
0100
0010
0001
0100
,
0010
1000
0100
1000
0010
0100
0001
0010
,
0001
0100
0001
0010
0100
1000
1001
0000
,
0001
0100
0000
0010
1000
0000
MMMM
0000
,
1000
0000
0100
0000
0000
0000
1000
0001
1000
0000
0010
0000
0101
0000
0000
0000
,
0001
0100
0001
0010
0100
0000
1100
0000
,
0101
0000
1000
0010
0100
0000
1001
0000
,
0010
0100
0000
1000
0001
0000
0101
0000
,
1000
0000
0010
0000
0000
0000
0100
0001
1000
0000
0100
0000
0110
0000
0000
0000
,
1000
0000
0100
0000
0010
0000
0001
0100
0001
0000
1000
0000
1001
0000
0100
0000
,
1100
0000
0001
0010
0001
0000
1001
0000
,
1000
0010
0000
1000
0100
0000
MMMM
0000
,
0001
0000
1000
0000
0000
0000
0001
0010
0001
0000
1000
0000
1001
0000
0000
0000
,
1000
0000
0100
0000
1000
0000
0010
0100
0001
1000
0001
0000
1000
0000
0100
0000
,
1100
0000
0001
0100
0010
0000
1100
0000
,
1000
0000
0100
0000
0000
0000
1000
0001
1000
0000
0000
0000
0101
0000
0000
0000
,
0001
0000
1000
0000
0000
0000
0001
1000
0100
0000
1000
0000
1001
0000
0000
0000
,
1000
0010
0100
0001
1000
0100
0010
0001
,
0101
0000
0000
0000
0000
0000
0000
0000
1000
0100
1000
0000
0001
0000
0000
0000
,
0100
0010
1000
0001
0010
0100
1000
0001
,
0200
0000
0000
0000
0000
0000
0300
0000
0001
0100
0001
0000
1000
0000
0000
0000
,
0010
0100
0001
1000
0100
0010
0001
0100
,
0020
0000
0000
0000
0000
0000
0030
0000
1000
0100
1000
0001
0100
0000
0000
0000
,
0010
1000
0000
0001
0100
0000
MMMM
0000
,
1000
0000
0001
0000
0000
0000
1000
0010
1000
0000
0001
0000
0101
0000
0000
0000
,
0001
0100
0010
1000
0100
1000
1001
0001
,
0101
0000
0000
0000
1000
0000
0100
0000
1000
0000
0000
0001
0100
0000
0000
0000
,
0010
0000
1000
0000
0000
0000
0001
1000
0010
0000
0000
0000
1100
0000
0000
0000
,
1000
0000
0001
0000
0000
0000
0100
0001
1000
0000
0100
0000
1001
0000
0000
0000
,
0001
0010
0100
1000
0010
0100
0001
0000
,
1100
0101
0011
1010
,
0001
1000
0010
0100
0001
0000
MMMM
0000
,
1000
0000
0100
0000
0010
0000
0001
0100
0001
1000
0100
0000
1000
0000
0000
0000
,
0010
0000
0100
0000
0001
0000
1000
0001
0100
0000
0001
0000
0010
0000
0100
0000
,
1001
0000
0000
0000
1000
0000
0001
0000
0100
0000
0000
0010
1000
0000
0000
0000
,
0001
0100
0000
0001
0010
0000
1100
0000
,
1000
0000
0001
0000
0100
0000
0010
1000
0010
0000
1000
0000
0100
0000
0000
0000
,
1000
0010
0100
0001
0010
0100
1100
1000
,
1001
0000
0000
0000
0000
0000
0000
0000
0001
0100
0001
0000
1000
0000
0000
0000
,
0100
0010
0001
1000
0010
0100
0001
2000
,
0000
0000
0000
0000
0000
0000
3000
0000
0010
1000
0001
0000
0100
0000
0000
0000
,
0001
0010
0100
1000
0001
0100
0010
0200
,
0000
0000
0000
0000
0000
0000
0300
0000
0001
0000
1000
0000
0100
0010
0001
0000
,
1000
0000
0001
1000
0001
0100
0010
1000
,
0200
0000
0000
0000
0000
0000
0300
0000
1000
0000
0001
0000
0010
0100
1000
0000
,
0001
0000
1000
0010
0100
0001
0010
0100
,
1000
0100
1000
0001
0100
0000
0000
0001
1000
0000
0000
0000
1001
0000
0000
0000
,
0010
0100
0000
1000
0100
0000
MMMM
0000
,
1000
0000
0010
0000
0000
0000
1000
0001
0100
0000
0010
0000
1010
0000
0000
0000
,
0001
0000
0010
0000
0100
0000
1000
0001
0100
0001
0010
0000
0100
0000
1000
0000
,
1100
0000
0000
0000
0001
0000
0100
0000
0001
0000
0000
1000
0100
0000
0000
0000
,
1000
0001
0000
0010
0001
0000
1001
0000
,
0001
0000
0100
0000
0000
0000
0010
1000
0001
0000
0000
0000
1100
0000
0000
0000
,
0001
1000
0001
1000
0100
0000
0000
0000
1000
0001
1000
0001
0100
0000
0000
0000
,
0001
0010
0000
0001
1000
0000
0010
0000
1001
0000
0000
0000
0110
0000
0000
0000
,
1000
0000
0100
0000
0010
0000
0001
1000
0010
0000
0100
0000
0001
0000
0000
0000
,
1000
0000
0001
0000
0100
0000
0001
1000
0100
0000
0010
0000
0001
0000
0000
0000
,
1000
0000
0100
0000
1000
0000
0010
0100
0001
1000
0100
0000
0010
0000
0001
0000
,
1001
0000
0000
0000
0001
0000
0010
0000
0100
0000
0000
1000
0001
0000
0000
0000
,
0001
0000
1000
0000
0100
0000
0010
0000
0001
0000
1000
0010
0100
0000
0001
0000
,
1000
0000
0100
0000
0010
0000
0001
0000
1000
0000
0001
0100
0010
0000
1000
0000
,
0001
0100
1001
0000
0001
1000
1100
0000
,
1000
0100
0000
1000
0010
0000
0100
0000
0001
0000
0010
0000
0100
0000
1000
0000
,
2002
0000
0000
0000
,
0000
0000
0000
0000
,
0000
0000
3003
0000
;

//---------------dance-single - ----------------
#NOTES:
     dance-single:
     :
     Medium:
     6:
     0.427,0.431,0.383,0.318,0.000,281.000,47.000,39.000,0.000,0.000:
0000
0000
0000
0000
,
0000
0000
0000
0000
,
0000
0000
0000
0000
,
0000
0000
0000
0000
,
0010
0000
1000
0000
,
0001
0000
0010
0000
,
0100
1000
0010
0100
,
0001
0010
0001
0100
,
0010
1010
0100
1001
,
0001
1000
0100
0000
0010
0000
1001
0000
,
1000
0001
0100
0000
0101
0000
1100
0000
,
1010
0000
0001
1000
,
0100
0011
1000
0101
,
0001
1000
0010
0000
0100
0000
0101
0000
,
1000
0100
0010
0001
1000
0000
1001
0000
,
0110
0000
0001
0010
,
0100
1100
0001
0101
,
1000
0010
0100
0000
0101
0000
1100
0000
,
1000
0001
0100
0000
0001
0010
0100
0000
,
1001
0000
0001
0100
,
0010
1000
0100
0000
1000
0000
0101
0000
,
1000
0010
0100
0001
0010
0000
1100
0000
,
0001
0100
0000
0010
1000
0100
0010
0000
,
1001
0000
0000
0000
2000
0000
0002
3000
,
2000
0000
0003
0200
0000
3000
2300
0002
,
0000
0000
0000
3000
0200
0003
0020
0300
,
2000
0000
0030
0002
0000
3000
0203
0002
,
0000
0000
0000
0303
1000
0010
0100
0000
,
0001
1000
0100
0000
1001
0000
0000
0000
,
1000
0100
0010
0000
0011
0000
1001
0000
,
0001
0100
0010
1000
0001
0000
1000
0000
,
1100
0000
0010
0001
,
1000
0101
0001
1010
,
0010
0100
0001
0000
1100
0000
1001
0000
,
1000
0100
0010
0000
0001
0100
0010
0000
,
1001
0000
0001
1000
,
0001
0100
0001
0000
2000
0000
0000
3000
,
1000
0100
1000
0000
1001
0000
0110
0000
,
0001
0100
0001
1000
0100
0000
0010
0000
,
1001
0000
0001
1000
,
0100
0010
0001
0000
0100
0000
0010
0000
,
1000
0100
0010
0001
0100
0000
1001
0000
,
0001
0100
0010
0000
1000
0100
1000
0000
,
0101
0000
0000
0000
0002
0000
2000
0003
,
0002
0000
3000
0020
0000
0003
0032
2000
,
0000
0000
0000
0003
0020
3000
2000
0030
,
0200
0000
3000
0020
0000
0300
0032
2000
,
0000
0000
3003
0000
0001
1000
0002
0000
,
2000
0000
0003
0200
0000
3000
2300
0020
,
0000
0000
3030
0000
1000
0001
2000
0000
,
0020
0000
3000
0200
0000
0030
0302
2000
,
0000
0000
3003
0000
0001
0100
0001
0000
,
0010
1001
0100
1001
,
1000
0010
0100
0000
0101
0000
1100
0000
,
0001
1000
0100
0010
0001
0000
0100
0000
,
1010
0000
1000
0001
,
1000
0010
0100
0000
0002
0000
0000
0003
,
0001
0010
0100
0000
2000
0000
0000
3000
,
0010
0000
1001
0000
1000
0001
0100
0000
,
0001
1000
0100
1000
0010
0000
1001
0000
,
1000
0010
0100
0000
0001
0000
1100
0000
,
0001
0010
0001
1000
0010
0000
0101
0000
,
1000
0001
0000
0100
0010
1000
0100
0000
,
1001
0000
1000
0001
,
1000
0100
1000
0001
1000
0000
0101
0000
,
0001
1000
0010
1000
0100
0000
0110
0000
,
1000
0001
0100
0000
0001
1000
0100
0000
,
1000
0010
0100
0001
0010
0000
0110
0000
,
2002
0000
0000
0000
,
0000
0000
0000
0000
,
0000
0000
3003
0000
;

//---------------dance-single - ----------------
#NOTES:
     dance-single:
     :
     Easy:
     4:
     0.273,0.345,0.187,0.016,0.000,209.000,23.000,2.000,0.000,0.000:
0000
0000
0000
0000
,
0000
0000
0000
0000
,
0000
0000
0000
0000
,
0000
0000
0000
0000
,
0001
0000
0000
0000
,
1000
0000
0000
0000
,
0001
0000
0100
0000
,
0010
1000
0100
0010
,
0001
0100
1001
0000
,
1000
0100
0010
0010
,
0100
1000
0010
0100
,
0101
0000
0000
0000
,
1000
0010
0100
0100
,
0001
0010
0100
0100
,
1000
0010
1000
0100
,
1100
0000
1000
0001
,
1000
0001
0100
0000
,
0001
1000
0010
0010
,
0100
0001
0010
0100
,
1001
0000
0000
0000
,
1000
0010
0100
0100
,
0001
0010
0100
0100
,
1000
0001
1000
0010
,
1001
0000
0001
1000
,
0001
0000
0000
0100
0000
0000
0001
1000
,
0000
0000
0001
1000
,
0100
0000
0000
1000
0000
0000
0001
0100
,
0000
0000
1000
0100
,
0010
0001
0101
0000
,
1000
0010
0100
0100
,
0001
0010
0100
1000
,
0001
0000
0000
0000
,
0100
0010
1000
1000
,
0100
0010
0001
0001
,
0100
0001
0010
0100
,
1001
0000
0001
1000
,
0100
1000
0010
0000
,
0100
0001
0010
0010
,
0100
1000
0010
0100
,
0101
0000
0000
0000
,
0001
0010
0100
1000
,
0001
0100
0001
0010
,
0001
1000
0010
1000
,
1100
0000
0001
1000
,
0001
0000
0000
1000
0000
0000
0010
1000
,
0000
0000
0001
0010
,
0001
0000
0000
1000
0000
0000
0001
0010
,
0000
0000
0001
0100
,
0010
0000
0000
1000
0000
0000
0100
0010
,
0000
0000
0001
1000
,
0100
0000
0000
0010
0000
0000
0001
0100
,
0000
0000
1001
0110
,
0001
1000
0100
0000
,
1000
0001
0101
1100
,
0001
1000
0100
0010
,
1001
0000
0000
0000
,
1000
0001
0100
0000
,
0001
0010
0100
1000
,
0010
1001
0100
1001
,
0001
1000
0010
0110
,
0001
1000
0010
0010
,
0100
0001
0010
0010
,
0001
1000
0100
0010
,
1001
0000
0000
0000
,
1000
0001
0100
0101
,
0001
1000
0100
1100
,
0100
1001
0010
1001
,
1000
0001
0100
0010
,
2002
0000
0000
0000
,
0000
0000
0000
0000
,
0000
0000
3003
0000
;
