#TITLE:Uh La La La;
#SUBTITLE:;
#ARTIST:ALEXIA;
#TITLETRANSLIT:;
#SUBTITLETRANSLIT:;
#ARTISTTRANSLIT:;
#CREDIT:;
#BANNER:Uh La La La.png;
#BACKGROUND:Uh La La La-bg.png;
#LYRICSPATH:Uh La La La.lrc;
#CDTITLE:./CDTITLES/DANCING STAGE.PNG;
#MUSIC:Uh La La La.mp3;
#OFFSET:-3.730;
#SAMPLESTART:14.800;
#SAMPLELENGTH:12.000;
#SELECTABLE:YES;
#DISPLAYBPM:130.000;
#BPMS:0.000=130.000;
#STOPS:;
#BGCHANGES:;
// cache tags:
#FIRSTBEAT:8.000;
#LASTBEAT:175.000;
#SONGFILENAME:Songs/Dancing Stage/Uh La La La/Uh La La La.sm;
#HASMUSIC:1;
#HASBANNER:1;
#MUSICLENGTH:87.536;
// end cache tags

//---------------dance-single - ----------------
#NOTES:
     dance-single:
     :
     Easy:
     4:
     0.268,0.269,0.308,0.000,0.000,137.000,27.000,0.000,0.000,0.000:  // measure 1
0000
0000
0000
0000
,  // measure 2
0000
0000
0000
0000
,  // measure 3
0000
0001
0000
1000
,  // measure 4
0000
0010
0000
0100
,  // measure 5
0000
1000
0000
0001
,  // measure 6
0000
0100
0000
1001
,  // measure 7
0001
0001
1000
1000
,  // measure 8
0010
0100
0001
1001
,  // measure 9
1000
1000
0001
0001
,  // measure 10
0000
0100
0100
1001
,  // measure 11
1000
1000
0001
0001
,  // measure 12
0010
0100
1001
1001
,  // measure 13
1000
0001
1000
0001
,  // measure 14
1001
0000
0000
1001
,  // measure 15
0010
0010
0010
0010
,  // measure 16
1000
1000
1000
1000
,  // measure 17
0001
0001
0001
0001
,  // measure 18
0100
0100
0100
0100
,  // measure 19
0001
0001
1000
1000
,  // measure 20
0010
0010
0100
0100
,  // measure 21
0001
1000
0001
1000
,  // measure 22
0010
0100
0010
0100
,  // measure 23
0000
0000
1001
0110
,  // measure 24
0000
0000
0110
1001
,  // measure 25
0000
1000
0000
0001
,  // measure 26
1001
1001
1001
1001
,  // measure 27
0001
1000
1001
1001
,  // measure 28
0001
0001
1000
1000
,  // measure 29
0010
0010
0100
1001
,  // measure 30
1000
0001
1000
0001
,  // measure 31
0010
0100
1000
1001
,  // measure 32
0000
1001
1001
0110
,  // measure 33
0000
1001
0110
1001
,  // measure 34
0000
0001
1000
0001
,  // measure 35
0000
1000
1000
1001
,  // measure 36
0000
0001
1000
0010
,  // measure 37
0000
1000
0001
0100
,  // measure 38
0000
0001
1000
0010
,  // measure 39
0000
1000
0001
0100
,  // measure 40
0000
1000
0001
0001
,  // measure 41
0000
0100
0010
0010
,  // measure 42
1000
0001
1000
0001
,  // measure 43
0001
0001
0001
1001
;

//---------------dance-single - ----------------
#NOTES:
     dance-single:
     :
     Medium:
     5:
     0.354,0.350,0.320,0.000,0.000,189.000,28.000,0.000,0.000,0.000:  // measure 1
0000
0000
0000
0000
,  // measure 2
0000
0000
0000
0000
,  // measure 3
0001
0000
0001
0000
0100
0001
1000
0000
,  // measure 4
0001
0000
1000
0000
0001
0100
1000
0000
,  // measure 5
1000
0000
1000
0000
0010
0100
1000
0000
,  // measure 6
0100
0100
0100
0000
1000
0000
1001
0000
,  // measure 7
0100
0000
0001
0000
0100
0001
1000
0000
,  // measure 8
0010
1001
0100
1001
,  // measure 9
0001
0100
0010
0000
0001
0000
1001
0000
,  // measure 10
1000
0001
1000
0000
0001
0000
1001
0000
,  // measure 11
1000
0100
1000
0010
1000
0000
1001
0000
,  // measure 12
0010
1001
0100
1001
,  // measure 13
0010
0000
0010
0000
0001
0100
1000
0000
,  // measure 14
0110
0000
1001
1001
,  // measure 15
0001
0010
0010
0010
,  // measure 16
1000
0010
0010
0010
,  // measure 17
0100
0010
0010
0010
,  // measure 18
0010
0100
0100
0100
,  // measure 19
0001
1000
1000
0001
,  // measure 20
0001
1000
1000
0010
,  // measure 21
0100
0001
0001
1000
,  // measure 22
0010
0100
0100
0001
,  // measure 23
0001
0000
1000
0000
0100
1000
0001
0000
,  // measure 24
1000
0010
0100
0001
,  // measure 25
0001
0000
1000
0000
0010
1000
0100
0000
,  // measure 26
1001
1001
1001
1001
,  // measure 27
0001
1000
0000
0001
1000
0000
1001
0000
,  // measure 28
0010
0000
1000
0000
0001
0100
1000
0000
,  // measure 29
0001
1000
0001
1001
,  // measure 30
0100
0000
0001
0000
1000
0010
0001
0000
,  // measure 31
0010
0000
1000
0000
0100
0001
0001
0000
,  // measure 32
0010
0000
0100
0000
0001
0100
1000
0000
,  // measure 33
0010
0000
0010
0000
0010
0001
1000
0000
,  // measure 34
0001
0000
1000
0001
1000
0000
1001
0000
,  // measure 35
0001
0100
1000
0000
1000
0000
1001
0000
,  // measure 36
0001
0001
0001
1000
,  // measure 37
1000
1000
1000
0001
,  // measure 38
0010
1001
0100
1001
,  // measure 39
1000
0001
1000
0001
,  // measure 40
0001
0000
1000
0000
1000
0100
0001
0000
,  // measure 41
0010
1001
0100
1001
,  // measure 42
1000
0000
0001
0000
0001
0100
1000
0000
,  // measure 43
1001
1001
1001
1001
,  // measure 44
0010
0100
0010
1001
;

//---------------dance-single - ----------------
#NOTES:
     dance-single:
     :
     Hard:
     8:
     0.570,0.621,0.674,0.000,0.000,289.000,59.000,0.000,0.000,1.000:  // measure 1
0000
0000
0000
0000
,  // measure 2
0000
0000
0000
0000
,  // measure 3
0001
0001
1000
0100
1000
0001
1000
0001
,  // measure 4
1000
0001
0100
0001
0100
1000
1000
1000
,  // measure 5
1000
1000
0001
0100
0100
0010
0010
0100
,  // measure 6
0100
0101
0000
1010
0000
0101
0000
0110
,  // measure 7
0000
0001
1000
0001
1000
0001
1000
0010
,  // measure 8
0010
0010
0010
0100
0100
0101
0100
0001
,  // measure 9
1000
0001
0100
0101
0000
1001
0000
1000
,  // measure 10
0001
1000
0001
0001
1000
1001
0000
1000
,  // measure 11
0100
1000
0010
1000
0001
0100
0000
0011
,  // measure 12
0001
0001
0000
1100
1000
1000
0001
1000
,  // measure 13
0001
0010
0001
1000
0100
0000
1010
0010
,  // measure 14
0010
0000
0011
0010
0010
0000
0001
0010
,  // measure 15
0010
0010
0010
0010
0010
0010
1000
0010
,  // measure 16
0010
0010
0010
0010
0010
0010
0010
0100
,  // measure 17
0010
0010
0010
0010
0010
0010
0010
0010
,  // measure 18
0010
0100
0100
0100
0100
0100
0100
0100
,  // measure 19
0100
0011
1010
0011
0000
1100
0101
1100
,  // measure 20
0000
0001
0001
1000
0001
0010
0000
0011
,  // measure 21
0000
0110
0000
1100
0000
1001
0000
1000
,  // measure 22
0000
1000
0010
0010
0000
0001
0100
0100
,  // measure 23
0000
1001
1001
0100
0000
0100
1000
0001
,  // measure 24
0000
1000
0000
0010
0000
0100
0000
0001
,  // measure 25
0000
1000
0010
0001
0000
0010
1000
0100
,  // measure 26
0000
1000
0000
0101
0001
0001
1100
0100
,  // measure 27
0100
0001
1000
0001
1000
0010
1000
0001
,  // measure 28
0000
0010
0100
0001
0010
1000
0100
0001
,  // measure 29
1000
0000
1001
0000
0010
1010
0010
0011
,  // measure 30
0100
0100
0001
0000
1000
1010
0001
0000
,  // measure 31
0010
1010
1000
0000
0100
0101
0001
0000
,  // measure 32
0010
0001
0100
1000
0001
0100
1000
0001
,  // measure 33
0010
0010
0010
0000
1010
0000
0011
0000
,  // measure 34
0001
0001
1000
1000
0010
0100
0010
0100
,  // measure 35
0001
1000
0001
1000
1000
0001
0001
0011
,  // measure 36
0011
0011
0100
1101
1100
1100
1100
0000
,  // measure 37
1000
0100
1000
0010
1000
0001
1000
0100
,  // measure 38
0010
1000
0010
0100
0010
0001
0010
1000
,  // measure 39
1000
0001
1000
0010
0100
0001
0001
0001
,  // measure 40
0100
0010
1000
0001
1000
0010
0100
0001
,  // measure 41
0000
1100
1100
0101
0101
1001
1001
1000
,  // measure 42
0010
0001
1000
0001
0100
1000
1001
1001
,  // measure 43
0110
0000
1001
1001
0110
0110
0011
1010
,  // measure 44
0011
1010
1000
0001
1001
0000
0000
0000
;
