#TITLE:Excel Saga;
#SUBTITLE:- Ai Chuu Seishin;
#ARTIST:Mikako Takahashi/Yumiko Kobayashi;
#TITLETRANSLIT:;
#SUBTITLETRANSLIT:;
#ARTISTTRANSLIT:;
#CREDIT:Anime Toshokan;
#BANNER:Excel Saga - Ai Chuu Seishin.png;
#BACKGROUND:Excel Saga - Ai Chuu Seishin bg.png;
#LYRICSPATH:;
#CDTITLE:dejiko.png;
#MUSIC:Excel Saga - Ai Chuu Seishin.mp3;
#OFFSET:-0.062;
#SAMPLESTART:22.290;
#SAMPLELENGTH:15.100;
#SELECTABLE:YES;
#DISPLAYBPM:121.000;
#BPMS:0.000=120.820,73.000=120.900,119.000=120.620,149.000=120.860,193.000=120.440;
#STOPS:11.000=0.497
,26.500=0.497
,41.000=0.497
,72.000=0.497
,103.000=0.497
,118.000=0.497
,132.750=0.497
,148.000=0.497
,195.500=0.498
;
#BGCHANGES:;
// cache tags:
#FIRSTBEAT:6.000;
#LASTBEAT:210.000;
#SONGFILENAME:Songs/DDR Anime 4th Mix/Excel Saga - Ai Chuu Seishin/Excel Saga - Ai Chuu Seishin.sm;
#HASMUSIC:1;
#HASBANNER:1;
#MUSICLENGTH:109.173;
// end cache tags

//---------------dance-single - BASIC----------------
#NOTES:
     dance-single:
     BASIC:
     Easy:
     4:
     0.319,0.337,0.339,0.238,0.000,181.000,37.000,26.000,0.000,0.000:
0000
0000
0000
0000
,
0000
0000
1000
0001
,
1000
0000
0001
0000
0000
2002
3003
0000
,
1000
0100
1000
0000
,
0001
0100
0001
0100
,
1000
0010
0001
0000
,
0010
0000
0010
0000
2002
3003
0010
0000
,
0100
0010
0000
1000
,
0100
0010
1000
0100
,
0010
0001
0000
0100
,
0100
1001
0001
0100
,
0020
0030
1000
0100
,
1001
0000
0010
0100
,
0002
0003
0001
0010
,
0110
0000
1000
0100
,
1000
0100
0001
0100
,
0001
0100
0010
1001
,
2000
3001
0110
0110
,
1001
0010
0100
0002
,
1003
0100
0010
2002
,
3003
0001
0100
0020
,
0130
1000
0001
0220
,
0330
1000
0100
0001
,
0010
1000
0100
0001
,
0010
1000
1001
0100
,
0110
1000
1000
0011
,
1000
1000
0100
0100
,
0001
0001
0110
0000
,
0001
0001
0010
0010
,
1000
1000
0110
1000
,
0100
0001
0100
1000
,
0100
0110
0000
0001
,
0010
1000
0010
1001
,
2002
0000
0000
3003
0000
0000
0000
0000
2000
0000
0000
0000
3100
0000
0000
0000
,
0100
0001
0002
0103
,
0100
1000
2000
3010
,
0010
0001
0010
1000
,
0110
1001
1001
0100
,
0010
0011
1100
0001
,
0000
1000
0100
0001
,
0100
0010
0001
1000
,
0000
1100
0101
1000
,
0001
0110
1010
0100
,
0000
0000
0000
0000
0002
0000
0000
0000
0100
0000
0000
0003
2000
0000
0000
0000
,
0100
0000
0000
3000
1001
0000
0000
0000
1001
0000
0000
0000
1001
0000
0000
0000
,
0100
0220
0000
0000
,
0000
0000
0000
0330
,
1000
0100
0110
0001
,
0100
0000
0010
0000
1000
0000
2002
3003
,
0200
0310
0001
0000
,
0100
1000
0010
0100
,
0002
0103
1000
0010
,
1010
0101
0110
0000
;

//---------------dance-single - ANOTHER----------------
#NOTES:
     dance-single:
     ANOTHER:
     Medium:
     7:
     0.446,0.433,0.440,0.275,0.009,263.000,48.000,30.000,0.000,0.000:
0000
0000
0000
0000
,
0000
0000
1000
0001
,
1000
0000
0001
0000
0000
2002
3003
0000
,
1000
0000
0110
0000
0001
0100
1000
0000
,
0100
0001
0010
1000
0100
0000
0110
0000
,
1000
0100
1000
0001
0010
0000
0110
0000
,
0100
1000
0010
0001
2000
3000
0001
0100
,
1000
0100
0001
0000
0110
0000
0001
0010
,
1000
0100
0001
0000
1010
0000
1000
0100
,
0010
0100
1000
0000
0110
0000
1001
0000
,
0110
1001
1010
0100
,
0001
0100
0010
0000
0100
1000
0010
0001
,
2002
3003
0110
0001
,
1000
0100
0001
0000
0001
0010
1000
0100
,
2002
3003
1000
0100
,
0001
0100
1000
0010
,
0001
0000
0010
0000
1000
0100
1000
0000
,
0100
0011
1010
0101
,
0110
0000
1000
0100
0010
0000
1000
0100
,
0010
0000
1000
0010
0100
0010
2002
0000
,
3003
0000
0001
0100
0010
0000
0001
0100
,
0010
0000
0001
0010
0100
0010
2002
0000
,
3003
1000
0100
0001
,
0010
1000
0010
0001
,
0100
0000
1000
0100
0001
0000
0100
0000
,
1010
1100
0011
0110
,
1000
0100
1000
0100
0001
0100
0001
0000
,
1000
0100
0010
1000
0100
0000
1001
0000
,
0001
0100
0001
0100
1000
0100
1000
0000
,
0001
0010
0100
0001
0010
0000
1000
0100
,
0001
0100
0001
0100
1000
0000
1000
0010
,
0001
0010
1000
0000
0110
0000
0001
0010
,
1000
0010
1000
0010
0001
0000
1001
0000
,
1001
0000
0000
1001
0000
0000
0000
0000
2000
0000
0000
0000
3001
0000
0000
0000
,
1000
0100
1000
0000
0002
0000
0103
0000
,
0010
0100
0010
0000
0200
0000
1300
0000
,
0001
0010
0100
0000
1100
0000
0101
0000
,
0011
2000
3200
0302
,
0023
0000
1030
0010
0100
0001
0100
0000
,
1001
0000
0100
0001
1000
0100
0001
1000
,
0100
0000
0001
0100
1000
0100
0001
0000
,
0110
0002
0023
2030
,
3200
0000
0301
0010
0100
0010
0001
0000
,
0110
0000
2020
0000
0000
3030
0202
0000
,
0000
0000
0303
0000
0110
0000
0000
0110
0000
0000
1010
0000
0101
0000
0000
0000
,
1000
0100
2002
0000
0000
0000
0000
0000
,
0000
0000
0000
3003
,
0000
0000
0001
0100
1000
0100
0001
0000
,
0010
1000
0010
0001
0010
1000
0220
0330
,
1000
0100
0010
0100
0001
0000
0101
0000
,
0100
0010
1000
0010
0100
0000
1100
0000
,
0001
0100
0010
0100
1000
0000
0010
0000
,
0101
1010
1001
0000
;

//---------------dance-single - MANIAC----------------
#NOTES:
     dance-single:
     MANIAC:
     Hard:
     9:
     0.554,0.553,0.660,0.073,0.211,343.000,72.000,8.000,0.000,0.000:
0000
0000
0000
0000
,
0000
0000
0000
0000
0000
0000
1000
0100
1000
0001
0100
0001
,
0100
0000
1000
0000
0001
0000
0010
0000
1000
0000
1001
0000
0000
0000
0000
2002
0000
0000
3003
0000
0000
0000
0000
0000
,
1000
0000
0000
1000
0001
0000
0001
0000
1000
0000
0000
0000
1000
0000
0001
0000
,
1000
0000
0100
0001
0000
0001
1000
0000
0001
0000
0010
0000
1001
0000
0100
0000
,
1000
0000
0000
0100
0001
0000
0001
0000
0100
0000
0000
0000
0001
0000
0100
0000
,
1000
0000
0100
0000
0010
0000
0100
0000
2002
0000
3003
0000
0010
0000
0000
0010
,
0100
0000
0100
0000
0010
0000
0000
0000
1000
0000
0100
0000
0010
0000
0100
0010
,
0000
0010
0100
0000
0001
0000
0000
0000
0110
0000
0000
0000
0010
0000
0000
0010
,
0100
0000
0000
0100
0000
0000
0010
0000
0000
0000
0000
0000
0100
0000
0000
0000
0000
0000
0100
0000
1000
0000
0100
0000
,
1000
0000
0100
0000
0001
0000
0100
0000
0000
0000
0000
0000
0010
0000
0000
0100
0000
0000
0001
0000
0000
1000
0000
0000
,
0010
0100
1001
0000
1000
0100
0001
0100
,
1000
0010
1001
0000
0001
0010
0100
1000
,
0010
0100
1001
0000
0100
0010
0001
0100
,
0010
1000
0110
0000
1010
0000
1100
0000
,
0101
0011
0101
1100
,
1010
0000
0110
0000
0101
0010
1000
0000
,
0100
0000
0000
1000
0000
0000
0100
0000
0000
0000
0000
0000
1000
0000
0010
0000
0100
0000
0001
0000
0100
0000
0010
0000
,
1000
0000
1000
0100
0010
0001
0100
0010
,
1000
0100
0001
0010
0100
1000
0010
0100
,
1001
0000
0001
1000
0100
0010
1000
0001
,
0010
0100
0001
0100
0010
1000
0100
0010
,
1001
0100
1001
0000
1100
0000
0110
0000
,
0011
1001
1100
0110
,
0011
0000
1001
0100
0010
0000
0100
0001
,
0100
0000
0000
1000
0100
0001
0010
1000
0100
0001
0000
0000
,
1000
0100
1100
0100
0010
0100
0110
0000
,
0001
0010
1100
0010
0100
1100
0101
0000
,
1000
0100
1001
0100
0001
0100
1001
0000
,
0001
0000
0010
0000
1100
0000
0100
1100
0000
0000
0000
0000
1000
0000
0100
0000
,
1001
0001
0100
0001
0110
0100
0010
0100
,
1010
0100
0001
1010
1010
0100
0001
0100
,
0101
0100
1000
0100
1100
0010
1010
0000
,
0101
0000
0000
1001
0000
0000
0000
0000
1000
0000
0100
0000
1001
0000
0100
0000
,
0010
0001
1001
0100
0010
1000
1001
1000
,
0100
0010
1001
0010
0100
1000
1001
0100
,
0001
0000
0000
0100
0000
0000
0011
0000
0000
0010
0000
0000
1000
0000
0100
0000
1000
0000
0001
0000
0100
0000
0001
0000
,
1001
0000
1000
0100
1000
0000
0001
0100
,
0001
0000
1000
0100
0001
0010
1000
0000
,
1001
0000
0001
0100
0010
1000
0100
0010
,
0001
0000
0100
1000
0100
0010
0100
0000
,
0110
0000
0001
0100
0010
1000
0010
0100
,
0001
0000
0010
1000
0100
0001
0010
0000
,
1001
0000
0000
0000
1000
0000
0000
0100
0000
0000
0001
0000
0100
0000
0000
1000
,
0000
0000
0100
0000
0110
0000
0000
0110
0000
0000
0110
0000
0110
0000
0100
0000
,
1000
0100
2002
0000
0000
0000
0000
0000
,
0000
0000
0000
3003
,
0000
0000
0000
0000
1000
0000
0000
1000
0001
0000
0001
0000
1000
0000
0000
0000
,
1000
0001
1000
0010
1000
0100
2002
3003
,
0010
0000
0000
0100
0001
0000
1000
0000
0100
0000
0000
0000
0010
0000
0100
0000
,
1000
0000
0100
0001
0000
0001
0100
0000
1000
0000
0000
0000
0110
0000
0000
0000
,
0010
0000
0000
0100
1000
0000
0001
0000
0100
0000
0000
0000
0000
0000
0000
0000
,
1100
1100
0110
0110
0011
0011
1001
0000
0000
0000
0000
0000
;

//---------------dance-single - BEGINNER----------------
#NOTES:
     dance-single:
     BEGINNER:
     Beginner:
     2:
     0.181,0.216,0.192,0.110,0.000,105.000,21.000,12.000,0.000,0.000:
0000
0000
0000
0000
,
0000
0000
1000
0000
,
1000
0000
0000
0000
,
1000
0000
1000
0000
,
0001
0000
0001
0000
,
1000
0000
0001
0000
,
0010
0000
0000
0000
2002
3003
0010
0000
,
0000
0100
0000
1000
,
0000
0100
0000
1000
,
0000
0010
0000
0100
,
0000
0000
0001
0000
,
0020
0030
1000
0000
,
1001
0000
0010
0000
,
0002
0003
0001
0000
,
0110
0000
1000
0000
,
1000
0000
0001
0000
,
0001
0000
0010
0000
,
1000
0001
0110
0000
,
1001
0100
0000
1000
,
0000
0010
0000
0001
,
0000
0100
0000
0100
,
0000
0001
0000
1000
,
0000
0100
0000
0010
,
0000
0100
0000
0010
,
0000
1001
0000
0110
,
0000
1000
0000
1000
,
0001
0000
0100
0000
,
0001
0000
0110
0000
,
0001
0000
0010
0000
,
1000
0000
0110
0100
,
0000
0100
0000
0100
,
0000
0001
0000
0010
,
0000
0000
0000
0000
0010
0000
0000
0000
0000
0000
0000
0000
2002
0000
0000
3003
,
0000
0000
2000
3100
,
0100
0000
0002
0103
,
0100
0000
2000
3010
,
0010
0000
0010
0000
,
0110
1001
0000
0010
,
0000
1100
0000
1000
,
0000
0100
0000
0100
,
0000
0001
0000
1100
,
0000
0101
0000
0001
,
0000
1010
0000
0000
,
0000
0100
0000
0100
,
0000
1001
0000
0100
,
0000
2002
0000
0000
,
3003
0000
0000
1000
,
0000
0110
0000
0100
,
0000
1000
0000
0100
,
0010
0000
0001
0000
,
0100
0000
0010
0000
,
0002
0003
1000
0000
,
1010
0000
0110
0000
;
