#TITLE:Abstract Anger;
#SUBTITLE:;
#ARTIST:External Manifestations;
#TITLETRANSLIT:;
#SUBTITLETRANSLIT:;
#ARTISTTRANSLIT:;
#CREDIT:;
#BANNER:Abstract Anger.png;
#BACKGROUND:Abstract Anger- bg.png;
#LYRICSPATH:;
#CDTITLE:HS2logo.png;
#MUSIC:Abstract Anger.ogg;
#OFFSET:0.000;
#SAMPLESTART:67.380;
#SAMPLELENGTH:12.000;
#SELECTABLE:YES;
#BPMS:0.000=164.000;
#STOPS:;
#BGCHANGES:;
// cache tags:
#FIRSTBEAT:4.000;
#LASTBEAT:351.000;
#SONGFILENAME:Songs/StepMix 1/Abstract Anger/Abstract Anger.sm;
#HASMUSIC:1;
#HASBANNER:1;
#MUSICLENGTH:131.000;
// end cache tags

//---------------dance-single - ----------------
#NOTES:
     dance-single:
     :
     Hard:
     9:
     0.822,0.927,0.656,0.611,0.156,588.000,86.000,80.000,0.000,0.000:
0000
0000
0000
0000
,
1000
0001
0100
0010
,
1000
0001
0100
0010
,
1000
0100
0001
0010
,
2200
0000
3300
0000
0022
0000
0033
1000
,
2200
0000
3300
0000
2002
0000
3003
0010
,
0220
0330
2002
3003
,
0001
0000
1000
0000
0001
0000
1000
0000
0001
0000
1000
0001
1000
0001
1000
0000
,
1000
0001
1100
0000
0101
0000
0101
0000
,
0001
1000
1100
0000
0101
0000
0101
0000
,
0010
0100
0110
0000
1001
0000
1001
0000
,
0001
0100
1100
0000
0110
0000
0110
0000
,
0001
0100
1000
0100
0001
0100
1000
0100
,
0001
0010
1000
0010
0001
0010
1000
0010
,
0001
0100
0001
0100
0001
1000
0100
1000
,
1100
0000
0022
0033
2200
3300
0022
0033
,
0001
1000
0100
0010
0101
0101
1001
0000
,
1000
0001
0010
0100
1010
1010
1001
0000
,
0010
0100
0010
0100
0110
0110
1100
0000
,
0100
0010
0100
0010
0110
0110
0101
0000
,
2002
0000
3003
0000
0220
0000
0330
0000
2002
0000
3003
0000
0220
0330
0000
0000
,
0001
1000
0001
0000
2200
0000
3300
0000
0022
0000
0033
0000
0000
0000
0000
0000
,
0001
0000
1000
0000
2002
3003
0000
0100
,
0022
0000
0000
0000
0033
0000
0000
0000
0001
1000
0001
0000
0000
0000
0000
0000
,
1000
0000
1000
0000
0001
0000
0001
0000
1000
0001
1000
0000
1001
0000
0000
0000
,
0001
0000
0001
0000
1000
0000
1000
0000
0001
1000
0001
0000
1001
0000
0000
0000
,
0001
0000
1000
0000
0100
0000
0010
0000
0100
0010
0100
0000
0110
0000
0000
0000
,
1000
0000
0001
0000
0100
0010
1000
0001
0000
0000
0000
0000
1001
0000
0000
0000
,
0001
0000
1000
0000
0100
0000
0010
0000
0001
0000
1000
0100
0010
0001
0000
0000
,
0001
0100
1000
0100
0001
0000
2002
3003
,
0001
0000
1000
0000
0001
1000
0001
0000
1000
0000
0100
0000
1000
0100
1000
0000
,
0001
0100
1000
0100
0001
0100
1000
0100
,
0001
0100
1000
0010
0001
0100
1000
0010
,
0001
0100
1000
0010
0202
0303
2200
3300
,
0001
0000
1000
0000
0100
0010
0001
0000
1000
0000
0100
0000
0010
0000
0001
1000
,
0001
1000
0001
1000
0202
0303
2200
3300
,
0001
0100
0001
0100
0001
1000
0100
1000
,
0100
0010
0100
0010
0100
0001
0100
0001
,
0100
1000
0100
1000
0100
1000
0100
0001
,
0100
0001
0100
0010
0220
0330
2002
3003
,
0001
0000
1000
0000
0001
1000
0001
0000
1000
0000
0100
0000
1000
0100
1000
0000
,
0010
0000
0100
0000
0010
0100
0010
0000
0001
0000
0100
0000
0001
0100
0001
0000
,
1000
0000
0001
0000
1000
0001
1000
0000
0001
0000
0010
0000
0001
0010
0001
0000
,
0100
0000
0010
0000
0100
0010
0100
0000
1000
0000
0010
0000
1000
0010
1000
0000
,
0001
0010
0100
0010
1000
0100
0010
0100
,
0001
0010
0100
0010
1000
0100
0010
0100
,
0001
0100
2200
3300
,
0001
0000
0100
0000
0001
0000
0100
0000
1000
0100
1000
0000
0001
0100
0001
0000
,
2001
3000
0102
0003
2100
3000
0102
0003
,
1001
0000
1100
0001
0001
1000
1001
0000
,
1001
0000
0011
1000
1000
0001
1001
0000
,
0110
0000
1010
0100
0100
0010
0110
0000
,
0001
0000
1000
0100
0010
0000
0001
0000
1000
0100
0010
0000
0001
0000
1000
0000
,
0001
0000
1000
0100
0010
0000
0001
0000
1000
0100
0010
0000
0001
0000
1000
0000
,
0001
0010
0100
0010
1000
0100
0010
0100
,
0001
0100
0010
1000
0100
1000
0100
0010
,
0001
0000
1000
0100
0010
0000
0001
0000
1000
0100
0010
0000
0202
0000
0303
0000
,
2200
0000
3300
0000
0001
0000
1000
0100
0010
0000
0001
0000
2200
0000
3300
0000
,
0202
0303
0001
1000
0001
1000
2002
3003
,
0220
0000
0330
0000
1000
0000
0001
0000
1000
0001
1000
0001
1000
0000
0000
0000
,
1000
0100
0001
0010
0100
1000
0010
0100
,
1000
0100
0010
1000
0100
0010
0001
0010
,
0001
0010
1000
0100
0010
0001
0100
0010
,
0001
0010
0100
0001
0010
0100
1000
0100
,
1000
0001
1000
0000
0202
0000
0303
0000
2200
0000
0000
0000
3300
0000
0000
0000
,
0001
1000
0001
1000
0001
0100
0001
0100
,
1000
0100
1000
0100
0001
0100
0001
0100
,
0010
0100
0010
0100
0001
0100
0010
0100
,
0110
0110
1001
1001
,
0001
0000
1000
0000
0010
0100
0010
0000
0001
0000
1000
0000
0001
1000
0001
0000
,
1000
0000
0001
0000
0100
0010
0100
0000
1000
0000
0001
0000
1000
0001
1000
0000
,
0100
0000
0010
0000
0001
1000
0001
0000
0100
0000
0010
0000
0100
0010
0100
0000
,
0001
0010
0100
0010
1000
0100
0010
0100
,
0001
0010
0100
1000
0010
0100
1000
0100
,
0001
0010
0100
1000
0010
0100
1000
0100
,
1000
0100
0010
0001
0100
0010
0001
0010
,
0100
1001
1001
1001
,
0001
1000
0001
1000
0100
0001
0100
0001
,
1000
0100
1000
0100
0010
0100
0010
0100
,
0010
0100
0010
0100
0001
1000
0001
1000
,
0010
0100
0010
0100
0001
0100
1000
0010
,
0001
0000
2002
3003
2000
3000
0202
0303
,
0001
1000
0001
1000
,
0001
0100
0220
0330
,
0001
1000
2002
3003
,
0100
0100
0100
0100
,
0100
0100
0200
0300
;

//---------------dance-single - ----------------
#NOTES:
     dance-single:
     :
     Easy:
     3:
     0.229,0.298,0.137,0.046,0.000,186.000,18.000,6.000,0.000,0.000:
0000
0000
0000
0000
,
1000
0000
0000
0000
,
0001
0000
0000
0000
,
1000
0000
0000
0000
,
0001
0000
0000
0000
,
0100
0000
0000
0000
,
0100
0000
0000
0000
,
0100
0000
0000
0000
,
0010
0010
0010
0000
,
0010
0010
0010
0000
,
0100
0100
0100
0000
,
0100
0100
0100
0000
,
1001
0000
1001
0000
,
0010
0010
0010
0000
,
1001
0000
1001
0000
,
0100
0100
0100
0000
,
0001
0010
0000
0000
,
0100
1000
0000
0000
,
1000
0010
0000
0000
,
0001
0010
0000
0000
,
0010
0010
0000
0000
,
0100
0100
0100
0000
,
0100
0000
0000
0000
,
0001
0000
0000
0000
,
1000
0000
0010
0000
,
0100
0000
0001
0000
,
1000
0000
0010
0000
,
0100
0000
0001
0000
,
0010
0010
0000
0000
,
0010
0010
0000
0000
,
1000
0100
0000
0000
,
0010
0001
0000
0000
,
1000
0100
0000
0000
,
0001
0010
0000
0000
,
0100
0000
0100
0000
,
0100
0000
0010
0000
,
1000
1000
1000
1001
,
0000
0000
0000
1001
,
0000
0100
0100
1001
,
0010
0100
0010
1000
,
0100
0000
0100
0000
,
0100
0000
0100
0000
,
0010
0001
0000
0010
,
0000
1000
0000
0001
,
0000
0100
0000
0010
,
0000
1000
0000
0100
,
0000
0010
0000
1000
,
0000
0001
0000
0100
,
0000
0010
0000
0010
,
0000
0010
0000
0000
,
1000
1000
1000
1000
,
0001
0001
0001
0001
,
1000
1000
0010
0000
,
0100
0000
0001
0000
,
1000
0100
0010
0001
,
1000
0010
0100
0001
,
1000
0000
1000
0000
,
0001
0000
0010
0000
,
0100
0100
0000
0000
,
1000
1000
0000
0000
,
0001
0001
1000
1000
,
0001
0001
1000
0000
,
0010
0010
0100
0100
,
0010
0010
0100
0000
,
1000
1000
0001
0001
,
1000
1000
0001
0000
,
1001
0000
0110
0000
,
1001
0000
0001
0000
,
1000
0000
0100
0000
,
0010
0000
0001
0000
,
0010
0000
0100
0000
,
1000
0000
0010
0000
,
0100
0000
0001
0000
,
1000
0000
0010
0000
,
0100
0000
0001
0000
,
1000
0000
0100
0000
,
0010
0000
0000
0000
,
1000
0000
0000
0000
,
0101
0000
0000
0000
,
1010
0000
0000
0000
,
0110
0000
0000
0000
,
0011
0000
0000
0000
,
1100
0000
0000
0000
,
0010
0000
2002
3003
,
1000
0000
2002
3003
,
0001
0000
1000
0000
,
0001
1000
2002
3003
;

//---------------dance-single - ----------------
#NOTES:
     dance-single:
     :
     Challenge:
     10:
     0.743,0.737,0.305,0.458,0.328,581.000,40.000,60.000,4.000,0.000:
0000
0000
0000
0000
,
0001
0100
0010
0010
,
1000
0100
0010
0010
,
0001
0100
0010
0010
,
2000
0000
0000
0000
0200
0000
3000
0310
,
0002
0000
0000
0000
0200
0000
0003
0310
,
2000
0000
0000
0000
3002
0000
0000
1003
,
0100
0000
0010
0000
0001
0000
0010
0000
0100
0010
0100
0010
0100
0010
0100
0010
,
0100
0000
0000
0100
0001
0000
0000
0000
0100
0000
1000
0000
0010
0000
0000
0000
,
0100
0000
0000
0100
0001
0000
0000
0000
0010
0000
1000
0000
0100
0000
0000
0000
,
0001
0000
0000
0001
0010
0000
0000
0000
1000
0000
0001
0000
0100
0000
0000
0000
,
0010
0000
0000
1000
0001
0000
0000
0000
0100
0000
0010
0000
0100
0000
0000
0000
,
0101
0000
1001
0000
1001
0010
1100
0000
,
1010
0000
0101
0000
1001
0100
0011
0000
,
1010
0000
0101
0000
1010
0100
1001
0000
,
0110
0000
0000
0000
1001
0000
0000
1000
0001
0000
0000
1000
0001
0000
0000
1000
,
0010
0100
0001
1000
0100
1000
0020
0000
,
0130
0001
0100
0010
1000
0010
0200
0000
,
0301
0010
0001
1000
0100
1000
0002
0000
,
0013
0100
1000
0010
0100
0001
2000
3000
,
0202
0000
0303
0001
0100
0000
0000
0001
0100
0000
0000
0001
1000
0000
0000
0001
,
1000
0100
0010
0000
0001
0000
0001
0000
0010
0000
0100
0000
0110
0000
0000
0000
,
0001
0000
1000
0000
0000
0000
0000
0000
0000
0000
0000
0000
0000
0000
0000
0010
0001
0000
0000
0000
0000
0000
0000
0000
0000
0000
0000
0000
0000
0000
0000
0000
,
0000
0000
0000
0000
0000
0000
0000
0000
0000
0000
0000
0000
0000
0000
0000
0010
2000
0000
0000
0000
3000
0000
0000
0001
0200
0000
0000
0000
0300
0000
0000
0000
,
0001
0010
0001
0100
1000
0100
0101
0000
,
0010
1000
0010
0100
0001
1000
1010
0000
,
1000
0100
0001
0100
1000
0010
0110
0000
,
0001
0010
0100
0010
0002
0000
1003
0000
,
0100
0000
0010
1000
0010
0000
0100
0000
0001
0000
1000
0000
1001
0000
0000
0000
,
0010
0000
0001
0100
0001
0000
0010
0000
0100
0000
1000
0000
1001
0000
0000
0000
,
0010
0000
1000
0100
1000
0000
0001
0000
0010
0000
0100
0000
0110
0000
0000
0000
,
0010
0000
0001
1000
0001
0000
1000
0000
0001
0000
0010
0000
0110
0000
0000
0000
,
1000
0100
1000
0010
0100
0001
0010
0100
,
1000
0010
0100
0010
0001
0010
2000
0000
,
3010
0100
0001
0010
0001
0100
0010
0100
,
0001
0000
1000
0000
0100
0000
1000
0000
0010
0000
0100
0000
0001
1000
0100
0000
,
0010
0001
0010
0100
0010
0001
0100
0010
,
0100
1000
0100
1000
0100
0010
0011
0000
,
0001
0010
0001
0100
0010
0100
0001
1000
,
0100
0000
1000
0000
0010
0000
0100
0000
0010
0000
0000
1001
0000
0000
1001
0000
,
0010
0000
0100
0000
0010
0000
0100
0000
0010
0000
0100
0000
0002
0000
1000
0003
,
0100
0000
0010
0000
0100
0000
0010
0000
0100
0000
0010
0000
2000
0000
0001
3000
,
0100
0000
0001
0000
0010
0000
0001
0000
0010
0000
0001
0000
0020
0000
0100
0030
,
1000
0001
0010
0100
1000
0000
1010
0000
,
1000
0010
1000
0100
1000
0000
0202
0303
,
1000
0010
1000
0100
1000
0000
0202
0303
,
1000
0010
1000
0100
1000
0000
0202
0303
,
1000
0000
0000
0010
0000
0000
1000
0000
0000
0000
0000
0000
0001
0000
0000
0000
0000
0000
1000
0000
0000
0000
0000
0000
0001
0000
0000
0000
0000
0000
0000
0000
0000
0000
0000
0000
1010
0000
0000
0000
0000
0000
0000
0000
0000
0000
0000
0001
,
0200
0000
0020
0030
0002
0003
1300
0000
,
0002
0000
2000
3000
0020
0030
0100
0003
,
2000
0000
0200
0300
0002
0003
0010
3000
,
0101
0100
0100
1100
,
0001
0000
0010
0000
0001
0010
0100
0000
1000
0000
0100
1000
0000
1000
0010
0100
,
0001
0000
0010
0100
1000
0000
1000
0000
0010
0100
0000
0010
0100
0000
0010
0000
,
1000
0100
1000
0010
0100
0010
0200
0000
,
0301
0000
0010
0000
1000
0000
0010
0000
0001
0000
0100
0000
2000
0000
0000
3000
,
0100
0000
0001
0000
0100
0001
0000
0100
0002
0000
0000
0000
2003
0000
3000
0000
,
0010
0000
1000
0000
0010
1000
0000
0020
0000
0030
0000
0000
0002
0000
0003
0000
,
1000
0000
0100
0000
0010
0001
0000
0001
0000
1000
0000
0000
0001
0100
0000
0001
,
0100
0000
0000
0000
0000
0000
0000
0000
0001
1000
0001
0000
1001
0000
0000
0000
,
0010
0000
0000
0010
0001
0000
0000
0001
0100
0000
0000
0100
1000
0000
0000
1000
,
0010
0000
0000
0010
0100
0000
0000
0100
0001
0000
0000
0001
0010
0000
0000
0010
,
0100
0000
0000
1000
0100
0000
0000
1000
0100
0000
0000
1000
0020
0000
0000
0130
,
0001
0000
0000
0100
0001
0000
0000
0100
0001
0000
1000
0000
0001
0100
0010
0000
,
1000
0000
0000
1000
0200
0000
0000
0300
0010
0001
0010
0001
2000
0000
0000
0000
,
3010
0000
0000
0010
0200
0000
0000
0000
0301
1000
0001
1000
0020
0000
0000
0030
,
0100
0000
0000
0100
0002
0000
0000
0000
1003
0100
1000
0100
0020
0000
0000
0030
,
0001
0010
1000
0000
1000
0100
1001
0000
,
0010
1000
0001
0110
,
1000
0000
0100
0000
1000
0001
0010
0000
0100
0000
0000
1000
0000
0000
0001
0000
,
0100
0000
0010
0000
1000
0001
0100
0000
0010
0000
0000
0100
0000
0000
1000
0000
,
0001
0000
0010
0000
0001
1000
0100
0000
0010
0000
0000
0001
0000
0000
1000
0000
,
0100
1000
0100
1000
0010
0100
0002
0000
,
1003
0010
0100
0001
0010
0001
0020
0000
,
0130
1000
0010
0100
0001
0010
0200
0000
,
0310
0001
0010
0001
1000
0001
1100
0000
,
0010
0100
0001
0010
0100
1000
0010
0100
,
0001
0010
0100
1000
0001
0010
0001
0010
,
1000
0100
1000
0010
0100
0001
0100
1000
,
0100
1000
0100
0010
0100
0001
1001
0000
,
1000
0100
0000
0000
0000
0000
0000
0000
1000
0001
0000
0000
0000
0000
0000
0000
0001
0100
0000
0000
0000
0000
0000
0000
2000
0002
0000
0000
0000
0000
3003
0000
,
0010
0100
0000
0000
0000
0000
0000
0000
1000
0001
0000
0000
0000
0000
0000
0000
0001
0100
0000
0000
0000
0000
0000
0000
2200
0000
0000
0000
0000
0000
3300
0000
,
1000
0001
0000
0000
0000
0000
0000
0000
0001
0010
0000
0000
0000
0000
0000
0000
0001
0100
0000
0000
0000
0000
0000
0000
0000
M0M0
0000
0000
0000
0000
0000
0000
,
0100
0100
0100
0MM0
,
1000
0010
0001
0010
2000
0000
3001
0000
,
0001
0100
1000
0100
0020
0000
0031
0000
,
1000
0100
0010
0001
0020
0000
0230
0000
,
2300
0000
0000
0000
0002
3003
0110
0000
;

//---------------dance-single - ----------------
#NOTES:
     dance-single:
     :
     Medium:
     6:
     0.408,0.430,0.237,0.099,0.000,330.000,31.000,13.000,0.000,0.000:
0000
0000
0000
0000
,
0010
0010
0010
0100
,
0010
0010
0010
0100
,
0010
0010
0010
0100
,
0020
0000
0000
0000
,
2030
0000
0000
0000
,
3200
0000
0000
0000
,
0301
0001
0001
0001
,
1000
0010
1000
0000
0100
0000
0010
0000
,
0001
1000
0100
0000
0010
0000
0001
0000
,
0100
0010
1000
0000
0100
0000
0010
0000
,
0001
0100
0010
0000
1000
0000
0100
0000
,
0010
0010
0000
1001
,
0010
0010
0000
1001
,
0100
0100
0000
1001
,
0001
0101
1000
1100
,
0010
0000
0010
0000
0100
0001
1000
0000
,
0010
0000
0010
0000
0010
0100
0001
0000
,
1000
0000
0100
0000
0010
0001
0100
0000
,
1000
0000
1000
0000
0010
0100
0001
0000
,
1000
0000
0000
0000
,
1001
0110
0001
1000
,
0100
0000
0000
0000
,
0010
0000
0000
0000
,
0001
0101
1000
1100
,
0001
0101
1000
1100
,
0010
0110
0100
0110
,
0010
0001
1000
0010
,
1000
0100
1000
0000
0010
0000
0000
0000
,
0100
1000
0100
0000
0010
0000
0000
0000
,
0001
0010
0001
0000
0100
0000
0000
0000
,
1000
0010
0100
0000
0100
0000
0100
0000
,
0001
1000
0100
0010
,
0001
0000
1000
0000
0010
0010
0010
0000
,
0100
0001
1000
0100
,
0010
0000
0001
0000
1100
0100
0010
0000
,
0001
1000
0010
0100
,
0001
0000
1000
0000
0100
0100
0100
0000
,
0001
0010
0100
1000
,
0010
0000
0100
0000
0101
0010
1000
0000
,
0100
1000
0100
0010
,
0001
0100
1000
0001
,
0010
1000
0010
0001
,
1100
0011
1100
0011
,
0001
1000
0010
0100
,
0001
0010
0100
0010
,
0001
1000
0010
0100
,
0001
1000
0001
1000
0001
1000
0001
1000
,
0010
0000
0000
0110
,
0000
0000
1000
1000
,
1000
0000
1000
1000
,
1000
0000
0010
0010
,
0010
0100
0001
0010
,
0100
1000
0010
0100
,
0002
0000
0000
1003
,
2000
0000
0000
3010
,
0020
0000
0000
0130
,
0200
0000
0000
0301
,
1000
1000
1000
0100
,
0010
0001
1000
0010
,
0100
0001
0010
0100
1000
0000
0010
0000
,
0100
0001
0010
0100
1000
0000
0010
0000
,
0100
0001
0010
0100
1000
0000
0010
0000
,
1000
0100
0010
0000
0001
0000
1000
0000
,
0100
0010
0001
0100
0010
0000
1000
0000
,
0100
0010
0001
0100
0010
0000
1000
0000
,
0010
0100
0001
1000
0100
0000
1001
0000
,
0010
0010
0010
1100
,
0010
0001
0100
1010
,
0000
0001
0000
1000
,
0010
0000
0100
0000
,
0001
1000
0000
0010
,
0000
0100
0001
0010
,
0100
1000
0010
0100
,
0001
0100
1000
0010
,
0001
0100
1000
0010
,
0100
0001
0010
0100
,
1000
0010
0100
0001
,
0010
0100
1000
0010
,
0010
0001
0010
0001
0010
0000
1100
0000
,
0100
0100
0100
0110
,
0001
0001
0001
0011
,
1001
1000
0001
1000
,
0001
0100
2020
3030
,
0000
0100
0022
0033
,
0100
0000
0110
0000
,
0100
0010
0100
0000
2002
0000
3003
0000
;

//---------------dance-single - ----------------
#NOTES:
     dance-single:
     :
     Beginner:
     1:
     0.109,0.160,0.038,0.000,0.000,95.000,5.000,0.000,0.000,0.000:
0000
0000
0000
0000
,
0000
0000
0000
0000
,
0000
0000
0000
0000
,
0000
0000
0000
0000
,
0001
0000
0000
0000
,
1000
0000
0000
0000
,
0010
0000
0000
0000
,
0100
0000
0100
0000
,
0010
0000
0000
0000
,
0001
0000
0000
0000
,
1000
0000
0000
0000
,
0100
0000
0000
0000
,
0010
0010
0000
0000
,
0010
0010
0000
0000
,
0001
0001
0000
0000
,
0001
0001
0000
0000
,
1000
0000
0000
0000
,
0110
0000
0000
0000
,
0001
0000
0000
0000
,
1001
0000
0000
0000
,
0010
0000
0000
0000
,
0100
0000
0000
0000
,
1000
0000
0000
0000
,
0001
0000
0000
0000
,
0010
0000
0000
0000
,
0100
0000
0000
0000
,
1000
0000
0000
0000
,
0010
0000
0000
0000
,
0100
0000
0000
0000
,
0001
0000
0000
0000
,
0010
0000
0000
0000
,
0100
0000
0000
0000
,
1000
0000
0000
0000
,
0010
0000
0010
0000
,
0100
0000
0000
0000
,
0001
0000
0001
0000
,
1000
0000
0000
0000
,
0010
0000
0010
0000
,
0100
0000
0000
0000
,
0001
0000
1000
0000
,
0010
0000
0000
0000
,
0100
0000
0000
0000
,
0001
0000
0000
0000
,
1000
0000
0000
0000
,
0010
0000
0010
0000
,
0100
0000
0100
0000
,
0001
0000
1000
0000
,
0010
0000
0000
0000
,
1001
0000
0000
0000
,
0000
0000
0000
0000
,
0100
0000
0000
0000
,
0010
0000
0000
0000
,
0001
0000
0000
0000
,
1000
0000
0000
0000
,
0010
0000
0000
0000
,
0100
0000
0000
0000
,
0001
0000
0000
0000
,
0001
0000
0000
0000
,
1000
0000
0000
0000
,
1000
0000
0000
0000
,
0010
0010
0000
0000
,
0010
0010
0000
0000
,
0100
0100
0000
0000
,
0100
0100
0000
0000
,
0001
0000
0000
0000
,
1000
0000
0000
0000
,
0001
0000
0000
0000
,
0100
0000
0000
0000
,
0010
0000
0000
0000
,
1000
0000
0000
0000
,
0001
0000
0000
0000
,
0010
0000
0000
0000
,
0100
0000
0000
0000
,
0100
0000
0000
0000
,
0001
0000
0000
0000
,
1001
0000
0000
0000
,
0010
0000
0000
0000
,
0100
0000
0000
0000
,
0001
0000
0000
0000
,
1000
0000
0000
0000
,
0010
0000
0000
0000
,
0000
0000
0000
0000
,
0100
0000
0000
0000
,
0001
0000
0000
0000
,
1001
0000
0000
0000
;
