#TITLE:Bust A Move 2;
#SUBTITLE:- Happy Heart;
#ARTIST:989 Studios;
#TITLETRANSLIT:;
#SUBTITLETRANSLIT:;
#ARTISTTRANSLIT:;
#CREDIT:;
#BANNER:banner.jpg;
#BACKGROUND:bg.jpg;
#LYRICSPATH:;
#CDTITLE:;
#MUSIC:Shorty - Happy Heart.mp3;
#OFFSET:-3.587;
#SAMPLESTART:53.450;
#SAMPLELENGTH:12.000;
#SELECTABLE:YES;
#BPMS:0.000=119.934;
#STOPS:;
#BGCHANGES:;
// cache tags:
#FIRSTBEAT:0.000;
#LASTBEAT:512.000;
#SONGFILENAME:Songs/Games/Shorty - Happy Heart/Shorty - Happy Heart.sm;
#HASMUSIC:1;
#HASBANNER:1;
#MUSICLENGTH:265.299;
// end cache tags

//---------------dance-single - ----------------
#NOTES:
     dance-single:
     :
     Challenge:
     9:
     0.464,0.482,0.275,0.460,0.780,667.000,73.000,122.000,0.000,3.000:  // measure 1
1001
0000
1000
0100
0002
0000
0000
0003
0000
0000
0001
0010
1000
0000
0100
0000
,  // measure 2
0001
0010
0100
1000
0010
0200
0000
0300
,  // measure 3
0000
0000
1000
0100
0001
0000
0000
0000
0010
0000
0100
0000
1000
0000
0010
0000
,  // measure 4
0000
0001
0010
0000
0100
1000
0010
0100
,  // measure 5
1001
0000
0000
0000
0220
0000
0000
0330
0000
0000
1000
0010
0001
0000
0100
0000
,  // measure 6
1000
0010
0100
0001
1000
2020
0000
3030
,  // measure 7
0000
0000
1000
0100
0001
0000
0000
0000
0010
0000
0100
0000
1000
0000
0002
0000
,  // measure 8
0000
0003
0000
0000
0000
0000
0002
0000
0023
0000
2030
0000
3200
0000
0302
0000
,  // measure 9
0023
0000
0000
0000
0230
0000
0000
0000
0010
0000
0000
0000
0010
0000
0000
0001
,  // measure 10
0000
0000
0010
0000
0010
0000
0000
0000
0001
0000
0000
0000
0010
0000
0000
0310
,  // measure 11
0000
0000
0001
0000
0010
0000
0000
0000
0001
0000
0000
0000
0100
0000
0000
1000
,  // measure 12
0000
0000
0010
0000
0101
0000
0000
0000
1000
0000
0000
0000
1001
0000
0000
1001
,  // measure 13
0000
0000
0110
0000
0110
0000
0000
0000
1000
0000
0010
0000
0000
0002
0000
0000
,  // measure 14
0000
0000
0000
0003
0100
0000
0000
1000
0000
0010
0200
0000
0000
0000
0000
0000
,  // measure 15
0000
0300
0000
0000
1000
0100
0000
0001
0000
0000
0010
0000
0100
0000
0000
1000
,  // measure 16
0000
0000
0000
1000
0000
0000
0010
0000
0001
0000
0100
0000
1000
0010
0001
0200
,  // measure 17
0000
0000
0000
0000
0000
0300
0000
0000
1000
0000
0010
0000
0000
0200
0000
0000
,  // measure 18
0000
0000
0300
0000
0001
0000
0000
0010
0000
0100
2000
0000
0000
0000
0000
0000
,  // measure 19
0000
0000
3000
0000
1000
0100
0000
0001
0000
0000
0010
0000
0100
0000
1000
0010
,  // measure 20
0000
0000
0000
0000
0001
0000
0010
0000
1000
0000
0100
0000
0001
0010
1000
0100
,  // measure 21
0000
0000
0000
0000
0020
0000
0000
0030
0000
0000
1000
0010
0001
0000
0100
0000
,  // measure 22
1000
0010
0001
0100
1000
2002
0000
0000
,  // measure 23
3003
0100
0010
1000
0001
0000
0000
0000
0010
0000
0100
0000
1001
0000
0010
0000
,  // measure 24
0000
0010
0100
1000
0010
0000
0000
0000
1010
0100
0000
0000
0001
0000
0010
0000
,  // measure 25
0011
0000
0000
0000
2002
0000
0000
3003
0000
0010
0100
1000
0010
0000
0001
0000
,  // measure 26
0100
1000
0010
0100
1000
1001
0000
0000
,  // measure 27
0000
0000
0001
0100
1000
0010
0000
0000
0001
0000
0100
0000
1000
0000
0010
0000
,  // measure 28
0000
0000
0000
0002
0023
2030
3200
0302
,  // measure 29
0023
0000
0000
0000
0230
0000
0000
0000
0010
0000
0000
0000
0010
0000
0000
0001
,  // measure 30
0000
0000
1000
0300
0010
0000
0000
0000
1001
0000
0000
0000
0010
0000
0000
0001
,  // measure 31
0000
0100
0000
0000
1001
0000
0000
0000
0010
0000
0000
0000
0101
0000
0000
1100
,  // measure 32
0000
0000
1010
0000
0011
0000
0000
0000
0100
0000
0000
0000
0110
0000
0000
1010
,  // measure 33
0000
0000
0101
0000
0011
0000
0000
0000
0001
0000
0100
0000
0000
2000
0000
0000
,  // measure 34
0000
0000
0000
3000
0010
0000
0000
0001
0000
0100
2000
0000
0000
0000
0000
0000
,  // measure 35
0000
0000
0000
0000
3000
0000
0000
0000
0000
0000
0000
0000
1000
0000
0000
0000
0100
0000
0000
0000
0000
0000
0000
0000
0000
0000
0010
0000
0000
0000
0000
0000
0000
0000
0000
0000
0000
0001
0000
0000
0000
0000
0000
0000
0100
0000
0000
0000
0000
0000
0000
0000
0000
0000
0000
0000
1010
0000
0000
0000
0000
0000
0000
0000
,  // measure 36
0000
0000
0000
0000
0000
0000
0100
0000
0000
0000
1000
0000
0000
0000
0010
0000
0000
0000
0001
0000
0000
0000
0100
0000
1000
0000
0010
0000
0000
0200
0000
0000
,  // measure 37
0000
0000
0000
0000
0000
0300
0000
0000
0000
0000
0000
0000
0000
0000
0000
0000
0000
0000
0000
0000
0000
0000
0000
0000
0000
0000
0000
0000
0000
0000
0000
0000
1000
0000
0000
0000
0000
0000
0000
0000
0001
0000
0000
0000
0000
0000
0000
0000
0000
0000
0000
0000
0020
0000
0000
0000
0000
0000
0000
0000
0000
0000
0000
0000
,  // measure 38
0000
0000
0030
0000
1001
0000
0010
0000
0000
0100
2002
0000
0000
0000
0000
0000
,  // measure 39
0000
0003
3000
0010
1000
0000
0100
0000
0000
0010
0000
0001
0000
0000
0000
0001
,  // measure 40
0000
0000
0000
0001
0000
0010
0000
1000
0000
0100
0000
0010
0000
0001
0100
1000
,  // measure 41
0000
0010
0000
0001
0100
0000
0000
0000
0000
0000
1000
0100
0001
0000
0010
0000
,  // measure 42
0100
1000
0010
0001
0100
1010
0000
0000
,  // measure 43
0000
0100
0001
0010
0000
0000
0000
0100
0000
1000
0000
0100
0000
0010
0000
0000
,  // measure 44
0000
0000
0011
0000
1000
0000
0000
0010
0000
0001
0000
0100
0000
1000
0000
0000
,  // measure 45
0010
0000
0000
0000
0200
0000
0000
0000
0300
0000
0010
0001
0100
0000
1000
0010
,  // measure 46
0000
0100
0000
1000
0000
0010
0000
0100
0000
2002
0000
0000
0000
0000
0000
0000
,  // measure 47
3003
0010
0000
0100
1000
0000
0000
0000
0010
0000
0100
0000
0001
0000
0022
0000
,  // measure 48
0000
0000
0033
0010
1000
0100
0001
0010
,  // measure 49
1000
0000
0001
0000
0000
0000
0000
1000
0000
0000
0000
0000
0010
0001
0000
0100
,  // measure 50
0000
1000
0000
0010
0000
0100
0000
1000
0000
2002
0000
0000
0000
0000
0000
0000
,  // measure 51
0000
0000
0000
0000
0000
0000
0000
0000
3003
0000
0000
0000
0000
0000
0000
0000
0000
0000
0000
0000
0000
0000
0000
0000
0000
0000
0000
0000
1000
0000
0000
0000
0000
0000
0000
0000
0000
0010
0000
0000
0000
0000
0000
0000
0000
0000
0000
0000
0000
0000
0000
0000
0001
0000
0000
0000
0000
0000
0000
0000
0100
0000
0000
0000
,  // measure 52
0000
2000
0000
0000
0000
0020
3000
0000
0000
0000
0000
0000
0000
0000
0000
0030
,  // measure 53
1001
0000
0000
1000
0000
0000
0010
0000
0000
0100
0000
0001
0000
0010
0000
0000
,  // measure 54
0000
0000
0000
1000
0000
0000
0001
0000
0000
0010
0000
0100
0000
1000
0000
0000
,  // measure 55
0000
0000
0000
2002
0000
0000
0000
3223
0000
0000
0000
0330
1000
0000
0010
0000
,  // measure 56
0001
0000
2002
0000
0000
0000
0000
0000
0000
0000
0000
0000
0000
0000
0000
3003
,  // measure 57
1001
0000
0000
0020
0000
0000
0000
0000
0030
0100
1000
0010
0001
0000
0100
1000
,  // measure 58
0000
0010
0000
0001
0000
0100
0000
1000
0000
2200
0000
0000
0000
0000
0000
0000
,  // measure 59
3300
1000
0000
0001
0000
0000
0000
0010
0000
0100
0000
1000
0000
0010
0000
0000
,  // measure 60
0000
0001
0000
0010
0000
0000
0000
1000
0000
0100
0000
0001
0000
0010
0000
1000
,  // measure 61
0000
0000
0000
0220
0000
0000
0000
0000
0330
1000
0000
0010
0000
0001
0000
0100
,  // measure 62
0000
1000
0000
0010
0000
0001
0000
0100
0000
0000
2200
0000
0000
0000
0000
0000
,  // measure 63
3300
0000
0000
0010
0000
0000
0200
0000
0000
0000
0000
0000
0310
0000
0000
0001
0000
0000
0100
0000
2000
0000
0000
0000
,  // measure 64
0000
0000
0000
0000
0000
0000
0000
0000
0000
0000
0000
0000
0000
0000
0000
0000
3000
0000
0000
0000
0000
0000
0000
0000
1000
0000
0000
0000
0000
0000
0000
0000
0010
0000
0000
0000
0000
0000
0000
0000
0001
0000
0000
0000
0000
0000
0000
0000
0100
0000
0000
0000
0000
1000
0000
0000
0000
0000
0000
0000
0002
0000
0000
0000
,  // measure 65
0000
0000
0000
1000
0000
0000
0000
0010
0000
0000
0000
0100
0000
0000
0010
0000
,  // measure 66
0000
0100
0000
0013
0000
0000
0000
0100
0000
0000
0000
0010
0000
0000
0100
0000
,  // measure 67
0000
1001
0000
0010
0000
0000
0000
1100
0000
0000
0000
0101
0000
0000
0011
0000
,  // measure 68
0000
1100
0000
1010
0000
0000
0000
1000
0000
0000
0000
0010
0000
0000
0001
0000
,  // measure 69
0000
0100
0000
1001
0000
0000
0000
1000
0000
0010
0000
0001
0000
0100
0000
1000
,  // measure 70
0000
0010
0000
0200
0000
0000
0002
0300
0000
0023
0000
0000
0000
0000
0000
0030
,  // measure 71
0000
0000
0000
0110
0000
0000
1000
0000
0000
0010
0000
0001
0000
0100
0000
1000
,  // measure 72
0000
0010
0000
0002
0000
0000
2003
0000
0000
3020
0000
0000
0000
0000
0000
0000
,  // measure 73
0000
0000
0000
0000
0000
0030
0000
1000
0000
0100
0000
0001
0000
0010
0000
1000
,  // measure 74
0000
0100
0000
1010
0000
0000
0101
0000
0000
0011
0000
0000
0000
0000
0000
0000
,  // measure 75
0000
0000
0000
0100
1000
0000
0010
0000
0000
0001
0000
0100
0000
1000
0000
0010
,  // measure 76
0000
0100
0000
2002
0000
0000
0000
0000
0000
0000
0000
0000
0000
0000
0000
0000
,  // measure 77
0000
0003
3000
1001
0000
0000
0000
0010
0000
0100
0000
0000
2000
0000
0000
0000
,  // measure 78
0000
0000
3000
0010
0000
0000
0001
0000
0100
2000
0000
0000
0000
0000
0000
0000
,  // measure 79
3000
0000
0000
1000
0100
0000
0001
0000
0000
0010
0000
0200
0000
0000
0020
0000
,  // measure 80
0300
0000
0000
0031
0000
0010
0000
1000
0000
0100
0000
0001
0010
1000
0200
0000
,  // measure 81
0000
0000
0000
0000
0000
0300
0000
1000
0000
0100
0000
0000
0002
0000
0000
0000
,  // measure 82
0000
0003
0000
1000
0000
0000
0100
0000
0010
0002
0000
0000
0000
0000
0000
0000
,  // measure 83
0003
0000
0000
0001
0100
0000
1000
0000
0000
0010
0000
0100
0000
1000
0020
0000
,  // measure 84
0000
0000
0000
0130
0000
0001
0000
0010
0000
1000
0000
0100
0001
0010
1000
0000
,  // measure 85
0000
0100
0000
0001
0010
0000
0000
0000
0000
0100
1000
0010
0000
0001
0000
0100
,  // measure 86
0000
1000
0000
0010
0000
0100
0000
0001
0000
2002
0000
0000
0000
0000
0000
3003
,  // measure 87
0000
0010
0100
1000
0000
0000
0000
0010
0000
0100
0000
0001
0000
0010
0000
0000
,  // measure 88
0000
1000
0000
0001
0000
0000
0000
0100
0000
1000
0000
0010
0000
0001
0000
0100
,  // measure 89
0000
0000
0000
2020
0000
0000
0000
0000
3030
0100
0000
0001
0010
0000
0100
1000
,  // measure 90
0000
0010
0000
0100
0000
0001
0000
1000
0000
2002
0000
0000
0000
0000
0000
3003
,  // measure 91
0000
0010
0000
0001
0000
0000
0000
0010
0000
0100
0000
1000
0000
0010
0000
0000
,  // measure 92
0000
0000
0000
0000
0000
0010
0000
0100
0000
0001
0000
1000
0000
0010
0000
0100
,  // measure 93
0000
1000
0000
0000
0000
0000
0000
0020
0000
0000
0000
0130
0000
1000
0000
0010
,  // measure 94
0000
0001
0000
0100
0000
1000
0000
0100
0000
2200
0000
0000
0000
0000
0000
0000
,  // measure 95
0000
0000
0000
3300
0000
0000
0000
1000
0000
0010
0000
0001
0000
0100
0000
1000
,  // measure 96
0000
0020
0000
0000
0000
0200
0000
0000
0000
0000
0000
0000
0000
0000
0000
0000
,  // measure 97
0330
0000
0000
1000
0000
0000
0001
0000
0000
0100
0000
1000
0000
0010
0000
0000
,  // measure 98
0000
0000
0000
0010
0000
0000
0001
0000
0000
0010
0000
0100
0000
1000
0000
0000
,  // measure 99
0000
0000
0000
2200
0000
0000
3300
0202
0000
0000
0000
0000
0000
1000
0000
0300
,  // measure 100
0000
0003
0000
0000
0000
0000
0000
0000
0000
0000
0000
0000
0000
0000
0001
0000
,  // measure 101
0000
0000
0000
2002
0000
0000
0000
3003
0000
0010
0000
0100
0000
0010
0000
0001
,  // measure 102
0000
0100
0000
1000
0000
0010
0000
0001
0000
2002
0000
0000
0000
0000
3003
0000
,  // measure 103
0000
1000
0000
0100
0000
0000
0000
0001
0000
0010
0000
1000
0000
0100
0000
0000
,  // measure 104
0000
0010
0000
0100
0000
0000
0000
1000
0000
0010
0000
0001
0000
0100
0000
1000
,  // measure 105
0000
0000
0000
2002
0000
0000
0000
0003
3000
0010
0100
1000
0000
0010
0000
0100
,  // measure 106
0000
0001
0000
0010
0000
0100
0000
1000
0000
0220
0000
0000
0000
0330
0000
0000
,  // measure 107
0000
1000
0000
0100
0000
0000
0000
0001
0000
0010
0000
0100
0000
2000
0000
0000
,  // measure 108
0000
0000
0000
0000
3000
0100
0000
0001
0000
0010
0000
0100
0000
0001
0000
0020
,  // measure 109
0000
0000
0030
2002
0000
0000
3003
0000
0000
1000
0000
0001
0000
0010
0000
1000
,  // measure 110
0000
0010
0000
0001
0000
0100
0000
1000
0000
2002
0000
0000
0000
3003
0000
0000
,  // measure 111
0000
1000
0000
0100
0000
0000
0000
0001
0000
0010
0000
0100
0000
0001
0000
0000
,  // measure 112
0000
0100
0000
0010
0000
0000
0000
0001
0000
0100
0000
1000
0000
0010
0000
0100
,  // measure 113
0000
0000
0000
2020
0000
0000
0000
3030
0000
1000
0000
0010
0000
0001
0000
0100
,  // measure 114
0000
1000
0000
0010
0000
0100
0000
1000
0000
2002
0000
0000
0000
0000
0000
3003
,  // measure 115
0000
0010
0000
0100
0000
0000
0000
0011
0000
1010
0000
0100
0000
0001
0000
0000
,  // measure 116
0000
0000
0000
0000
0000
1000
0000
0100
0000
0001
0000
0010
0000
1000
0000
2000
,  // measure 117
0000
0000
0000
0001
0000
0000
0000
0010
0000
0000
0000
0100
0000
0000
3010
0000
,  // measure 118
0000
0010
0000
0100
0000
1000
0000
0010
0000
0001
0000
0100
0000
1000
0000
0020
,  // measure 119
0000
0000
0000
0230
0000
0000
0000
0000
0000
0000
0000
0000
0000
0000
0000
0000
,  // measure 120
0000
0000
0300
0000
0000
1000
0000
0010
0000
0001
0000
0100
0000
1000
0000
0020
,  // measure 121
0000
0000
0000
0200
0000
0000
0000
0000
0000
0000
0000
0000
0000
0000
0000
0000
,  // measure 122
0000
0000
0330
0000
0000
1000
0000
0001
0000
0010
0000
1000
0000
0100
0000
2020
,  // measure 123
0000
0000
3000
0232
0000
0000
0000
0000
0000
0000
0000
0000
0000
0000
0000
0000
,  // measure 124
0000
0000
0000
0000
,  // measure 125
0303
0000
0000
2002
0000
0000
0000
0000
0000
0000
0000
0000
0000
0000
0000
0000
,  // measure 126
0000
0000
0000
0000
,  // measure 127
0000
0000
0000
0000
,  // measure 128
0000
0000
0000
0000
,  // measure 129
3003
0000
0000
0000
;
