#TITLE:been so long;
#SUBTITLE:;
#ARTIST:m-flo;
#TITLETRANSLIT:;
#SUBTITLETRANSLIT:;
#ARTISTTRANSLIT:;
#CREDIT:;
#BANNER:Been So Long.png;
#BACKGROUND:Been So Long-bg.png;
#LYRICSPATH:;
#CDTITLE:./CDTitles/ddr_clubver.png;
#MUSIC:Been So Long.mp3;
#OFFSET:-0.068;
#SAMPLESTART:18.820;
#SAMPLELENGTH:12.000;
#SELECTABLE:YES;
#BPMS:0.000=96.000;
#STOPS:;
#BGCHANGES:;
// cache tags:
#FIRSTBEAT:16.000;
#LASTBEAT:147.000;
#SONGFILENAME:Songs/Dance Dance Revolution Club Mix/Been So Long/Been So Long.sm;
#HASMUSIC:1;
#HASBANNER:1;
#MUSICLENGTH:97.523;
// end cache tags

//---------------dance-single - ----------------
#NOTES:
     dance-single:
     :
     Easy:
     3:
     0.209,0.203,0.000,0.000,0.000,143.000,0.000,0.000,0.000,0.000:  // measure 1
0000
0000
0000
0000
,  // measure 2
0000
0000
0000
0000
,  // measure 3
0000
0000
0000
0000
,  // measure 4
0000
0000
0000
0000
,  // measure 5
0010
0000
0100
0000
1000
0100
0001
0000
,  // measure 6
0001
0100
1000
0000
0001
0000
0100
0000
,  // measure 7
1000
0000
0100
0000
0001
0100
1000
0000
,  // measure 8
1000
0100
0001
0000
0000
0000
1000
0000
,  // measure 9
0000
0000
0001
0000
0010
0100
1000
0000
,  // measure 10
0100
0010
0001
0000
0000
0000
1000
0000
,  // measure 11
0000
0000
0001
0000
0010
0100
1000
0000
,  // measure 12
0010
0100
0001
0000
0000
0000
1000
0000
,  // measure 13
0010
0000
0100
0000
0010
0100
1000
0000
,  // measure 14
0010
0001
1000
0100
,  // measure 15
0010
0000
0100
0000
0010
0100
0001
0000
,  // measure 16
0001
0010
1000
0100
,  // measure 17
0010
0000
0100
0000
1000
0001
0100
0000
,  // measure 18
0010
0000
0100
0000
0001
1000
0100
0000
,  // measure 19
1000
0000
0001
0000
0000
1000
0001
0000
,  // measure 20
0001
0000
1000
0000
0000
0001
1000
0000
,  // measure 21
0001
0100
1000
0100
,  // measure 22
1000
0000
0001
0000
0010
1000
0100
0000
,  // measure 23
0100
0001
0100
1000
,  // measure 24
0001
0000
1000
0000
0010
0001
0100
0000
,  // measure 25
0100
0001
0100
1000
,  // measure 26
0100
0000
0100
0000
0000
1000
0100
0000
,  // measure 27
0010
0001
0100
1000
,  // measure 28
0010
1000
0100
0001
,  // measure 29
0010
0000
0100
0000
1000
0100
0001
0000
,  // measure 30
0001
0100
1000
0000
0001
0000
0100
0000
,  // measure 31
1000
0000
0100
0000
0001
0100
1000
0000
,  // measure 32
1000
0100
0001
0000
0000
0000
1000
0000
,  // measure 33
0000
0000
0001
0000
0010
0100
1000
0000
,  // measure 34
0100
0010
0001
0000
0000
0000
1000
0000
,  // measure 35
0000
0000
0001
0000
0010
0100
1000
0000
,  // measure 36
1000
0000
0100
0000
0001
1000
0001
1000
,  // measure 37
0001
0000
0000
0000
;

//---------------dance-single - ----------------
#NOTES:
     dance-single:
     :
     Medium:
     5:
     0.252,0.258,0.277,0.000,0.000,145.000,27.000,0.000,0.000,0.000:  // measure 1
0000
0000
0000
0000
,  // measure 2
0000
0000
0000
0000
,  // measure 3
0000
0000
0000
0000
,  // measure 4
0000
0000
0000
0000
,  // measure 5
0010
0000
0100
0000
1000
0100
0001
0000
,  // measure 6
1000
0010
0101
0000
1000
0000
0100
0000
,  // measure 7
0010
0000
0100
0000
0001
0100
1000
0000
,  // measure 8
0001
0010
1100
0000
1000
0000
0100
0000
,  // measure 9
0001
0110
1000
0110
,  // measure 10
0001
1000
0001
0000
1000
0000
0101
0000
,  // measure 11
0001
1100
0010
1000
,  // measure 12
1001
0000
0110
0000
0000
0001
0010
0001
,  // measure 13
0010
0000
0000
0000
,  // measure 14
1000
1000
0001
0001
,  // measure 15
0100
0000
0001
0000
0100
0010
0001
0000
,  // measure 16
1100
1001
0011
1001
,  // measure 17
0001
0000
0010
0000
0100
1000
1001
0000
,  // measure 18
0001
0001
1000
1000
,  // measure 19
1001
0000
0010
0000
0100
1000
0001
0000
,  // measure 20
1001
0000
0010
0000
0100
0001
1000
0000
,  // measure 21
0001
0010
1000
0100
,  // measure 22
0001
0000
0010
0000
1000
0100
0001
0010
,  // measure 23
1000
0100
0001
0010
,  // measure 24
1000
1100
0001
0101
,  // measure 25
1000
0110
0001
0110
,  // measure 26
1000
0000
0010
0000
0001
0100
1000
0010
,  // measure 27
0001
0100
1000
1001
,  // measure 28
1000
0100
0010
0001
,  // measure 29
0010
0000
0100
0000
0001
0100
1000
0000
,  // measure 30
0001
0010
1100
0000
1000
0000
0100
0000
,  // measure 31
0010
0000
0100
0000
1000
0100
0001
0000
,  // measure 32
1000
0010
0101
0000
0001
0000
0100
0000
,  // measure 33
1000
0110
0001
0110
,  // measure 34
1000
0001
1000
0000
0001
0000
1100
0000
,  // measure 35
1000
0101
0010
0001
,  // measure 36
1001
0000
0000
0000
0000
1000
0100
1000
,  // measure 37
0001
0000
0000
0000
;

//---------------dance-single - ----------------
#NOTES:
     dance-single:
     :
     Hard:
     6:
     0.265,0.258,0.174,0.000,0.010,164.000,17.000,0.000,0.000,0.000:  // measure 1
0000
0000
0000
0000
,  // measure 2
0000
0000
0000
0000
,  // measure 3
0000
0000
0000
0000
,  // measure 4
0000
0000
0000
0000
,  // measure 5
0010
0000
0100
0000
1000
0100
0001
0100
,  // measure 6
1000
0100
1001
0000
0001
0000
0100
0000
,  // measure 7
1000
0000
0100
0000
0001
0100
1000
0100
,  // measure 8
1000
0100
0001
0000
0010
0000
1000
0000
,  // measure 9
0100
0000
0001
0000
0010
0100
1000
0100
,  // measure 10
0001
0010
0100
0000
1000
0000
0101
0000
,  // measure 11
0001
1100
0010
0110
,  // measure 12
0010
0000
0000
0010
0000
0000
0010
0000
0000
0000
0001
0000
0001
0000
0001
0000
,  // measure 13
0001
0000
0100
0000
0010
0100
1000
0000
,  // measure 14
0010
0101
0010
1100
,  // measure 15
0010
0000
1100
0000
0010
0100
0001
0000
,  // measure 16
0001
0010
1000
0100
,  // measure 17
0010
0000
0101
0000
1000
0001
0100
0000
,  // measure 18
0010
0000
1100
0000
0001
1000
0100
0000
,  // measure 19
1000
0000
0101
0000
0001
1000
0001
0000
,  // measure 20
0001
0000
1100
0000
1000
0001
1000
0000
,  // measure 21
0001
0100
1000
0100
,  // measure 22
1000
0000
0001
0000
0010
1000
0100
0001
,  // measure 23
0100
0001
0100
1000
,  // measure 24
0001
0000
1000
0000
0010
0001
0100
1000
,  // measure 25
0100
0001
0100
1000
,  // measure 26
0100
0000
0001
0000
0100
1000
0010
1000
,  // measure 27
0100
0001
0100
1000
,  // measure 28
0010
0001
1000
0100
,  // measure 29
0010
0000
0100
0000
1000
0100
0001
0100
,  // measure 30
0001
0100
1000
0000
0010
0000
0101
0000
,  // measure 31
0010
0000
1100
0000
0001
0100
1000
0100
,  // measure 32
1000
0100
0001
0000
0100
0000
0011
0000
,  // measure 33
0100
0000
1010
0000
0010
0100
1000
0001
,  // measure 34
0100
0010
0001
0000
0010
0000
1100
0000
,  // measure 35
0010
0000
0101
0000
0010
0100
1000
0000
,  // measure 36
0010
0000
0000
0010
0000
0000
0010
0000
0000
0000
0001
0000
0001
0000
0001
0000
,  // measure 37
0001
0000
0000
0000
;

//---------------dance-double - ----------------
#NOTES:
     dance-double:
     :
     Easy:
     3:
     0.223,0.226,0.000,0.000,0.000,152.000,0.000,0.000,0.000,0.000:  // measure 1
00000000
00000000
00000000
00000000
,  // measure 2
00000000
00000000
00000000
00000000
,  // measure 3
00000000
00000000
00000000
00000000
,  // measure 4
00000000
00000000
00000000
00000000
,  // measure 5
00000010
00000100
00000001
00000100
,  // measure 6
00001000
00010000
00100000
00000000
10000000
00000000
01000000
00000000
,  // measure 7
00010000
01000000
10000000
01000000
,  // measure 8
00010000
00001000
00000010
00000000
00000001
00000000
00000100
00000000
,  // measure 9
00001000
00000100
00000001
00000100
,  // measure 10
00001000
00010000
01000000
00000000
00001000
00000000
00000100
00000000
,  // measure 11
00010000
01000000
00001000
00000100
,  // measure 12
00000000
00000000
00010000
00000000
01000000
00010000
00001000
00000000
,  // measure 13
00000001
00000000
00000100
00000000
00000001
00001000
00010000
00000000
,  // measure 14
10000000
00000000
01000000
00000000
10000000
00010000
00001000
00000000
,  // measure 15
00000001
00000000
00000100
00000000
00000010
00001000
00010000
00000000
,  // measure 16
10000000
00000000
01000000
00000000
00100000
00010000
00001000
00000000
,  // measure 17
00000010
00000000
00001000
00000000
00000000
00010000
01000000
00000000
,  // measure 18
10000000
00000000
00100000
00000000
00000000
00010000
00001000
00000000
,  // measure 19
00000010
00000000
00000100
00000000
00001000
00010000
01000000
00000000
,  // measure 20
01000000
00010000
00001000
00000000
00000001
00001000
00000001
00000000
,  // measure 21
00001000
00000100
00010000
01000000
,  // measure 22
00001000
00000100
00010000
01000000
,  // measure 23
00010000
00001000
00000100
00000000
00000010
00000000
00000100
00000000
,  // measure 24
00000010
00001000
00010000
00000000
00100000
00000000
01000000
00000000
,  // measure 25
10000000
01000000
00100000
01000000
,  // measure 26
10000000
00000000
01000000
00000000
00010000
00001000
00000100
00000000
,  // measure 27
00000010
00000001
00000010
00000100
,  // measure 28
00000001
00000000
00000010
00000000
00000001
00000010
00000100
00000000
,  // measure 29
00000001
00000000
00000100
00000000
00001000
00010000
00100000
00000000
,  // measure 30
10000000
01000000
00010000
01000000
,  // measure 31
10000000
00000000
01000000
00000000
00010000
00001000
00000010
00000000
,  // measure 32
00000001
00000100
00001000
00000100
,  // measure 33
00000001
00000000
00000100
00000000
00001000
00010000
01000000
00000000
,  // measure 34
10000000
00000000
01000000
00000000
00100000
00010000
00001000
00000000
,  // measure 35
00000100
00000000
00000001
00000000
00000010
00001000
00010000
00000000
,  // measure 36
01000000
00000000
10000000
00000000
01000000
00010000
00001000
00000000
,  // measure 37
00000100
00000001
00000100
00001000
;

//---------------dance-double - ----------------
#NOTES:
     dance-double:
     :
     Medium:
     6:
     0.261,0.277,0.144,0.000,0.010,164.000,14.000,0.000,0.000,0.000:  // measure 1
00000000
00000000
00000000
00000000
,  // measure 2
00000000
00000000
00000000
00000000
,  // measure 3
00000000
00000000
00000000
00000000
,  // measure 4
00000000
00000000
00000000
00000000
,  // measure 5
00000110
00000000
00001001
00000000
00000001
00000100
00001000
00000100
,  // measure 6
00001000
00010000
00100000
00000000
10000000
00000000
11000000
00000000
,  // measure 7
00010000
00000000
01010000
00000000
00010000
01000000
10000000
01000000
,  // measure 8
00010000
00001000
00000100
00000000
00000001
00000000
00001000
00000000
,  // measure 9
00000100
00000000
00000001
00000000
00000010
00000100
00001000
00010000
,  // measure 10
00001000
00010000
01000000
00000000
10000000
00000000
11000000
00000000
,  // measure 11
00100000
00110000
01000000
01000000
,  // measure 12
00100000
00000000
00000000
00010000
00000000
00000000
00001000
00000000
00000000
00000000
00000100
00000000
00000100
00000000
00001000
00000000
,  // measure 13
00000001
00000000
00000100
00000000
00000100
00001000
00010000
00000000
,  // measure 14
10000000
10000000
00010000
00010000
,  // measure 15
00100000
00000000
11000000
00000000
00010000
00001000
00000100
00000000
,  // measure 16
00000001
00000001
00001000
00001000
,  // measure 17
00000010
00000000
00000101
00000000
00001000
00010000
01000000
00000000
,  // measure 18
00100000
00000000
11000000
00000000
00010000
10000000
01000000
00000000
,  // measure 19
10000000
00000000
00010000
00000000
00001000
00000100
00000100
00000000
,  // measure 20
00000010
00000000
00000101
00000000
00001000
00000001
00001000
00000000
,  // measure 21
00001000
00000100
00010000
01000000
,  // measure 22
00001000
00000000
00000100
00000000
00001000
00001000
00001000
00010000
,  // measure 23
00001000
00000001
00000100
00001000
,  // measure 24
00000001
00000000
00001000
00000000
00001000
00010000
00001000
00010000
,  // measure 25
01000000
00010000
01000000
10000000
,  // measure 26
01000000
00000000
00010000
00000000
00001000
00000100
00001000
00000100
,  // measure 27
00000001
00000001
00000100
00001000
,  // measure 28
00100000
10000000
10000000
01000000
,  // measure 29
00100000
00000000
01000000
00000000
10000000
01000000
00010000
00010000
,  // measure 30
00001000
00001000
00000100
00000000
00000010
00000000
00000101
00000000
,  // measure 31
00000010
00000000
00000100
00000000
00000001
00000100
00001000
00001000
,  // measure 32
00010000
00010000
01000000
00000000
10000000
00000000
00110000
00000000
,  // measure 33
01000000
00000000
10000000
00000000
00100000
01000000
10000000
01000000
,  // measure 34
00010000
00010000
00001000
00000000
00000010
00000000
00001100
00000000
,  // measure 35
00000010
00000000
00000101
00000000
00000010
00000100
00001000
00000000
,  // measure 36
00100000
00000000
00000000
01000000
00000000
00000000
00010000
00000000
00000000
00000000
00100000
00000000
10000000
00000000
01000000
00000000
,  // measure 37
00010000
00000000
00000000
00000000
;
