#TITLE:RAIN OF SORROW;
#SUBTITLE:-BALLAD 4 U-;
#ARTIST:NM FEAT. EBONY FAY;
#TITLETRANSLIT:;
#SUBTITLETRANSLIT:;
#ARTISTTRANSLIT:;
#CREDIT:;
#BANNER:Rain Of Sorrow -Ballad 4 U- - NM feat Ebony Fay.png;
#BACKGROUND:Rain Of Sorrow -Ballad 4 U- - NM feat Ebony Fay-bg.png;
#LYRICSPATH:;
#CDTITLE:;
#MUSIC:Rain Of Sorrow -Ballad 4 U- - NM feat Ebony Fay.mp3;
#OFFSET:-1.761;
#SAMPLESTART:49.570;
#SAMPLELENGTH:12.000;
#SELECTABLE:YES;
#BPMS:0.000=139.990;
#STOPS:;
#BGCHANGES:;
// cache tags:
#FIRSTBEAT:16.000;
#LASTBEAT:217.000;
#SONGFILENAME:Songs/Dancing Stage Euromix 2/Rain Of Sorrow -Ballad 4 U- - NM feat Ebony Fay/Rain Of Sorrow -Ballad 4 U- - NM feat Ebony Fay.sm;
#HASMUSIC:1;
#HASBANNER:1;
#MUSICLENGTH:98.070;
// end cache tags

//---------------dance-single - ----------------
#NOTES:
     dance-single:
     :
     Easy:
     2:
     0.147,0.221,0.061,0.184,0.000,77.000,6.000,18.000,0.000,0.000:  // measure 1
0000
0000
0000
0000
,  // measure 2
0000
0000
0000
0000
,  // measure 3
0000
0000
0000
0000
,  // measure 4
0000
0000
0000
0000
,  // measure 5
0001
0000
0001
0000
,  // measure 6
0001
0100
0000
0000
,  // measure 7
1000
0000
1000
0000
,  // measure 8
1000
0100
0000
0000
,  // measure 9
0010
0000
0000
0000
,  // measure 10
0100
0100
0000
0000
,  // measure 11
0001
0000
1000
0000
,  // measure 12
0010
0000
0000
0000
,  // measure 13
1000
0000
0000
0000
,  // measure 14
0001
1000
0000
0000
,  // measure 15
0010
0000
1000
0000
,  // measure 16
0200
0000
0300
0000
,  // measure 17
1001
0000
0000
0000
,  // measure 18
1001
0000
0000
0000
,  // measure 19
1000
0001
1000
0000
,  // measure 20
0220
0000
0330
0000
,  // measure 21
0010
0000
0000
0000
,  // measure 22
1000
0000
0000
0000
,  // measure 23
0010
1000
0001
0000
,  // measure 24
0001
0000
1000
0000
,  // measure 25
0200
0000
0000
0000
,  // measure 26
0000
0000
0000
0300
,  // measure 27
0020
0000
0000
0000
,  // measure 28
0000
0000
0000
0030
,  // measure 29
1000
0000
0100
0000
,  // measure 30
0100
0000
0001
0000
,  // measure 31
1000
0000
0001
0000
,  // measure 32
2002
0000
0000
3003
,  // measure 33
0010
0000
0100
0000
,  // measure 34
0001
0000
1000
0000
,  // measure 35
0010
0000
0100
0000
,  // measure 36
2002
0000
0000
3003
,  // measure 37
0020
0000
0000
0000
,  // measure 38
0100
0000
0100
0030
,  // measure 39
0200
0000
0000
0000
,  // measure 40
0010
0000
0010
0300
,  // measure 41
0001
0000
1000
0000
,  // measure 42
0010
0000
0100
0000
,  // measure 43
0002
0000
0000
0003
,  // measure 44
2000
0000
0000
3000
,  // measure 45
0010
0000
1000
0000
,  // measure 46
0001
0000
0100
0000
,  // measure 47
0010
0000
1000
0000
,  // measure 48
0020
0000
0000
0030
,  // measure 49
1000
0000
0001
0000
,  // measure 50
1000
0000
0001
0000
,  // measure 51
1000
0000
0100
0000
,  // measure 52
0020
0000
0000
0030
,  // measure 53
0200
0000
0000
0300
,  // measure 54
2002
0000
0000
0000
,  // measure 55
0000
3003
0000
0000
;

//---------------dance-single - ----------------
#NOTES:
     dance-single:
     :
     Medium:
     5:
     0.404,0.432,0.041,0.642,0.046,210.000,4.000,63.000,0.000,0.000:  // measure 1
0000
0000
0000
0000
,  // measure 2
0000
0000
0000
0000
,  // measure 3
0000
0000
0000
0000
,  // measure 4
0000
0000
0000
0000
,  // measure 5
0010
0001
0100
0010
,  // measure 6
1000
0000
0001
0200
0000
0000
0300
0000
,  // measure 7
0010
1000
0100
0010
,  // measure 8
0001
0000
1000
0200
0000
0000
0300
0000
,  // measure 9
0010
0000
0001
0200
0000
0000
0300
0000
,  // measure 10
0000
0000
0000
0020
0000
1030
0001
0100
,  // measure 11
0002
0000
1003
0200
0000
0320
0000
0032
,  // measure 12
0000
0000
0000
0003
0000
1000
0100
0010
,  // measure 13
0002
0000
1003
0200
0000
0000
0000
0300
,  // measure 14
0000
0000
0000
0020
0000
0031
0100
0010
,  // measure 15
2000
0000
3100
0020
0000
0032
0000
0203
,  // measure 16
0000
0000
0000
0300
0000
0000
0010
0100
,  // measure 17
0001
1000
0100
0020
0000
0030
0001
0100
,  // measure 18
0010
1000
0100
0020
0000
0030
0001
0100
,  // measure 19
0020
0000
2030
0000
3100
0010
0001
0200
,  // measure 20
0000
0000
0000
0300
0000
0000
0010
1000
,  // measure 21
0100
0000
0000
0010
0001
0000
0200
0000
0000
0000
0300
0000
0010
0000
1000
0000
,  // measure 22
0100
0000
0000
0010
0001
0000
2000
0000
0000
0000
3000
0000
0010
0000
0100
0000
,  // measure 23
0002
0000
1003
2000
0000
3000
0100
0020
,  // measure 24
0000
0032
0000
0203
0000
0320
0000
1030
,  // measure 25
2000
3200
0000
0000
,  // measure 26
0000
0000
0000
0000
0000
0000
0300
0010
,  // measure 27
0020
0000
0000
0000
,  // measure 28
0000
0000
0000
0000
0000
0000
0030
0002
,  // measure 29
0000
0103
0010
1000
0200
0000
0300
0020
,  // measure 30
0000
0031
0100
0010
1000
0100
0010
0002
,  // measure 31
0000
0103
0010
1000
0200
0000
0310
0002
,  // measure 32
0000
0000
0000
0003
0000
0100
0010
2000
,  // measure 33
0000
3100
0010
0001
0100
0000
0010
2000
,  // measure 34
0000
3100
0010
0001
0100
0010
1000
0200
,  // measure 35
0000
0310
0100
1000
0002
0000
0023
0000
,  // measure 36
0230
0000
0300
0000
,  // measure 37
1000
0000
0000
0010
0000
0000
0200
0000
0000
0000
0000
0000
0300
0000
0000
0000
,  // measure 38
0010
0000
1000
0000
0001
0000
0100
0000
0001
0000
0000
0100
0000
0000
0020
0000
,  // measure 39
0000
2030
0000
0000
0000
3000
0000
0002
,  // measure 40
0000
0000
0000
0203
0000
0310
1000
0100
,  // measure 41
0010
0000
0000
0001
0000
0000
1000
0000
0200
0000
0000
0000
0300
0000
0010
0000
,  // measure 42
0010
0000
0000
0001
0000
0000
0100
0000
0010
0000
0000
1000
0000
0000
0200
0000
,  // measure 43
0000
0000
1000
0000
0000
1000
0000
0000
1000
0000
0000
1000
0000
0000
1300
0000
,  // measure 44
0011
0000
1100
0000
1001
0000
0000
0200
,  // measure 45
0000
0310
1000
0100
0020
0000
0031
0200
,  // measure 46
0000
0310
1000
0100
0010
0000
0001
0200
,  // measure 47
0000
0310
1000
0100
0020
0000
0031
0200
,  // measure 48
0000
0000
0000
0300
0000
0010
1000
0200
,  // measure 49
0000
0310
0001
0100
0010
0000
1000
0200
,  // measure 50
0000
0310
0001
0100
0010
1000
0100
0010
,  // measure 51
0001
1000
0100
0020
0000
0031
0100
0010
,  // measure 52
2000
0200
3300
0010
,  // measure 53
2002
0000
0000
0000
,  // measure 54
3003
0000
0000
0000
;

//---------------dance-single - ----------------
#NOTES:
     dance-single:
     :
     Hard:
     9:
     0.507,0.581,0.286,0.051,0.311,315.000,28.000,5.000,0.000,0.000:  // measure 1
0000
0000
0000
0000
,  // measure 2
0000
0000
0000
0000
,  // measure 3
0000
0000
0000
0000
,  // measure 4
0000
0000
0000
0000
,  // measure 5
0010
0000
1000
0000
0100
0000
0000
0000
0011
0000
0000
1100
0000
0000
0000
0000
,  // measure 6
0010
0001
0100
0010
0000
0000
0000
0000
,  // measure 7
0100
0000
0001
0000
0010
0000
0000
0000
1100
0000
0000
0011
0000
0000
0000
0000
,  // measure 8
0100
0000
1000
0000
0010
0000
0100
0000
0000
0000
0101
0000
0000
1010
0000
0000
,  // measure 9
0001
0000
0000
0000
0010
0000
0100
0000
0000
0000
1000
0000
0000
1000
0000
0000
,  // measure 10
0000
0100
0000
0010
0000
0001
1000
0010
,  // measure 11
1000
0000
0100
0010
0000
0001
0000
1000
,  // measure 12
0000
0000
0010
0000
0000
0100
0000
0000
0001
0000
0000
0100
0000
0000
0010
0000
,  // measure 13
0001
0000
0000
0000
1000
0000
0010
0000
0000
0000
0100
0000
0000
0100
0000
0000
,  // measure 14
0000
0001
0000
0010
0000
0000
0100
0000
0000
0000
0010
0000
0001
0000
0010
0000
,  // measure 15
0100
0000
1000
0010
0000
0100
0000
0001
,  // measure 16
0000
0000
0010
0000
0010
0000
0000
0000
0100
0000
0000
1010
0000
0000
1100
0000
,  // measure 17
0011
0000
0000
1001
0000
0000
1100
0000
0000
0110
0000
0000
1000
0000
1000
0000
,  // measure 18
0011
0000
0000
0110
0000
0000
1100
0000
0000
1001
0000
0000
0100
0000
0100
0000
,  // measure 19
0010
0001
0010
0000
0100
1000
0100
0010
,  // measure 20
0000
0000
0101
0000
0000
1010
0000
0000
1100
0000
0000
0101
0000
0000
0011
0000
,  // measure 21
0100
0000
0000
0010
1000
0000
0001
0000
0000
0000
0100
0000
0100
0000
0100
0000
,  // measure 22
0010
0000
0000
1000
0100
0000
0010
0000
0000
0000
0001
0000
0001
0000
1000
0000
,  // measure 23
0010
0000
1000
0100
0000
0000
0100
0001
,  // measure 24
0000
0010
0000
0001
0000
0100
0000
0010
,  // measure 25
1100
0000
1001
0000
,  // measure 26
0101
0000
0000
0000
0110
0000
0000
1000
,  // measure 27
0010
0100
0001
0000
0010
0100
1000
0000
,  // measure 28
0010
0001
1000
0000
0100
0010
1000
0001
,  // measure 29
1000
0000
0010
0000
0100
0000
0010
0000
1000
0100
0000
0010
0001
0000
0100
0000
,  // measure 30
0001
0000
0010
0000
0100
0000
1000
0000
0010
0100
0000
0001
0010
0000
0100
0000
,  // measure 31
0001
1000
0010
0100
0001
0000
1000
0010
,  // measure 32
0000
0100
0000
0000
0010
1000
0000
0000
0000
0001
0010
0000
0100
0000
0100
0000
,  // measure 33
1000
0000
0100
0000
0010
0000
0001
0000
0100
0010
0000
0000
1000
0000
0100
0000
,  // measure 34
0010
0000
0001
0000
0100
0000
0010
0000
1000
0100
1000
0000
0001
0000
0100
0000
,  // measure 35
0010
0100
0001
1000
0100
0000
0010
0001
,  // measure 36
0000
0100
0000
0000
0010
0000
0000
0100
0000
0000
0001
0000
1000
0000
0100
0000
,  // measure 37
0010
0000
0000
0001
0000
0000
0200
0000
0000
0000
0010
0000
0300
0010
0000
0000
,  // measure 38
1000
0000
0100
0000
0010
0000
0001
0000
0100
0000
0000
0010
0000
0000
1000
0000
,  // measure 39
0000
0000
0200
0000
0000
0000
0000
0000
0000
0000
0000
0000
0300
0000
0010
0002
,  // measure 40
0000
0000
0003
0100
0000
0010
1000
0100
,  // measure 41
0010
0100
0000
0001
0100
0000
0010
0000
1000
0000
0100
0000
0000
0000
0010
0000
,  // measure 42
0001
1000
0000
0100
0010
0000
0001
0000
1000
0000
0000
0100
0000
0000
0010
0000
,  // measure 43
0000
0000
1000
0000
0000
0100
0000
0000
0010
0000
0000
0001
0000
0000
0100
0000
,  // measure 44
0010
1000
0001
0100
0010
1000
0100
0010
,  // measure 45
0001
0100
0001
0000
1000
0000
1000
0000
0000
0010
0100
0000
0001
0000
0001
0000
,  // measure 46
1000
0000
0100
0000
0010
0000
0001
0000
0100
0010
0100
0000
0001
0000
0001
0000
,  // measure 47
1000
0100
1000
0000
0010
0000
0010
0000
0100
0001
0100
0000
0001
0000
0001
0000
,  // measure 48
0000
0000
1000
0000
0000
0001
0000
0100
0000
0010
1000
0000
0100
0000
0100
0000
,  // measure 49
0010
1000
0010
0000
0100
0000
0100
0000
0001
0100
0000
0000
0010
0000
0010
0000
,  // measure 50
1000
0001
1000
0000
0100
0000
0100
0000
0010
0001
0000
0000
0100
0000
0100
0000
,  // measure 51
0010
0000
0001
0000
0100
0000
0010
1000
0000
0001
0100
0000
0010
0000
0010
0000
,  // measure 52
1000
0100
1000
0000
0001
0000
0000
0100
0010
0000
1000
0000
0000
0001
0000
0000
,  // measure 53
1000
0100
0000
0011
0000
0000
0001
0100
0000
1010
0000
0000
1000
0000
0100
0000
,  // measure 54
2002
0000
0000
0000
,  // measure 55
0000
3003
0000
0000
;

//---------------dance-double - ----------------
#NOTES:
     dance-double:
     :
     Easy:
     2:
     0.160,0.221,0.020,0.082,0.000,100.000,2.000,8.000,0.000,0.000:  // measure 1
00000000
00000000
00000000
00000000
,  // measure 2
00000000
00000000
00000000
00000000
,  // measure 3
00000000
00000000
00000000
00000000
,  // measure 4
00000000
00000000
00000000
00000000
,  // measure 5
00100000
00000000
00100000
00000000
,  // measure 6
10000000
00000000
00000000
00000000
,  // measure 7
00100000
00000000
00100000
00000000
,  // measure 8
01000000
00000000
00000000
00000000
,  // measure 9
00010000
00000000
00000000
00000000
,  // measure 10
10000000
00000000
00000000
00000000
,  // measure 11
01000000
00000000
00010000
00000000
,  // measure 12
00001000
00000000
00000000
00000000
,  // measure 13
00000010
00000000
00000000
00000000
,  // measure 14
00000001
00000000
00000000
00000000
,  // measure 15
00000100
00000000
00000100
00000000
,  // measure 16
00002000
00000000
00000000
00003000
,  // measure 17
00000001
00000000
00000001
00000000
,  // measure 18
00000100
00000000
00000100
00000000
,  // measure 19
00001000
00000000
00001000
00000000
,  // measure 20
00010000
00000000
00010000
00000000
,  // measure 21
01000000
00000000
01000000
00000000
,  // measure 22
10000000
00000000
10000000
00000000
,  // measure 23
00100000
00000000
00100000
00000000
,  // measure 24
01000000
00000000
01000000
00000000
,  // measure 25
00002000
00000000
00000000
00000000
,  // measure 26
00000000
00000000
00000000
00003000
,  // measure 27
00020000
00000000
00000000
00000000
,  // measure 28
00001000
00001000
00001000
00031000
,  // measure 29
00000010
00000000
00000001
00000000
,  // measure 30
00000100
00000000
00001000
00010000
,  // measure 31
01000000
00000000
10000000
00000000
,  // measure 32
00020000
00000000
00000000
00030000
,  // measure 33
10000000
00000000
00100000
00000000
,  // measure 34
01000000
00000000
00001000
00000000
,  // measure 35
00010010
00000000
00000100
00001000
,  // measure 36
00020000
00000000
00000000
00030000
,  // measure 37
00100000
00000000
00000000
00000000
,  // measure 38
10000000
00000000
01000000
00000000
,  // measure 39
00100000
00000000
00000000
00000000
,  // measure 40
10000000
00000000
00010000
00000000
,  // measure 41
00100000
10000000
01000000
00000000
,  // measure 42
01000000
00010000
00001000
00000000
,  // measure 43
00001000
00000010
00000001
00000000
,  // measure 44
00000001
00000100
00000010
00001000
,  // measure 45
00000001
00000100
00001000
00000000
,  // measure 46
00010000
01000000
10000000
00000000
,  // measure 47
10000000
01000000
00010000
00001000
,  // measure 48
00000100
00000001
00000010
00000000
,  // measure 49
00001000
00000100
00000010
00000000
,  // measure 50
00000100
00010000
00001000
00000000
,  // measure 51
00100000
00010000
10000000
01000000
,  // measure 52
00100000
00000000
00001000
00000000
,  // measure 53
00020000
00000000
00000000
00030000
,  // measure 54
00022000
00000000
00000000
00000000
,  // measure 55
00000000
00033000
00000000
00000000
;

//---------------dance-double - ----------------
#NOTES:
     dance-double:
     :
     Medium:
     5:
     0.332,0.332,0.071,0.112,0.025,210.000,7.000,11.000,0.000,0.000:  // measure 1
00000000
00000000
00000000
00000000
,  // measure 2
00000000
00000000
00000000
00000000
,  // measure 3
00000000
00000000
00000000
00000000
,  // measure 4
00000000
00000000
00000000
00000000
,  // measure 5
00100000
10000000
00000000
00000000
01000000
00010000
00000000
00000000
,  // measure 6
00001000
00000010
00000000
00001001
00000000
00000000
00000000
00000000
,  // measure 7
00000010
00000001
00000000
00000000
00000100
00001000
00000000
00000000
,  // measure 8
00010000
00100000
00000000
10010000
00000000
00000000
00000000
00000000
,  // measure 9
00010000
00000000
10000000
01000000
00000000
00000000
00100000
00000000
,  // measure 10
00010000
01000000
00100000
10000000
,  // measure 11
01000000
00010000
00001000
00000100
,  // measure 12
00000001
00000010
00000100
00000000
00000000
00000010
00000000
00000010
,  // measure 13
00000001
00000100
00000010
00000000
00001000
00000000
00001000
00000000
,  // measure 14
00000100
00000010
00000001
00000000
00000100
00000000
00000100
00000000
,  // measure 15
00000001
00000100
00001000
00010000
,  // measure 16
01000000
10000000
00010000
00000000
01000000
00000000
00000000
00000000
,  // measure 17
00100000
10000000
01000000
00000000
00010000
00000000
00010000
00000000
,  // measure 18
00001000
00000010
00000001
00000000
00000100
00000000
00000100
00000000
,  // measure 19
00001000
00010000
00100000
00000000
10000000
00000000
10000000
00000000
,  // measure 20
01000000
00010000
00001000
00000000
00000100
00000000
00000100
00000000
,  // measure 21
00000100
00001000
00010000
00000000
01000000
00000000
01000000
00000000
,  // measure 22
10000000
00100000
01000000
00000000
00010000
00000000
00010000
00000000
,  // measure 23
10000000
01000000
00010000
00000000
00001000
00000000
00001000
00000000
,  // measure 24
00000010
00000001
00000100
00000000
00000010
00001000
00000100
00000000
,  // measure 25
00000020
00000030
00000002
00000003
,  // measure 26
00000200
00000000
00000300
00000000
00002000
00000000
00003000
00010000
,  // measure 27
00020000
00030000
02000000
03000000
,  // measure 28
10000000
00100000
00010000
00001000
,  // measure 29
00000010
00000000
00000001
00000000
00000100
00000001
00000100
00000000
,  // measure 30
00000001
00000000
00000100
00000000
00001000
00010000
00001000
00000000
,  // measure 31
00010000
00000000
00100000
00000000
10000000
01000000
10000000
00000000
,  // measure 32
10000000
01000000
00010000
00001000
,  // measure 33
00000100
00000000
00000001
00000000
00000010
00001000
00010000
00000000
,  // measure 34
00100000
00000000
10000000
00000000
01000000
00010000
00001000
00000000
,  // measure 35
00000010
00000000
00000001
00000000
00000100
00001000
00010000
00000000
,  // measure 36
00100000
10000000
01000000
00100000
,  // measure 37
00010000
00000000
00000000
10000000
00000000
00000000
02000000
00000000
00000000
00000000
00000000
00000000
00000000
00000000
03000000
00000000
,  // measure 38
00010000
00000000
00000000
00000000
00001000
00000000
00000000
00000000
00000010
00000000
00000000
00000001
00000000
00000000
00000100
00000000
,  // measure 39
00000000
00002020
00000000
00000000
00000000
00003030
00000000
00000000
,  // measure 40
00000100
00000000
00000000
00001000
00000000
00000000
00010000
00000000
,  // measure 41
00100000
00000000
00000000
10000000
00000000
00000000
01000000
00000000
00100000
00000000
00000000
00000000
00000000
00000000
00000000
00000000
,  // measure 42
00010000
00000000
00000000
10000000
00000000
00000000
01000000
00000000
00010000
00000000
00000000
00000000
00000000
00000000
00000000
00000000
,  // measure 43
00001000
00000000
00000000
00000010
00000000
00000000
00000001
00000000
00000100
00000000
00000000
00000000
00000000
00000000
00000000
00000000
,  // measure 44
00000010
00001000
00000100
00000010
,  // measure 45
00000001
00000000
00000100
00000000
00001000
00000100
00001000
00000000
,  // measure 46
00010000
00000000
01000000
00000000
00010000
00001000
00010000
00000000
,  // measure 47
00001000
00000000
00010000
00000000
00100000
10000000
01000000
00000000
,  // measure 48
00000000
01000000
00000000
00100000
00000000
00010000
00000000
10000000
,  // measure 49
01000000
00000000
00100000
00000000
10000000
00100000
00010000
00000000
,  // measure 50
00001000
00000000
00000010
00000000
00000001
00000100
00001000
00000000
,  // measure 51
00010000
00000000
01000000
00000000
10000000
00100000
00010000
00000000
,  // measure 52
00001000
00000010
00000001
00000000
00000100
00000000
00000010
00000000
,  // measure 53
00001001
00000000
00000000
00011000
00000000
00000000
10010000
00000000
,  // measure 54
02200000
00000000
00000000
00000000
,  // measure 55
00000000
03300000
00000000
00000000
;

//---------------dance-double - ----------------
#NOTES:
     dance-double:
     :
     Hard:
     9:
     0.475,0.470,0.061,0.653,0.219,256.000,6.000,64.000,0.000,0.000:  // measure 1
00000000
00000000
00000000
00000000
,  // measure 2
00000000
00000000
00000000
00000000
,  // measure 3
00000000
00000000
00000000
00000000
,  // measure 4
00000000
00000000
00000000
00000000
,  // measure 5
00000100
00000000
00000010
00000000
00000001
00000000
00000000
00000000
00000000
00000000
00000100
00000000
00000000
00001000
00000000
00000000
,  // measure 6
00010000
00000000
00000000
00100000
00000000
00000000
20000000
00000000
00000000
00000000
00000000
00000000
30000000
00000000
00000000
00000000
,  // measure 7
10000000
00000000
01000000
00000000
00010000
00000000
00000000
00000000
00000000
00000000
00001000
00000000
00000000
00000100
00000000
00000000
,  // measure 8
00000001
00000000
00000000
00000010
00000000
00000000
00000200
00000000
00000000
00000000
00000000
00000000
00000300
00000000
00000000
00000000
,  // measure 9
00001000
00000000
00000000
00000000
00000001
00000000
00000200
00000000
00000000
00000000
00001000
00000000
00000300
00001000
00000000
00000000
,  // measure 10
00000000
00010000
00001000
00010000
00000000
00100000
10000000
00000000
,  // measure 11
20000000
00000000
00000000
00000000
31000000
00000000
02000000
00000000
00000000
00000000
00010000
00000000
03000000
00010000
00000000
00000000
,  // measure 12
00001000
00000000
00000100
00000000
00001000
00000000
00000000
00000000
00000000
00000000
00000100
00000000
00000000
00000100
00000000
00000000
,  // measure 13
00000001
00000000
00000000
00000000
00000010
00000000
00000200
00000000
00000000
00000000
00001000
00000000
00000300
00001000
00000000
00000000
,  // measure 14
00000000
00000001
00000001
00000001
00000000
00000100
00000001
00000000
,  // measure 15
00000100
00000000
00001000
00010000
00000000
01000000
00000000
10000000
,  // measure 16
20000000
00000000
00000000
00000000
31000000
00000000
00000000
00000000
00000000
00000000
00100000
00000000
00000000
00100000
00000000
00000000
,  // measure 17
00001000
00010000
00000000
00010000
00001000
00000000
00001000
00000020
00000000
00000000
00000000
00000000
00000031
00000000
00000000
00000000
,  // measure 18
00000001
00000100
00000000
00000100
00001000
00000000
00001000
00020000
00000000
00000000
00000000
00000000
00130000
00000000
00000000
00000000
,  // measure 19
20000000
00000000
32000000
00000000
03010000
00001000
00010000
00002000
,  // measure 20
00000000
00000000
00000100
00000000
00003000
00000100
00000000
00000000
00000001
00000000
00000000
00000001
00000000
00000000
00000001
00000000
,  // measure 21
00000100
00001000
00000000
00001000
00010000
00000000
00010000
02000000
00000000
00000000
00000000
00000000
13000000
00000000
00000000
00000000
,  // measure 22
01000000
00010000
00000000
00010000
00001000
00000000
00001000
00000020
00000000
00000000
00000000
00000000
00000031
00000000
00000000
00000000
,  // measure 23
00000200
00000000
00000310
00000020
00000000
00000030
00000100
00002000
,  // measure 24
00000000
00023000
00000000
00230000
00000000
20300000
00000000
31000000
,  // measure 25
00020000
00030000
00002000
00003000
,  // measure 26
00000200
00000000
00000300
00000000
00000002
00000000
00000003
00000100
,  // measure 27
00000200
00000300
00002000
00003000
,  // measure 28
00010000
00000000
00000000
00100000
00000000
00000000
10000000
00000000
00100000
00000000
00000000
10000000
00000000
00000000
02000000
00000000
,  // measure 29
00000000
13000000
01000000
00010000
00002000
00000000
00003000
00000200
,  // measure 30
00000000
00000301
00000010
00001000
00000010
00000000
00001000
00020000
,  // measure 31
00000000
00130000
10000000
01000000
00020000
00000000
00031000
00000200
,  // measure 32
00000000
00000000
00000010
00000000
00000300
00000010
00000000
00000000
00000001
00000000
00000000
00000001
00000000
00000000
00000200
00000000
,  // measure 33
00000000
00001300
00010000
00001000
00010000
00000000
01000000
20000000
,  // measure 34
00000000
30100000
01000000
00010000
10000000
01000000
00010000
00002000
,  // measure 35
00000000
00003010
00000001
00000100
00000101
00000000
00001001
00000000
,  // measure 36
00002100
00000000
00000000
00000100
00000000
00000000
00000100
00000000
00000001
00000000
00000000
00000001
00003000
00000000
00000001
00000000
,  // measure 37
00000200
00000000
00000000
00002000
00000300
00000000
00020000
00003000
00000000
00000000
00000000
00000000
00030000
00000000
00000000
00000000
,  // measure 38
01000000
00000000
10000000
00000000
00100000
00000000
10000000
00000000
02000000
00000000
00000000
00020000
03000000
00000000
00002000
00030000
,  // measure 39
00000000
00000000
00003020
00000000
00000000
00000000
00000000
00000000
00000000
00000000
00000030
00000000
00000000
00000000
00000001
00000200
,  // measure 40
00000000
00000000
00000300
00002000
00000000
00013000
01000000
10000000
,  // measure 41
00100000
00000000
00000000
00010000
00000000
00000000
00002000
00000000
00010000
00000000
00013000
00000000
00000000
00000000
00001000
00000000
,  // measure 42
00000020
00000000
00000000
00000002
00000030
00000000
00000100
00000003
00000200
00000000
00000000
00001000
00000300
00000000
00020000
00001000
,  // measure 43
00000000
00000000
00001000
00000000
00000000
00001000
00000000
00000000
00100000
00000000
00030000
00100000
00000000
00000000
00100000
00000000
,  // measure 44
20000000
00000000
30000000
00000000
02000000
00000000
03000000
00020000
,  // measure 45
00000000
00031000
00000100
00000100
00000001
00000000
00000010
00000002
,  // measure 46
00000000
00000103
00001000
00001000
00010000
00000000
00100000
20000000
,  // measure 47
00000000
31000000
00010000
00010000
00001000
00000000
00000010
00000200
,  // measure 48
00000000
00000000
00000001
00000000
00000000
00000001
00000300
00000000
00000001
00000000
00000100
00000000
00001000
00000000
00020000
00000000
,  // measure 49
00000000
00130000
10000000
10000000
01000000
00000000
00010000
00002000
,  // measure 50
00000000
00003010
00000001
00000100
00001000
00010000
01000000
10000000
,  // measure 51
00100000
00010000
00001000
00000020
00000000
00000031
00000100
00001000
,  // measure 52
00020000
00230000
00300000
02000000
,  // measure 53
03010000
00001000
00000000
00011000
00000000
00000000
00000010
00000001
00000000
00000011
00000000
00000000
00000100
00000000
00001000
00000000
,  // measure 54
00022000
00000000
00000000
00000000
,  // measure 55
00000000
00033000
00000000
00000000
;
