#TITLE:BRE∀K DOWN!;
#SUBTITLE:;
#ARTIST:Be For U;
#TITLETRANSLIT:BREAK DOWN!;
#SUBTITLETRANSLIT:;
#ARTISTTRANSLIT:;
#CREDIT:;
#BANNER:BREAK DOWN!-banner.png;
#BACKGROUND:BREAK DOWN!-bg.png;
#LYRICSPATH:;
#CDTITLE:;
#MUSIC:BREAK DOWN!.mp3;
#OFFSET:-0.530;
#SAMPLESTART:48.970;
#SAMPLELENGTH:15.000;
#SELECTABLE:YES;
#BPMS:0.000=190.000;
#STOPS:;
#BGCHANGES:;
// cache tags:
#FIRSTBEAT:18.500;
#LASTBEAT:318.500;
#SONGFILENAME:Songs/Dance Dance Revolution 7thMix -DDRMAX 2-/BREAK DOWN!/BREAK DOWN!.sm;
#HASMUSIC:1;
#HASBANNER:1;
#MUSICLENGTH:106.057;
// end cache tags

//---------------dance-single - ----------------
#NOTES:
     dance-single:
     :
     Easy:
     4:
     0.237,0.263,0.236,0.066,0.000,144.000,25.000,7.000,0.000,0.000:  // measure 1
0000
0000
0000
0000
,  // measure 2
0000
0000
0000
0000
,  // measure 3
0000
0000
0000
0000
,  // measure 4
0000
0000
0000
0000
,  // measure 5
0000
0000
0000
0000
0000
0001
0000
0000
,  // measure 6
0000
0001
0000
0000
0000
0001
0000
0000
,  // measure 7
0000
0001
0000
0000
0000
1001
0000
0000
,  // measure 8
0000
1001
0000
0000
0000
0010
0000
1000
,  // measure 9
0000
0100
0000
0000
0000
1000
0000
0000
,  // measure 10
0000
1000
0000
0000
0000
1000
0000
0000
,  // measure 11
0000
1000
0000
0000
0000
1001
0000
0000
,  // measure 12
0000
1001
0000
0000
0000
0010
0000
0001
,  // measure 13
0000
0100
0000
0000
0000
1001
0000
0000
,  // measure 14
0000
1001
0000
0000
0000
0010
0000
1000
,  // measure 15
0000
0100
0000
0000
0000
1000
0000
0000
,  // measure 16
0000
0100
0000
0000
0000
1000
0000
0000
,  // measure 17
0000
1001
0000
0000
0000
0001
0000
0000
,  // measure 18
0000
0100
0000
0000
0000
1001
0000
0000
,  // measure 19
0000
1001
0000
0000
0000
0001
0000
0000
,  // measure 20
0000
0100
0000
0000
0000
0001
0000
0000
,  // measure 21
0000
1001
0000
0000
0000
1000
0000
0000
,  // measure 22
0000
0100
0000
0000
0000
0010
0000
0000
,  // measure 23
0000
0001
0000
0000
0000
1000
0000
0000
,  // measure 24
0000
0100
0000
0000
0000
1000
0000
0000
,  // measure 25
0000
1001
0000
0000
0000
0001
0000
0000
,  // measure 26
0000
0100
0000
0000
0000
1001
0000
0000
,  // measure 27
0000
1001
0000
0000
0000
0001
0000
0000
,  // measure 28
0000
0100
0000
0000
0000
0001
0000
0000
,  // measure 29
0000
1001
0000
0000
0000
0010
0000
0000
,  // measure 30
0000
0010
0000
0000
0000
0100
0000
0000
,  // measure 31
0000
0100
0000
0000
0000
1000
0000
2000
,  // measure 32
0000
0000
0000
0000
0000
0001
0000
0000
,  // measure 33
0000
0001
0000
3000
0000
0010
0000
0000
,  // measure 34
0000
0001
0000
0000
0000
0100
0000
0000
,  // measure 35
0000
0000
0000
0000
0000
0001
0000
0002
,  // measure 36
0000
0000
0000
0000
0000
1000
0000
0000
,  // measure 37
0000
1000
0000
0003
0000
0010
0000
0000
,  // measure 38
0000
1000
0000
0000
0000
0100
0000
0000
,  // measure 39
0000
0100
0000
0000
0000
1001
0000
0000
,  // measure 40
0000
1000
0000
0000
0000
0001
0000
0000
,  // measure 41
0000
1001
0000
0000
0000
0010
0000
0000
,  // measure 42
0000
0010
0000
0000
0000
0100
0000
0000
,  // measure 43
0000
0010
0000
0000
0000
1001
0000
0000
,  // measure 44
0000
1000
0000
0000
0000
0001
0000
0000
,  // measure 45
0000
1001
0000
0000
0000
0010
0000
0000
,  // measure 46
0000
0010
0000
0000
0000
0100
0000
0000
,  // measure 47
0000
0100
0000
0000
0000
0110
0000
0000
,  // measure 48
0000
0010
0000
0000
0000
1000
0000
0000
,  // measure 49
0000
0100
0000
0000
0000
0110
0000
0000
,  // measure 50
0000
0010
0000
0000
0000
0001
0000
0000
,  // measure 51
0000
0100
0000
0000
0000
0110
0000
0000
,  // measure 52
0000
0010
0000
0000
0000
1000
0000
0000
,  // measure 53
0000
0100
0000
0000
0000
0110
0000
0000
,  // measure 54
0000
0010
0000
0000
0000
0010
0000
0001
,  // measure 55
0000
0100
0000
0000
0000
2000
0000
0000
,  // measure 56
0000
0000
0000
0000
0000
0000
0000
3000
,  // measure 57
0000
1000
0000
0000
0000
0002
0000
0000
,  // measure 58
0000
0000
0000
0000
0000
0000
0000
0003
,  // measure 59
0000
0001
0000
0000
0000
2000
0000
0000
,  // measure 60
0000
0000
0000
0000
0000
0000
0000
3000
,  // measure 61
0000
1000
0000
0000
0000
0002
0000
0000
,  // measure 62
0000
0000
0000
0003
0000
0001
0000
0100
,  // measure 63
0000
1000
0000
1000
0000
1001
0000
0000
,  // measure 64
0000
0000
0000
0000
0000
1000
0000
0000
,  // measure 65
0000
0001
0000
0000
0000
1001
0000
0000
,  // measure 66
0000
0000
0000
0000
0000
1000
0000
0000
,  // measure 67
0000
0001
0000
0000
0000
1001
0000
0000
,  // measure 68
0000
0000
0000
0000
0000
1000
0000
0000
,  // measure 69
0000
0001
0000
0000
0000
1000
0000
0000
,  // measure 70
0000
1000
0000
0000
0000
0001
0000
0000
,  // measure 71
0000
0001
0000
0000
0000
0010
0000
0000
,  // measure 72
0000
1000
0000
0000
0000
0100
0000
0000
,  // measure 73
0000
1000
0000
0000
0000
0010
0000
0000
,  // measure 74
0000
0001
0000
0000
0000
0100
0000
0000
,  // measure 75
0000
0001
0000
0000
0000
0010
0000
0000
,  // measure 76
0000
1000
0000
0000
0000
0100
0000
0000
,  // measure 77
0000
1000
0000
0000
0000
0010
0000
0000
,  // measure 78
0000
0001
0000
0000
0000
0100
0000
0000
,  // measure 79
0000
0200
0000
0000
0000
0000
0000
0000
,  // measure 80
0000
0000
0000
0000
0000
0310
0000
0000
;

//---------------dance-single - ----------------
#NOTES:
     dance-single:
     :
     Medium:
     6:
     0.463,0.409,0.481,0.160,0.000,276.000,51.000,17.000,0.000,0.000:  // measure 1
0000
0000
0000
0000
,  // measure 2
0000
0000
0000
0000
,  // measure 3
0000
0000
0000
0000
,  // measure 4
0000
0000
0000
0000
,  // measure 5
0000
0000
0000
0000
0000
1000
0000
1100
,  // measure 6
0000
0001
0000
1100
0000
0001
0000
0101
,  // measure 7
0000
1000
0000
0101
0000
0010
0000
1001
,  // measure 8
0000
0100
0000
1001
0000
0010
0000
0001
,  // measure 9
0000
1000
0000
1000
0000
0001
0000
0101
,  // measure 10
0000
1000
0000
0101
0000
1000
0000
1100
,  // measure 11
0000
0001
0000
1100
0000
0010
0000
1001
,  // measure 12
0000
0100
0000
1001
0000
0010
0000
1000
,  // measure 13
0000
0001
0000
0001
0000
0010
0000
1001
,  // measure 14
0000
1000
0000
1100
0000
0001
0000
0101
,  // measure 15
0000
0100
0000
0100
0000
0010
0000
0001
,  // measure 16
0000
1000
0000
0010
0000
0100
0000
0001
,  // measure 17
0000
1000
0000
0101
0000
0010
0000
1000
,  // measure 18
0000
0001
0000
0010
0000
0100
0000
1000
,  // measure 19
0000
0001
0000
1100
0000
0010
0000
0001
,  // measure 20
0000
0100
0000
1000
0000
0100
0000
0001
,  // measure 21
0000
0010
0000
1000
0000
0001
0000
0101
,  // measure 22
0000
1000
0000
1100
0000
0001
0000
0101
,  // measure 23
0000
1000
0000
1100
0000
0010
0000
1000
,  // measure 24
0000
0001
0000
0010
0000
0100
0000
1000
,  // measure 25
0000
0001
0000
1100
0000
0010
0000
0001
,  // measure 26
0000
1000
0000
0010
0000
0100
0000
0001
,  // measure 27
0000
1000
0000
0100
0000
0001
0000
0100
,  // measure 28
0000
1000
0000
0010
0000
0001
0000
0010
,  // measure 29
0000
0010
0000
0010
0000
0010
0000
0100
,  // measure 30
0000
0100
0000
0100
0000
0100
0000
1000
,  // measure 31
0000
0001
0000
0010
0000
0020
0000
0100
,  // measure 32
0000
0100
0000
0200
0000
0330
0000
1000
,  // measure 33
0000
1100
0000
0001
0000
0101
0000
0010
,  // measure 34
0000
1001
0000
0100
0000
1000
0000
0001
,  // measure 35
0000
1000
0000
0100
0000
0200
0000
0010
,  // measure 36
0000
0010
0000
0020
0000
0330
0000
1100
,  // measure 37
0000
0001
0000
0101
0000
1000
0000
0010
,  // measure 38
0000
1000
0000
0100
0000
0000
0000
1000
,  // measure 39
0000
0010
0000
0100
0000
1000
0000
0100
,  // measure 40
0000
0001
0000
0100
0000
0010
0000
0100
,  // measure 41
0000
0100
0000
0100
0000
1001
0000
0100
,  // measure 42
0000
1001
0000
0100
0000
1001
0000
0010
,  // measure 43
0000
0001
0000
0100
0000
1000
0000
0001
,  // measure 44
0000
0010
0000
1000
0000
0100
0000
1001
,  // measure 45
0000
0100
0000
1001
0000
0100
0000
1100
,  // measure 46
0000
0101
0000
1000
0000
0100
0000
1000
,  // measure 47
0000
0010
0000
0100
0000
1000
0000
0100
,  // measure 48
0000
0001
0000
0100
0000
0010
0000
0101
,  // measure 49
0000
1000
0000
1100
0000
0001
0000
0010
,  // measure 50
0000
0001
0000
0100
0000
1001
0000
0010
,  // measure 51
0000
0001
0000
0100
0000
1000
0000
0001
,  // measure 52
0000
0010
0000
1000
0000
0100
0000
0010
,  // measure 53
0000
1001
0000
0100
0000
1001
0000
0010
,  // measure 54
0000
1000
0000
0100
0000
0000
0000
2200
,  // measure 55
0000
3300
0000
0001
0100
0000
1000
0000
,  // measure 56
0001
0000
1000
0100
0000
0000
0000
0202
,  // measure 57
0000
0303
0000
1000
0100
0000
0001
0000
,  // measure 58
1000
0000
0001
0100
0000
0000
0000
2200
,  // measure 59
0000
3300
0000
0001
0100
0000
1000
0000
,  // measure 60
0001
0000
1000
0100
0000
0100
0000
0010
,  // measure 61
0000
0001
0000
0100
0000
1000
0000
1100
,  // measure 62
0000
0101
0000
1000
0000
0100
0000
0002
,  // measure 63
0000
0000
0000
0100
0000
0000
0000
0100
,  // measure 64
0000
0000
0000
0100
0000
0003
0000
2000
,  // measure 65
0000
0000
0000
0100
0000
0000
0000
0100
,  // measure 66
0000
0000
0000
0100
0000
3000
0000
0002
,  // measure 67
0000
0003
0000
0200
0000
0300
0000
2000
,  // measure 68
0000
3000
0000
0200
0000
0300
0000
0001
,  // measure 69
0000
1000
0000
0100
0000
1100
0000
0001
,  // measure 70
0000
0101
0000
1000
0000
1000
0000
0001
,  // measure 71
0000
0010
0000
0001
0000
0100
0000
0010
,  // measure 72
0000
0100
0000
0001
0000
1000
0000
0101
,  // measure 73
0000
1000
0000
0100
0000
1001
0000
0010
,  // measure 74
0000
0010
0000
0010
0000
1001
0000
1000
,  // measure 75
0000
0010
0000
1000
0000
0100
0000
0010
,  // measure 76
0000
0100
0000
1000
0000
0001
0000
1100
,  // measure 77
0000
0001
0000
0100
0000
1001
0000
0010
,  // measure 78
0000
1000
0000
0100
0000
0000
0002
0000
,  // measure 79
0000
0000
0000
0000
0000
0000
0000
1003
;

//---------------dance-single - ----------------
#NOTES:
     dance-single:
     :
     Hard:
     9:
     0.624,0.563,0.509,0.057,0.000,403.000,54.000,6.000,0.000,0.000:  // measure 1
0000
0000
0000
0000
,  // measure 2
0000
0000
0000
0000
,  // measure 3
0000
0000
0000
0000
,  // measure 4
0000
0000
0000
0000
,  // measure 5
0000
0000
0000
0000
0000
0001
0100
0010
,  // measure 6
1000
0100
0010
1000
0000
0001
0100
0010
,  // measure 7
1000
0100
0010
1000
0000
1000
0001
1000
,  // measure 8
0000
0011
0000
1000
0000
1000
0100
0010
,  // measure 9
0001
0010
0100
1000
0000
1000
0100
0010
,  // measure 10
0001
0100
0010
0001
0000
1000
0100
0010
,  // measure 11
0001
0100
0010
0001
0000
0001
1000
0001
,  // measure 12
0000
1010
0000
0001
0000
0001
0100
0010
,  // measure 13
1000
0010
0100
0001
0000
1000
0000
1100
,  // measure 14
0000
0001
0000
0101
0000
1000
0100
0001
,  // measure 15
0010
1000
0000
0110
0000
1000
1000
0100
,  // measure 16
0000
0001
0001
0100
0000
1000
0100
0001
,  // measure 17
0100
1000
0010
0001
0000
1000
1000
0010
,  // measure 18
0000
0001
0001
0010
0000
1000
0010
0001
,  // measure 19
0010
1000
0100
0001
0000
1000
1000
0100
,  // measure 20
0000
0001
0001
0100
0000
0010
1000
0001
,  // measure 21
0010
0100
1000
0001
0000
1100
0000
1001
,  // measure 22
0000
0101
0000
1001
0000
0010
0000
1000
,  // measure 23
0000
0100
0000
0001
0000
0010
0001
0010
,  // measure 24
0000
0100
1000
0100
0000
1000
0010
0100
,  // measure 25
1000
0001
0010
0100
0000
0010
1000
0010
,  // measure 26
0000
0100
0001
0100
0000
0001
0010
0100
,  // measure 27
0001
1000
0010
0100
0000
0010
0001
0010
,  // measure 28
0000
0100
1000
0100
0000
0010
0001
1000
,  // measure 29
0010
0100
0001
1000
0000
1100
0000
1001
,  // measure 30
0000
0101
0000
1001
0000
0010
0000
0010
,  // measure 31
0000
0010
0000
0010
0000
1000
0000
1100
,  // measure 32
0000
0001
0100
1000
0000
0001
0000
0101
,  // measure 33
0000
1000
0100
0001
0000
0010
0001
0100
,  // measure 34
0000
0010
0100
0001
0000
0010
1000
0100
,  // measure 35
1000
0010
0100
1000
0000
0001
0000
0101
,  // measure 36
0000
1000
0100
0001
0000
1000
0000
1100
,  // measure 37
0000
0001
0100
1000
0000
0010
1000
0100
,  // measure 38
0000
0010
0100
1000
0000
0000
0001
1000
,  // measure 39
0100
0010
0000
0000
0000
1000
0100
0001
,  // measure 40
0000
1000
0100
0001
0000
1000
0000
1100
,  // measure 41
0000
0001
0000
0101
0000
1000
0100
0001
,  // measure 42
0000
1000
0100
0001
0000
0010
0000
0110
,  // measure 43
0000
0100
0000
0110
0000
1000
0100
0001
,  // measure 44
0000
1000
0100
0001
0000
0010
0000
0001
,  // measure 45
0000
0101
0000
1100
0000
1000
0100
0001
,  // measure 46
0000
1000
0100
0001
0000
1100
0000
0101
,  // measure 47
0000
1100
0000
0101
0000
0001
0100
1000
,  // measure 48
0000
0001
0100
1000
0000
0010
0000
0010
,  // measure 49
0000
1001
0000
0100
0000
0001
0100
1000
,  // measure 50
0000
0001
0100
1000
0000
0010
0000
0100
,  // measure 51
0000
0011
0000
1010
0000
0001
0100
1000
,  // measure 52
0000
0001
0100
1000
0000
1100
0000
0001
,  // measure 53
0000
1100
0000
0001
0000
0001
0100
1000
,  // measure 54
0000
0001
0100
1000
0000
0000
1000
0100
,  // measure 55
0001
0010
0000
0000
0000
2010
0000
0001
,  // measure 56
0001
0001
0001
0000
0100
0000
0001
0000
,  // measure 57
0010
0010
0000
3000
0000
0012
0000
1000
,  // measure 58
1000
1000
1000
0000
0100
0000
1000
0000
,  // measure 59
0010
0010
0000
0003
0000
0210
0000
0001
,  // measure 60
0001
0001
0001
0000
1000
0000
0001
0000
,  // measure 61
1000
1000
0000
0300
0000
0220
0000
0000
,  // measure 62
0000
0000
0000
0330
0000
1001
0000
1100
,  // measure 63
0000
0101
0000
1001
0000
0110
0000
1000
,  // measure 64
0100
0001
0010
1000
0000
0110
0000
0001
,  // measure 65
0100
1000
0010
0001
0000
0110
0000
1000
,  // measure 66
0100
0001
0010
1000
0000
0110
0000
0001
,  // measure 67
0100
1000
0010
0001
0000
1000
0100
1000
,  // measure 68
0000
0001
0100
0001
0000
1000
0100
0001
,  // measure 69
0000
1000
0100
0001
0000
0010
1000
0001
,  // measure 70
0000
0010
1000
0001
0000
1100
0000
1001
,  // measure 71
0000
0101
0000
1001
0000
1000
0100
0010
,  // measure 72
0100
1000
0100
0001
0000
1010
0000
0100
,  // measure 73
0000
0010
0000
0101
0000
0001
0100
0010
,  // measure 74
0100
1000
0100
0001
0000
0101
0000
0010
,  // measure 75
0000
1100
0000
0010
0000
1000
0010
0100
,  // measure 76
1000
0001
0010
0100
0000
1001
0000
0100
,  // measure 77
0000
1001
0000
0100
0000
0001
0010
0100
,  // measure 78
0001
1000
0010
0100
0000
0000
0001
0100
,  // measure 79
1000
0010
0000
0000
0200
0000
0000
0000
,  // measure 80
0000
0000
0000
0000
0000
0310
0000
0000
;

//---------------dance-double - ----------------
#NOTES:
     dance-double:
     :
     Easy:
     4:
     0.240,0.263,0.160,0.085,0.000,152.000,17.000,9.000,0.000,0.000:  // measure 1
00000000
00000000
00000000
00000000
,  // measure 2
00000000
00000000
00000000
00000000
,  // measure 3
00000000
00000000
00000000
00000000
,  // measure 4
00000000
00000000
00000000
00000000
,  // measure 5
00000000
00000000
00000000
00000000
00000000
00000001
00000000
00000000
,  // measure 6
00000000
00000100
00000000
00000000
00000000
00001000
00000000
00000000
,  // measure 7
00000000
00000100
00000000
00000000
00000000
00000001
00000000
00000000
,  // measure 8
00000000
00001000
00000000
00000000
00000000
00010000
00000000
00000000
,  // measure 9
00000000
10000000
00000000
00000000
00000000
10000000
00000000
00000000
,  // measure 10
00000000
01000000
00000000
00000000
00000000
00010000
00000000
00000000
,  // measure 11
00000000
01000000
00000000
00000000
00000000
10000000
00000000
00000000
,  // measure 12
00000000
00010000
00000000
00000000
00000000
00001000
00000000
00000000
,  // measure 13
00000000
00000001
00000000
00000000
00000000
00001001
00000000
00000000
,  // measure 14
00000000
00001001
00000000
00000000
00000000
00000010
00000000
00000001
,  // measure 15
00000000
00001000
00000000
00000000
00000000
00001001
00000000
00000000
,  // measure 16
00000000
00001001
00000000
00000000
00000000
00000100
00000000
00000000
,  // measure 17
00000000
00001000
00000000
00000000
00000000
00010000
00000000
00000000
,  // measure 18
00000000
00011000
00000000
00000000
00000000
01000000
00000000
00000000
,  // measure 19
00000000
10000000
00000000
00000000
00000000
10010000
00000000
00000000
,  // measure 20
00000000
10010000
00000000
00000000
00000000
10000000
00000000
00000000
,  // measure 21
00000000
00010000
00000000
00000000
00000000
00100000
00000000
00000000
,  // measure 22
00000000
10000000
00000000
00000000
00000000
01000000
00000000
00000000
,  // measure 23
00000000
00010000
00000000
00000000
00000000
10000000
00000000
00000000
,  // measure 24
00000000
00010000
00000000
00000000
00000000
00001000
00000000
00000000
,  // measure 25
00000000
00000001
00000000
00000000
00000000
00000001
00000000
00000000
,  // measure 26
00000000
00001000
00000000
00000000
00000000
00010000
00000000
00000000
,  // measure 27
00000000
10000000
00000000
00000000
00000000
10000000
00000000
00000000
,  // measure 28
00000000
00010000
00000000
00000000
00000000
00001000
00000000
00000000
,  // measure 29
00000000
00000001
00000000
00000000
00000000
00001001
00000000
00000000
,  // measure 30
00000000
00001001
00000000
00000000
00000000
00000010
00000000
00000000
,  // measure 31
00000000
00001001
00000000
00000000
00000000
00000010
00000000
00000000
,  // measure 32
00000000
00000020
00000000
00000000
00000000
00000100
00000000
00000000
,  // measure 33
00000000
00000130
00000000
00000000
00000000
00001000
00000000
00000000
,  // measure 34
00000000
00010000
00000000
00000000
00000000
01000000
00000000
00000000
,  // measure 35
00000000
10000000
00000000
00000000
00000000
00100000
00000000
00000000
,  // measure 36
00000000
00200000
00000000
00000000
00000000
01000000
00000000
00000000
,  // measure 37
00000000
01300000
00000000
00000000
00000000
00010000
00000000
00000000
,  // measure 38
00000000
00001000
00000000
00000000
00000000
00000100
00000000
00000000
,  // measure 39
00000000
00000110
00000000
00000000
00000000
00000100
00000000
00000000
,  // measure 40
00000000
00000100
00000000
00000000
00000000
00001000
00000000
00010000
,  // measure 41
00000000
00001000
00000000
00000000
00000000
00000100
00000000
00000000
,  // measure 42
00000000
00000100
00000000
00000000
00000000
00001000
00000000
00010000
,  // measure 43
00000000
01000000
00000000
00000000
00000000
01000000
00000000
00000000
,  // measure 44
00000000
01000000
00000000
00000000
00000000
00010000
00000000
00001000
,  // measure 45
00000000
00010000
00000000
00000000
00000000
01000000
00000000
00000000
,  // measure 46
00000000
01000000
00000000
00000000
00000000
00010000
00000000
00001000
,  // measure 47
00000000
00000100
00000000
00000001
00000000
00000100
00000000
00000000
,  // measure 48
00000000
00000100
00000000
00000000
00000000
00001000
00000000
00010000
,  // measure 49
00000000
00001000
00000000
00000000
00000000
00000100
00000000
00000000
,  // measure 50
00000000
00000100
00000000
00000000
00000000
00001000
00000000
00010000
,  // measure 51
00000000
01000000
00000000
00000000
00000000
01000000
00000000
00000000
,  // measure 52
00000000
01000000
00000000
00000000
00000000
00010000
00000000
00001000
,  // measure 53
00000000
00010000
00000000
00000000
00000000
01000000
00000000
00000000
,  // measure 54
00000000
01000000
00000000
00000000
00000000
00010000
00000000
00001000
,  // measure 55
00000000
00010000
00000000
00000000
00000000
00120000
00000000
00000000
,  // measure 56
00000000
00000000
00000000
00000000
00000000
00000000
00000000
00030000
,  // measure 57
00000000
00100000
00000000
00000000
00000000
00012000
00000000
00000000
,  // measure 58
00000000
00000000
00000000
00000000
00000000
00000000
00000000
00003000
,  // measure 59
00000000
00010000
00000000
00000000
00000000
00002010
00000000
00000000
,  // measure 60
00000000
00000000
00000000
00000000
00000000
00000000
00000000
00003000
,  // measure 61
00000000
00000010
00000000
00000000
00000000
00021000
00000000
00000000
,  // measure 62
00000000
00000000
00000000
00030000
00000000
00001000
00000000
00000000
,  // measure 63
00000000
01000000
00000000
00000000
00000000
10000000
00000000
00000000
,  // measure 64
00000000
01000000
00000000
00000000
00000000
00010000
00000000
00000000
,  // measure 65
00000000
00001000
00000000
00000000
00000000
00001000
00000000
00000000
,  // measure 66
00000000
00010000
00000000
00000000
00000000
01000000
00000000
00000000
,  // measure 67
00000000
10000000
00000000
00000000
00000000
10000000
00000000
00000000
,  // measure 68
00000000
01000000
00000000
00000000
00000000
00010000
00000000
00000000
,  // measure 69
00000000
00001000
00000000
00000000
00000000
00001000
00000000
00000000
,  // measure 70
00000000
00001000
00000000
00000000
00000000
00010000
00000000
00000000
,  // measure 71
00000000
00001000
00000000
00000000
00000000
00021000
00000000
00000000
,  // measure 72
00000000
01000000
00000000
00000000
00000000
01000000
00000000
00000000
,  // measure 73
00000000
00031000
00000000
00000000
00000000
00012000
00000000
00000000
,  // measure 74
00000000
00000100
00000000
00000000
00000000
00000100
00000000
00000000
,  // measure 75
00000000
00013000
00000000
00000000
00000000
01000000
00000000
00000000
,  // measure 76
00000000
00010000
00000000
00000000
00000000
00001000
00000000
00000000
,  // measure 77
00000000
00000100
00000000
00000000
00000000
00000100
00000000
00000000
,  // measure 78
00000000
00001000
00000000
00000000
00000000
00010000
00000000
00000000
,  // measure 79
00000000
02000000
00000000
00000000
00000000
00000000
00000000
00000000
,  // measure 80
00000000
00000000
00000000
00000000
00000000
03100000
00000000
00000000
;

//---------------dance-double - ----------------
#NOTES:
     dance-double:
     :
     Medium:
     6:
     0.459,0.488,0.453,0.160,0.000,276.000,48.000,17.000,0.000,0.000:  // measure 1
00000000
00000000
00000000
00000000
,  // measure 2
00000000
00000000
00000000
00000000
,  // measure 3
00000000
00000000
00000000
00000000
,  // measure 4
00000000
00000000
00000000
00000000
,  // measure 5
00000000
00000000
00000000
00000000
00000000
00000001
00000000
00000100
,  // measure 6
00000000
00001000
00000000
00000100
00000000
00001000
00000000
00010000
,  // measure 7
00000000
01000000
00000000
10000000
00000000
00010000
00000000
11000000
,  // measure 8
00000000
00010000
00000000
11000000
00000000
00010000
00000000
10000000
,  // measure 9
00000000
01000000
00000000
01000000
00000000
10000000
00000000
01000000
,  // measure 10
00000000
00010000
00000000
01000000
00000000
00010000
00000000
00001000
,  // measure 11
00000000
00000100
00000000
00000001
00000000
00001000
00000000
00000101
,  // measure 12
00000000
00001000
00000000
00000101
00000000
00001000
00000000
00000001
,  // measure 13
00000000
00000100
00000000
00000100
00000000
00000110
00000000
00001000
,  // measure 14
00000000
00000110
00000000
00000001
00000000
00000010
00000000
00001000
,  // measure 15
00000000
00010000
00000000
00010000
00000000
01000000
00000000
00010000
,  // measure 16
00000000
00001000
00000000
00000110
00000000
00001000
00000000
00000100
,  // measure 17
00000000
00000001
00000000
00000002
00000000
00000010
00000000
00000010
,  // measure 18
00000000
00000010
00000000
00000010
00000000
00000100
00000000
00000103
,  // measure 19
00000000
00001001
00000000
00000100
00000000
00000010
00000000
00001000
,  // measure 20
00000000
00010000
00000000
00001000
00000000
00000100
00000000
00001000
,  // measure 21
00000000
00010000
00000000
01000000
00000000
01100000
00000000
00010000
,  // measure 22
00000000
01100000
00000000
10000000
00000000
00100000
00000000
00010000
,  // measure 23
00000000
01000000
00000000
10000000
00000000
00010000
00000000
01100000
,  // measure 24
00000000
10000000
00000000
01000000
00000000
00010000
00000000
00001000
,  // measure 25
00000000
00000100
00000000
00000110
00000000
00001000
00000000
00000110
,  // measure 26
00000000
00000001
00000000
00000100
00000000
00001000
00000000
00010000
,  // measure 27
00000000
00001000
00000000
00000100
00000000
00000001
00000000
00000101
,  // measure 28
00000000
00001000
00000000
00001100
00000000
00000001
00000000
00000101
,  // measure 29
00000000
00001000
00000000
00001100
00000000
00000001
00000000
00000110
,  // measure 30
00000000
00001000
00000000
00000100
00000000
00001000
00000000
00010000
,  // measure 31
00000000
01000000
00000000
10000000
00000000
01000000
00000000
00100000
,  // measure 32
00000000
00000000
00000000
00000000
00000000
20020000
00000000
30030000
,  // measure 33
00000000
02000000
00000000
03000000
00000000
20000000
00000000
30000000
,  // measure 34
00000000
02000000
00000000
03000000
00000000
00020000
00000000
00030000
,  // measure 35
00000000
00002000
00000000
00003000
00000000
00000100
00000000
00000010
,  // measure 36
00000000
00000000
00000000
00000000
00000000
00002002
00000000
00003003
,  // measure 37
00000000
00000200
00000000
00000300
00000000
00001000
00000000
00010000
,  // measure 38
00000000
00001000
00000000
00000110
00000000
00001000
00000000
00010000
,  // measure 39
00000000
02000000
00000000
03000000
00000000
00010000
00000000
00001000
,  // measure 40
00000000
00010000
00000000
01000000
00000000
00010000
00000000
00001000
,  // measure 41
00000000
00000100
00000000
00000001
00000000
00000110
00000000
00000001
,  // measure 42
00000000
00000110
00000000
00001000
00000000
00000001
00000000
00000100
,  // measure 43
00000000
00001000
00000000
00010000
00000000
00100000
00000000
00010000
,  // measure 44
00000000
00001000
00000000
00010010
00000000
00000100
00000000
00001000
,  // measure 45
00000000
00010000
00000000
01000000
00000000
10000000
00000000
10010000
,  // measure 46
00000000
10000000
00000000
11000000
00000000
00010000
00000000
00001000
,  // measure 47
00000000
00000100
00000000
00000100
00000000
00001000
00000000
00010000
,  // measure 48
00000000
00001000
00000000
00000100
00000000
00001000
00000000
00010000
,  // measure 49
00000000
01000000
00000000
10000000
00000000
01100000
00000000
10000000
,  // measure 50
00000000
01100000
00000000
00010000
00000000
10000000
00000000
01000000
,  // measure 51
00000000
00010000
00000000
00000001
00000000
00000010
00000000
00001000
,  // measure 52
00000000
00010000
00000000
00101000
00000000
01000000
00000000
00010000
,  // measure 53
00000000
00001000
00000000
00000100
00000000
00000110
00000000
00001000
,  // measure 54
00000000
00000100
00000000
00000001
00000000
00001001
00000000
00000000
,  // measure 55
00000000
00000100
00000000
00000000
00000000
00002200
00000000
00000000
,  // measure 56
00000000
00003300
00000000
00000000
00000001
00000000
00001000
00000000
,  // measure 57
00000001
00000100
00000000
00000000
00000000
00000202
00000000
00000000
,  // measure 58
00000000
00000303
00000000
00000000
00001000
00000000
00000001
00000000
,  // measure 59
00001000
00000100
00000000
00000000
00000000
00001001
00000000
00000001
,  // measure 60
00000000
00000100
00000000
00001000
00000000
00000110
00000000
00001000
,  // measure 61
00000000
00010000
00000000
01000000
00000000
11000000
00000000
00010000
,  // measure 62
00000000
01000000
00000000
10000000
00000000
01010000
00000000
10000000
,  // measure 63
00000000
11000000
00000000
00010000
00000000
10000000
00000000
01000000
,  // measure 64
00000000
00010000
00000000
00001000
00000000
00100000
00000000
00001000
,  // measure 65
00000000
00010000
00000000
01000000
00000000
00010000
00000000
00001000
,  // measure 66
00000000
00000100
00000000
00000010
00000000
00010000
00000000
00001000
,  // measure 67
00000000
00000100
00000000
00000001
00000000
00000010
00000000
00000001
,  // measure 68
00000000
00000100
00000000
00001001
00000000
00000100
00000000
00001000
,  // measure 69
00000000
00000010
00000000
00001001
00000000
00000100
00000000
00001001
,  // measure 70
00000000
00000100
00000000
00001001
00000000
00001100
00000000
00000101
,  // measure 71
00000000
00001000
00000000
00000100
00000000
00000001
00000000
00000100
,  // measure 72
00000000
00001000
00000000
00010000
00000000
00000010
00000000
00010000
,  // measure 73
00000000
00001000
00000000
00000100
00000000
00001000
00000000
00010000
,  // measure 74
00000000
01000000
00000000
00100000
00000000
00001000
00000000
00010000
,  // measure 75
00000000
01000000
00000000
10000000
00000000
01100000
00000000
00010000
,  // measure 76
00000000
00001000
00000000
00010000
00000000
01100000
00000000
00010000
,  // measure 77
00000000
00001000
00000000
00010000
00000000
01100000
00000000
10000000
,  // measure 78
00000000
01100000
00000000
00010000
00000000
00001000
00000000
00000100
,  // measure 79
00000000
00000001
00000000
00000000
00002000
00000000
00000000
00000000
,  // measure 80
00000000
00000000
00000000
00000000
00000000
00003100
00000000
00000000
;

//---------------dance-double - ----------------
#NOTES:
     dance-double:
     :
     Hard:
     9:
     0.628,0.601,0.443,0.009,0.000,418.000,47.000,1.000,0.000,0.000:  // measure 1
00000000
00000000
00000000
00000000
,  // measure 2
00000000
00000000
00000000
00000000
,  // measure 3
00000000
00000000
00000000
00000000
,  // measure 4
00000000
00000000
00000000
00000000
,  // measure 5
00000000
00000000
00000000
00000000
00000000
00000010
00001000
00010000
,  // measure 6
00000000
00100000
00001000
00010000
00000000
00100000
00010000
01000000
,  // measure 7
00000000
00100000
00010000
00001000
00000000
00000100
00000001
00000100
,  // measure 8
00000000
00001010
00000000
00000101
00000000
00000100
00000000
00001000
,  // measure 9
00000100
00000000
00001000
00000010
00000000
00000100
00001000
00010000
,  // measure 10
00000000
01000000
00001000
00010000
00000000
01000000
00010000
00100000
,  // measure 11
00000000
01000000
00010000
10000000
00000000
01000000
10000000
01000000
,  // measure 12
00000000
00110000
00000000
11000000
00000000
00010000
00000000
10000000
,  // measure 13
01000000
00000000
00010000
01000000
00000000
00100000
00100000
10010000
,  // measure 14
00000000
01000000
01000000
10010000
00000000
00100000
00100000
01000000
,  // measure 15
00100000
00100000
00000000
10010000
00000000
10000000
01000000
10000000
,  // measure 16
00000000
00010000
01000000
00010000
00000000
00010000
00001000
00000100
,  // measure 17
00000000
00000110
00000000
00001001
00000000
00000001
00000100
00000001
,  // measure 18
00000000
00001000
00000100
00001000
00000000
00001000
00010000
01000000
,  // measure 19
00000000
01100000
00000000
10010000
00000000
10000000
01000000
10000000
,  // measure 20
00100000
00010000
00100000
00010000
00001000
00000100
00001000
00000100
,  // measure 21
00000001
00000010
00000001
00000010
00000000
00001001
00000000
00000000
,  // measure 22
00000110
00000000
00000000
00001000
00000000
00010000
01000000
00010000
,  // measure 23
00000000
00010000
01000000
10000000
00000000
10000000
01000000
00010000
,  // measure 24
00000000
00010000
01000000
10000000
00000000
00100000
00001000
00010000
,  // measure 25
00000000
00010010
00000000
00001010
00000000
00000001
00000100
00000001
,  // measure 26
00000000
00001000
00000100
00001000
00000000
00001000
00010000
01000000
,  // measure 27
00000000
01100000
00000000
10010000
00000000
10000000
01000000
00010000
,  // measure 28
01000000
00010000
00001000
00010000
00001000
00000100
00001000
00000100
,  // measure 29
00000001
00000010
00000001
00000010
00000000
00000110
00000000
00000000
,  // measure 30
00001001
00000000
00000010
00000001
00000100
00000000
00001000
00000100
,  // measure 31
00000001
00000100
00000000
00000000
00000000
00000001
00000001
00000001
,  // measure 32
00000001
00000000
00001000
00000100
00000000
00000110
00000000
00010000
,  // measure 33
00000010
00000000
00010000
00001000
00000000
00010000
01000000
00010000
,  // measure 34
00000000
10000000
01000000
10000000
00000000
00010000
00001000
00010000
,  // measure 35
01000000
10000000
01000000
10000000
00000000
00010000
00010000
00010000
,  // measure 36
00010000
00000000
00100000
01000000
00000000
10010000
00000000
01000000
,  // measure 37
00010000
00000000
00001000
00000100
00000000
00000010
00010000
00001000
,  // measure 38
00000100
00000010
00001000
00000100
00000010
00000000
00001000
00010000
,  // measure 39
01000000
10000000
00000000
00000000
00000000
00010000
00000000
01010000
,  // measure 40
00000000
10000000
01000000
00010000
00000000
00001000
00000000
01001000
,  // measure 41
00000000
00010000
01000000
10000000
00000000
01000000
00010000
00001000
,  // measure 42
00000000
00000100
00001000
00010000
00000000
00000010
00001000
00010000
,  // measure 43
00100000
00010000
00001000
00000100
00000000
00000001
00000000
00000101
,  // measure 44
00000000
00000001
00000010
00001000
00000000
00010000
00000000
00010100
,  // measure 45
00000000
00001000
00000001
00000100
00000000
00000001
00000100
00001000
,  // measure 46
00000000
00010000
01000000
10000000
00000000
10010000
00000000
01010000
,  // measure 47
00000000
10010000
00000000
11000000
00000000
00110000
00000000
10000000
,  // measure 48
00000000
00100000
00010000
01000000
00000000
01001000
00000000
00010000
,  // measure 49
00000000
00001000
00000100
00000010
00000000
00000010
00010000
00001000
,  // measure 50
00000000
00000010
00001000
00000100
00000000
00000010
00001000
00010000
,  // measure 51
00100000
00010000
00001000
00000100
00000000
00000101
00000000
00001000
,  // measure 52
00000000
00000010
00000100
00000001
00000000
00001010
00000000
00000001
,  // measure 53
00000000
00000100
00001000
00010000
00000000
01000000
00010000
00001000
,  // measure 54
00000000
00000100
00001000
00010000
00000000
00000000
01000000
10000000
,  // measure 55
00010000
01000000
00000000
00000000
00000000
10100000
00000000
01000000
,  // measure 56
00010000
00001000
01000000
00000000
00001000
00000000
00010000
00000000
,  // measure 57
00000100
00001000
00000000
00001000
00000000
00000011
00000000
00000100
,  // measure 58
00001000
00010000
00000100
00000000
00010000
00000000
00001000
00000000
,  // measure 59
01000000
00010000
00000000
00010000
00000000
01100000
00000000
00010000
,  // measure 60
00001000
00000100
00000001
00000000
00000110
00000000
00001001
00000000
,  // measure 61
00000001
00000100
00000000
00000100
00000000
00000110
00000000
00001000
,  // measure 62
00010000
01000000
00010000
01000000
00000000
10000000
01000000
10000000
,  // measure 63
01000000
00010000
01000000
00010000
00000000
11000000
00000000
00010000
,  // measure 64
00000000
01100000
00000000
00010000
00000000
00101000
00000000
00010000
,  // measure 65
00000000
00010010
00000000
00001000
00000000
00000001
00000100
00000001
,  // measure 66
00000000
00001000
00000000
00001000
00000000
00010000
01000000
00010000
,  // measure 67
00000000
10000000
01000000
10000000
00000000
00100000
00010000
01000000
,  // measure 68
00100000
00010000
00001000
00100000
00010000
01000000
00100000
00010000
,  // measure 69
00001000
00100000
00010000
01000000
00100000
10000000
01000000
00010000
,  // measure 70
00000000
00010000
01000000
10000000
00000000
10000000
01000000
00010000
,  // measure 71
00001000
00000100
00000010
00001000
00000000
00000110
00000000
00000001
,  // measure 72
00000000
00000110
00000000
00001000
00000000
00010010
00000000
00001000
,  // measure 73
00000000
01001000
00000000
00010000
00000000
00100000
00010000
00001000
,  // measure 74
00000000
00001000
00000000
00100000
00000000
00100000
00010000
00001000
,  // measure 75
00000000
00010000
00001000
00000100
00000000
00001000
00010000
00000010
,  // measure 76
00000100
00001000
00010000
00001000
00010000
00000010
00000100
00001000
,  // measure 77
00010000
00001000
00010000
00000010
00000000
00000100
00001000
00010000
,  // measure 78
00000000
01000000
00010000
00001000
00000000
00000000
00001000
00100000
,  // measure 79
00010000
01000000
00000000
00000000
20000000
00000000
00000000
00000000
,  // measure 80
00000000
00000000
00000000
00000000
00000000
30010000
00000000
00000000
;
