#TITLE:Angelic Layer;
#SUBTITLE:- The Starry Sky;
#ARTIST:HAL;
#TITLETRANSLIT:;
#SUBTITLETRANSLIT:;
#ARTISTTRANSLIT:;
#CREDIT:Anime Toshokan;
#BANNER:Angelic Layer - The Starry Sky.png;
#BACKGROUND:Angelic Layer - The Starry Sky bg.png;
#LYRICSPATH:;
#CDTITLE:dejiko.png;
#MUSIC:Angelic Layer - The Starry Sky.mp3;
#OFFSET:-4.420;
#SAMPLESTART:21.610;
#SAMPLELENGTH:15.400;
#SELECTABLE:YES;
#DISPLAYBPM:125.000;
#BPMS:0.000=125.030,34.000=128.370,36.000=124.980;
#STOPS:;
#BGCHANGES:;
// cache tags:
#FIRSTBEAT:0.000;
#LASTBEAT:181.667;
#SONGFILENAME:Songs/DDR Anime 4th Mix/Angelic Layer - The Starry Sky/Angelic Layer - The Starry Sky.sm;
#HASMUSIC:1;
#HASBANNER:1;
#MUSICLENGTH:94.931;
// end cache tags

//---------------dance-single - BASIC----------------
#NOTES:
     dance-single:
     BASIC:
     Easy:
     3:
     0.271,0.287,0.179,0.042,0.000,159.000,17.000,4.000,0.000,0.000:
1000
0001
0010
0100
,
1000
0100
0010
0001
,
0100
1000
0100
0010
,
0001
0100
1000
0100
,
0001
0100
0010
0100
,
1000
0001
0100
0010
,
0001
0100
1000
0010
,
0001
0100
1001
0000
,
1001
0000
1001
0000
,
0010
0100
0001
1000
,
0010
0100
0001
0100
,
0010
0100
1000
0010
,
0001
0100
0010
0100
,
2000
0000
0000
0000
,
3002
0000
0000
0000
,
0013
0100
1000
0100
,
0001
0010
0100
1001
,
0010
1000
0001
0100
,
0010
0001
1000
0010
,
1010
0000
0101
1010
,
0101
0011
0000
1000
,
0100
0001
0010
0100
,
1000
0010
0100
1000
,
0001
0010
0100
1000
,
1001
0110
1001
0000
,
0010
1000
0100
0001
,
0010
0001
0100
1000
,
1001
0000
0110
0000
,
1001
0000
1001
0000
,
0010
0001
1000
0100
,
0010
0001
0010
0100
,
1000
0001
0010
0100
,
1000
0001
0010
0100
,
0001
0010
0100
1000
,
0010
0000
0001
0000
,
1000
0000
0100
0010
,
0001
0100
1000
0100
,
0010
0001
0001
0100
,
1000
0010
0001
0100
,
1000
0100
0001
0010
,
0001
0100
1000
0010
,
0100
0001
0010
0100
,
0001
1000
0010
0100
,
1000
0001
0010
0000
,
1000
0000
0001
0000
,
2002
0000
0000
0000
0000
0000
0000
0000
0000
0000
0000
0000
0000
0000
0000
0000
0000
0000
0000
3003
0000
0000
0000
0000
0000
0000
0000
0000
0000
0000
0000
0000
0000
0000
0000
0000
0000
0000
0000
0000
0000
0000
0000
0000
0000
0000
0000
0000
;

//---------------dance-single - ANOTHER----------------
#NOTES:
     dance-single:
     ANOTHER:
     Medium:
     6:
     0.363,0.429,0.158,0.084,0.000,218.000,15.000,8.000,0.000,0.000:
1000
1000
0001
0001
,
0010
0010
0100
0100
,
1000
0000
0000
0001
0001
0000
0000
0100
,
0100
0000
0000
1000
1000
0000
0000
0000
,
1000
0001
0010
0100
,
1000
0010
0001
0100
,
1000
0100
0001
0100
1000
0100
0001
0100
,
1000
0100
0001
0100
2020
0000
0000
3030
,
0022
0000
0000
0033
2002
0000
0000
3003
,
1000
0001
0010
0100
,
1000
0010
0001
0100
,
1000
0100
0001
0010
0100
0000
1000
0000
,
0010
0100
0001
0100
,
1000
0001
0100
0010
,
0001
1000
0010
0100
,
0001
1000
0010
0100
,
0001
0000
0010
0000
2002
0000
0000
3003
,
1000
0001
0010
0100
1000
0010
0100
1000
,
0010
0100
1000
0010
0001
0100
0010
0000
,
0100
1000
0001
0100
,
0010
0001
1000
0100
,
0010
0001
1000
0100
,
0010
0100
1000
0001
,
0010
0100
1000
0001
0010
0100
0010
0000
,
0100
1000
0001
0010
0100
1000
0001
0000
,
0010
0100
1000
0010
,
0001
0010
1100
0011
,
1000
0100
0010
1001
,
0010
0100
1010
1010
,
0011
0000
0011
0000
1000
0100
0001
0010
,
0100
0000
1000
0000
0010
0100
0001
0000
,
1000
0000
0100
0000
0010
0100
1000
0000
,
0001
0000
0010
0000
0100
1000
0010
0000
,
0100
0000
0010
0000
1000
0100
0010
0000
,
0001
0000
0010
0000
0100
0001
0010
0000
,
1000
0000
0100
0000
0010
0001
0100
0000
,
1010
1010
0011
0011
,
1000
0100
0010
0100
0001
0010
0100
0000
,
1000
0010
0001
0100
,
1000
0000
0010
0000
0001
0010
0100
0000
,
1000
0010
0100
0001
,
1000
0010
0100
1000
0010
0001
0100
0000
,
1000
0010
0100
0001
,
0010
0000
0100
0000
1000
0010
0100
0000
,
0001
0100
1000
0010
0100
0001
1000
0010
,
0100
0010
0000
0000
;

//---------------dance-single - MANIAC----------------
#NOTES:
     dance-single:
     MANIAC:
     Hard:
     7:
     0.495,0.454,0.590,0.147,0.000,259.000,56.000,14.000,0.000,0.000:
2020
0000
0000
0000
0000
0000
0000
3030
,
0202
0000
0000
0000
0000
0000
0000
0303
,
0001
1000
0100
0010
0100
1000
0001
0000
,
0202
0000
0000
0000
0000
0000
0000
0303
,
0001
0100
1000
0100
0010
0001
0100
0000
,
2020
0000
0000
3030
,
0001
0100
0010
1000
0100
0000
0000
1000
,
0100
0010
0001
0010
0100
0000
0000
0000
,
1001
0110
1001
0110
,
1000
0010
0100
0001
0010
0100
1000
0010
,
0100
0001
0010
0100
1000
0001
0100
0010
,
0100
0010
1000
0001
0100
0010
0100
0001
,
0010
0100
1000
0001
0100
0010
0001
0000
,
0001
1000
0010
0100
1000
0010
0100
1000
,
0001
0100
0010
0001
0100
0010
1000
0100
,
0010
0001
0010
0100
0001
0010
0100
1000
,
0001
0100
0010
0001
0100
0000
1000
0000
,
0001
0000
0010
0000
1000
0100
0010
0001
,
0100
0010
0001
0100
1000
0010
0100
0000
,
1001
0110
1001
0110
,
1010
0101
1010
0101
,
0022
0000
0000
0000
0000
0000
0000
0033
,
2200
0000
0000
3300
,
0001
0100
0010
1000
0100
0010
0001
0010
,
0100
1000
0100
0010
0001
0000
0000
0000
,
0001
0010
0100
1000
0010
0100
1000
0010
,
0100
0100
0010
0001
0010
0100
1000
0001
,
0100
0010
0001
0100
1000
0010
0100
1000
,
1001
1001
1001
1001
,
1001
1001
1001
0000
1000
0100
0010
0001
,
0010
0100
1000
0100
0010
0001
0010
0100
,
0001
0010
0100
1000
0010
0100
1000
0001
,
0010
0100
1000
0001
0010
0100
1000
0001
,
0010
0100
1000
0100
0010
0001
1000
0100
,
0010
0001
0100
0000
1001
0000
0110
0000
,
1001
0000
0110
0000
1001
0010
0100
1000
,
0001
0011
1100
1010
,
0101
0000
1000
0100
0010
0001
0100
1000
,
1100
0011
0101
1010
,
0100
1000
0010
0100
0001
0010
0100
0000
,
1001
0110
1010
0101
,
0011
0000
1100
0000
0001
0010
0100
1000
,
0001
0010
0100
1000
0100
0010
0100
0000
,
1001
0110
1001
0110
,
1010
1010
1010
0000
0101
0101
0101
0000
,
1001
0000
0000
2002
0000
3003
0000
0000
0000
0000
0000
0000
;

//---------------dance-single - BEGINNER----------------
#NOTES:
     dance-single:
     BEGINNER:
     Beginner:
     2:
     0.160,0.191,0.137,0.042,0.000,89.000,13.000,4.000,0.000,0.000:
1000
0000
0010
0000
,
1000
0000
0010
0000
,
0100
0000
0100
0000
,
0001
0000
1000
0000
,
0001
0000
0010
0000
,
1000
0000
0100
0000
,
0001
0000
1000
0000
,
0001
0000
1001
0000
,
1001
0000
1001
0000
,
0010
0000
0001
0000
,
0010
0000
0001
0000
,
0010
0000
1000
0000
,
0001
0000
0010
0000
,
2000
0000
0000
0000
,
3002
0000
0000
0000
,
0013
0000
1000
0000
,
0001
0000
0100
0000
,
0010
0000
0001
0000
,
0010
0000
1000
0000
,
1010
0000
0101
0000
,
0101
0000
0000
1000
,
0100
0000
0010
0000
,
1000
0000
0100
0000
,
0001
0000
0100
0000
,
1001
0000
1001
0000
,
0010
0000
0100
0000
,
0010
0000
0100
0000
,
1001
0000
0110
0000
,
1001
0000
1001
0000
,
0010
0000
1000
0000
,
0010
0000
0010
0000
,
1000
0000
0010
0000
,
1000
0000
0010
0000
,
0001
0000
0100
0000
,
0010
0000
0001
0000
,
1000
0000
0100
0000
,
0001
0000
1000
0000
,
0010
0000
0001
0000
,
1000
0000
0001
0000
,
1000
0000
0001
0000
,
0001
0000
1000
0000
,
0100
0000
0010
0000
,
0001
0000
0010
0000
,
1000
0000
0010
0000
,
1000
0000
0001
0000
,
2002
0000
0000
0000
0000
0000
0000
0000
0000
0000
0000
0000
0000
0000
0000
0000
0000
0000
0000
3003
0000
0000
0000
0000
0000
0000
0000
0000
0000
0000
0000
0000
0000
0000
0000
0000
0000
0000
0000
0000
0000
0000
0000
0000
0000
0000
0000
0000
;
