#TITLE:DON'T TRY TO STOP IT;
#SUBTITLE:;
#ARTIST:ROMAN HOLIDAY;
#TITLETRANSLIT:;
#SUBTITLETRANSLIT:;
#ARTISTTRANSLIT:;
#CREDIT:;
#BANNER:Don't Try To Stop It - Roman Holiday.png;
#BACKGROUND:Don't Try To Stop It - Roman Holiday-bg.png;
#LYRICSPATH:;
#CDTITLE:;
#MUSIC:Don't Try To Stop It - Roman Holiday.mp3;
#OFFSET:-1.406;
#SAMPLESTART:17.690;
#SAMPLELENGTH:12.000;
#SELECTABLE:YES;
#BPMS:0.000=191.770;
#STOPS:;
#BGCHANGES:;
// cache tags:
#FIRSTBEAT:13.000;
#LASTBEAT:276.000;
#SONGFILENAME:Songs/Dancing Stage Euromix 2/Don't Try To Stop It - Roman Holiday/Don't Try To Stop It - Roman Holiday.sm;
#HASMUSIC:1;
#HASBANNER:1;
#MUSICLENGTH:89.136;
// end cache tags

//---------------dance-single - ----------------
#NOTES:
     dance-single:
     :
     Easy:
     3:
     0.228,0.310,0.258,0.000,0.000,119.000,23.000,0.000,0.000,0.000:  // measure 1
0000
0000
0000
0000
,  // measure 2
0000
0000
0000
0000
,  // measure 3
0000
0000
0000
0000
,  // measure 4
0000
1000
0000
1000
,  // measure 5
0000
1000
0000
1000
,  // measure 6
0000
0001
0000
0001
,  // measure 7
0000
0001
0000
0001
,  // measure 8
0010
0000
0100
0000
,  // measure 9
0010
0010
0010
0000
,  // measure 10
0001
0000
1000
0000
,  // measure 11
0001
0001
0001
0000
,  // measure 12
0100
0000
0010
0000
,  // measure 13
0100
0100
0100
0000
,  // measure 14
1000
0000
0001
0000
,  // measure 15
1000
1000
1000
0000
,  // measure 16
0001
0000
1000
0000
,  // measure 17
0001
0000
1000
0000
,  // measure 18
0000
0000
0000
0000
,  // measure 19
0000
0000
0000
0000
,  // measure 20
0010
0000
0100
0000
,  // measure 21
0010
0000
0100
0000
,  // measure 22
0000
0000
0000
0000
,  // measure 23
0000
0000
0000
0000
,  // measure 24
1001
0000
0000
0000
,  // measure 25
1001
0000
0000
0000
,  // measure 26
0110
0000
0000
0000
,  // measure 27
1001
0000
0110
0000
,  // measure 28
1001
0000
0000
0000
,  // measure 29
1001
0000
0000
0000
,  // measure 30
0110
0000
0000
0000
,  // measure 31
1001
0000
0110
0000
,  // measure 32
1000
0000
0001
0000
,  // measure 33
0100
0000
0010
0000
,  // measure 34
0001
0001
1000
1000
,  // measure 35
0010
0100
1001
0000
,  // measure 36
0010
0000
0001
0000
,  // measure 37
0100
0000
1000
0000
,  // measure 38
0010
1000
0001
0100
,  // measure 39
1001
0000
0000
0000
,  // measure 40
0001
0000
1000
0000
,  // measure 41
0001
0000
1000
0000
,  // measure 42
1001
0000
0000
0000
,  // measure 43
0110
0000
0000
0000
,  // measure 44
0100
0000
0010
0000
,  // measure 45
0100
0000
0010
0000
,  // measure 46
1001
0000
0000
0000
,  // measure 47
0110
0000
0000
0000
,  // measure 48
0010
0000
0000
0000
,  // measure 49
0010
0000
0010
0000
,  // measure 50
1000
0000
0000
0000
,  // measure 51
1000
0000
1000
0000
,  // measure 52
0100
0000
0000
0000
,  // measure 53
0100
0000
0100
0000
,  // measure 54
0001
0000
0000
0000
,  // measure 55
0001
0000
0001
0000
,  // measure 56
1000
0000
0001
0000
,  // measure 57
1000
0000
0001
0000
,  // measure 58
0010
0010
0100
0100
,  // measure 59
1001
0000
0000
0000
,  // measure 60
1001
0000
1001
0000
,  // measure 61
0110
0000
0000
0000
,  // measure 62
0110
0000
0110
0000
,  // measure 63
0010
0000
1000
0000
,  // measure 64
0100
0000
0001
0000
,  // measure 65
0010
0000
0001
0000
,  // measure 66
0100
0000
1000
0000
,  // measure 67
0001
0000
0100
0000
,  // measure 68
1000
0000
0100
0000
,  // measure 69
0001
0000
1000
0000
,  // measure 70
1001
0000
0000
0000
;

//---------------dance-single - ----------------
#NOTES:
     dance-single:
     :
     Medium:
     5:
     0.330,0.425,0.247,0.000,0.000,184.000,22.000,0.000,0.000,0.000:  // measure 1
0000
0000
0000
0000
,  // measure 2
0000
0000
0000
0000
,  // measure 3
0000
0000
0000
0000
,  // measure 4
0000
1000
0000
0001
,  // measure 5
0000
1000
0000
0001
,  // measure 6
0000
1000
0000
0001
,  // measure 7
1000
0001
1000
0001
,  // measure 8
1000
0001
0100
0000
,  // measure 9
0001
1000
0100
0000
,  // measure 10
0010
0001
0100
0000
,  // measure 11
0010
1000
0100
0000
,  // measure 12
1000
0001
0010
0000
,  // measure 13
0001
1000
0010
0000
,  // measure 14
0100
0001
0010
0000
,  // measure 15
0100
1000
0010
0000
,  // measure 16
0000
1001
0000
1001
,  // measure 17
0000
0110
0000
0110
,  // measure 18
0000
0001
0000
1000
,  // measure 19
0000
0010
0100
0010
,  // measure 20
0000
1001
0000
1001
,  // measure 21
0000
0110
0000
0110
,  // measure 22
0000
0001
0000
1000
,  // measure 23
0000
0001
1000
0000
,  // measure 24
1001
0000
0000
0000
,  // measure 25
0110
0000
0000
0000
,  // measure 26
0011
0000
0000
0000
,  // measure 27
1100
0000
0101
0000
,  // measure 28
1001
0000
0000
0000
,  // measure 29
0110
0000
0000
0000
,  // measure 30
1010
0000
0101
0000
,  // measure 31
1100
0000
1001
0000
,  // measure 32
0001
0000
0001
0000
,  // measure 33
1000
0000
1000
0000
,  // measure 34
0010
0000
0100
0000
,  // measure 35
0010
1000
0100
0001
,  // measure 36
0010
0000
0010
0000
,  // measure 37
0100
0000
0100
0000
,  // measure 38
0001
1000
0001
1000
,  // measure 39
0010
0000
0000
0000
,  // measure 40
0000
0001
0000
0001
,  // measure 41
0000
1000
0000
1000
,  // measure 42
0010
1000
0001
0100
,  // measure 43
0001
0001
1000
1000
,  // measure 44
0000
0001
0000
0001
,  // measure 45
0000
1000
0000
1000
,  // measure 46
0001
0100
1000
0010
,  // measure 47
0001
1000
0100
0010
,  // measure 48
0001
0000
0001
0000
,  // measure 49
0001
0001
0001
0000
,  // measure 50
1000
0000
1000
0000
,  // measure 51
1000
1000
1000
0000
,  // measure 52
0010
0010
0100
0100
,  // measure 53
0010
0100
0001
1000
,  // measure 54
0010
1000
0100
0001
,  // measure 55
0010
0001
0100
1000
,  // measure 56
0010
0000
0010
0000
,  // measure 57
1000
0000
0001
0000
1000
0100
0001
0000
,  // measure 58
0001
0000
1000
0000
0001
0100
1000
0000
,  // measure 59
0001
1000
0001
1000
,  // measure 60
0010
0100
0010
0100
,  // measure 61
0001
0100
1000
0100
,  // measure 62
0001
1000
0010
1000
,  // measure 63
0001
0001
1001
0000
,  // measure 64
1000
1000
1001
0000
,  // measure 65
0010
0010
0100
0100
,  // measure 66
1000
0001
1000
0001
,  // measure 67
1000
1000
0100
0000
,  // measure 68
0001
0001
0100
0000
,  // measure 69
0010
0100
0000
0001
0000
1000
0000
1001
;

//---------------dance-single - ----------------
#NOTES:
     dance-single:
     :
     Hard:
     8:
     0.530,0.657,0.415,0.112,0.471,284.000,37.000,10.000,0.000,0.000:  // measure 1
0000
0000
0000
0000
,  // measure 2
0000
0000
0000
0000
,  // measure 3
0000
0000
0000
0000
,  // measure 4
0000
1000
0000
0001
,  // measure 5
0000
1000
0000
0001
,  // measure 6
0000
1000
0000
0001
,  // measure 7
1000
0000
0000
0010
0000
0000
0001
0000
1000
0000
0000
0100
0000
0000
0001
0000
,  // measure 8
1000
0000
0000
0001
1000
0000
0000
0001
1000
0000
0000
0000
0001
0000
0000
0000
,  // measure 9
0100
0000
0000
0010
0100
0000
0000
0010
0100
0000
0000
0000
0010
0000
0000
0000
,  // measure 10
0001
0000
0000
1000
0001
0000
0000
1000
0001
0000
0000
0000
1000
0000
0000
0000
,  // measure 11
0010
0000
0000
0100
0010
0000
0000
0100
0010
0000
0000
0000
0100
0000
0000
0000
,  // measure 12
1000
0000
0000
0010
1000
0000
0000
0010
1000
0000
0000
0000
0100
0000
0000
0000
,  // measure 13
0010
0000
0000
1000
0010
0000
0000
1000
0010
0000
0000
0000
0001
0000
0000
0000
,  // measure 14
0100
0000
0000
0001
0100
0000
0000
0001
0100
0000
0000
0000
0010
0000
0000
0000
,  // measure 15
0001
0000
0000
0100
0001
0000
0000
0100
0001
0000
0000
0000
1000
0000
0000
0001
,  // measure 16
0000
0000
0000
0000
1000
0000
0000
0000
0001
0000
0000
1000
0000
0000
0000
0001
,  // measure 17
0000
0000
0000
0000
1000
0000
0000
0000
0001
0000
0000
1000
0000
0000
0000
0010
,  // measure 18
0000
0000
0000
0010
0000
0000
0000
1001
0000
0000
0000
0000
0000
0000
0000
0100
,  // measure 19
0000
0000
0000
0100
0000
0000
0000
1001
0000
0000
0000
0000
0000
0000
0000
0010
,  // measure 20
0000
0000
0000
0000
0100
0000
0000
0000
0010
0000
0000
0100
0000
0000
0000
0010
,  // measure 21
0000
0000
0000
0000
0100
0000
0000
0000
0010
0000
0000
0100
0000
0000
0000
1001
,  // measure 22
0000
0000
0000
0110
0000
0000
0000
1001
0000
0000
0000
0100
0010
0000
0000
0100
,  // measure 23
0000
0000
0000
0000
0010
0000
0000
0000
1000
0000
0000
0001
0000
0000
0000
0000
,  // measure 24
2000
0000
0000
3000
,  // measure 25
0002
0000
0000
0003
,  // measure 26
0200
0300
0020
0030
,  // measure 27
2002
3003
0220
0330
,  // measure 28
0001
1000
0010
0100
,  // measure 29
0010
1000
0001
0100
,  // measure 30
0010
1000
0100
0010
,  // measure 31
0001
1000
0010
0100
,  // measure 32
0001
1000
0010
0100
,  // measure 33
0001
0000
0000
1000
0100
0000
0000
0000
0010
0000
0000
0000
0100
0000
0000
0000
,  // measure 34
0010
0001
1000
0010
,  // measure 35
1000
0000
0000
0001
0100
0000
0000
0000
0010
0000
0000
0000
0100
0000
0000
0000
,  // measure 36
1001
0000
0000
0000
0110
0000
0000
0000
1000
0000
0000
0100
0001
0000
0000
0100
,  // measure 37
1000
0001
1000
0001
,  // measure 38
2002
0000
0000
3003
,  // measure 39
0001
0000
1000
0000
0000
0010
0000
0000
0100
0000
0001
0000
0000
1000
0000
0000
,  // measure 40
0000
0011
0000
1100
,  // measure 41
0000
0000
0000
0000
0011
0000
0000
0000
0000
0000
0000
0000
1100
0000
0000
0010
,  // measure 42
0000
0000
0000
0100
0000
0000
0000
0010
0000
0000
0000
1000
0001
0000
0000
0100
,  // measure 43
0000
0000
0010
0000
1000
0001
0000
0000
,  // measure 44
0000
1010
0000
0101
,  // measure 45
0000
0000
0000
0000
1010
0000
0000
0000
0000
0000
0000
0000
0101
0000
0000
0010
,  // measure 46
0000
0000
0000
0100
0000
0000
0000
0010
0000
0000
0000
0001
1000
0000
0000
0100
,  // measure 47
0000
0000
0010
0000
0001
1000
0000
0000
,  // measure 48
0010
0000
0000
0010
0000
0000
0000
0000
0001
0000
0000
0010
0000
0000
0000
0000
,  // measure 49
1000
0000
0000
0010
0000
0000
0000
0000
0100
0000
0000
0010
0000
0000
0000
0000
,  // measure 50
0100
0000
0000
0100
0000
0000
0000
0000
1000
0000
0000
0100
0000
0000
0000
0000
,  // measure 51
0001
0000
0000
0100
0000
0000
0000
0000
0010
0000
0000
0100
0000
0000
0000
0000
,  // measure 52
0010
0000
0000
0000
1000
0000
0000
0000
0010
0000
0000
1000
0100
0000
0000
0000
,  // measure 53
0001
0000
0000
0000
0010
0000
0000
0000
0001
0000
0000
0010
0001
0000
0000
0000
,  // measure 54
0100
0000
0000
0000
1000
0000
0000
0000
0100
0000
0000
1000
0010
0000
0000
0000
,  // measure 55
0001
0000
0000
0000
0100
0000
0000
0000
0001
0000
0000
0100
1000
0000
0000
0000
,  // measure 56
0001
0000
0000
0000
0001
0000
0000
0000
0001
0000
0000
1000
0001
0000
0000
0000
,  // measure 57
1000
0000
0000
0000
1000
0000
0000
0000
1000
0000
0000
0001
1000
0000
0000
0000
,  // measure 58
1001
1001
0110
0110
,  // measure 59
1000
0000
0000
0001
0010
0000
0000
0000
0100
0000
0000
0010
0100
0000
0000
0000
,  // measure 60
0001
0000
0000
0100
1000
0000
0000
0000
0001
0000
0000
1000
0100
0000
0000
0000
,  // measure 61
0010
0000
0000
0001
0100
0000
0000
0000
0010
0000
0000
1000
0100
0000
0000
0000
,  // measure 62
1000
0000
0000
0001
0100
0000
0000
0000
0001
0000
0000
1000
0100
0000
0000
0000
,  // measure 63
1001
1001
0110
0110
,  // measure 64
1010
0101
0011
1100
,  // measure 65
0001
0000
0000
1000
0001
0000
0000
0000
1000
0000
0000
0001
1000
0000
0000
0000
,  // measure 66
0010
0000
0000
0100
0010
0000
0000
0000
0100
0000
0000
0010
0100
0000
0000
0000
,  // measure 67
1001
0110
1001
0110
,  // measure 68
1000
0000
0000
0001
0000
0000
0000
0100
0001
0000
0000
0010
0100
0000
0000
1000
,  // measure 69
0001
0100
0000
1001
0000
0110
0000
1001
;

//---------------dance-double - ----------------
#NOTES:
     dance-double:
     :
     Easy:
     3:
     0.288,0.387,0.404,0.000,0.000,144.000,36.000,0.000,0.000,0.000:  // measure 1
00000000
00000000
00000000
00000000
,  // measure 2
00000000
00000000
00000000
00000000
,  // measure 3
00000000
00000000
00000000
00000000
,  // measure 4
00000000
00001000
00000000
00010000
,  // measure 5
00000000
00001000
00000000
00010000
,  // measure 6
00000000
00001000
00000000
00010000
,  // measure 7
00011000
00000000
00000000
00000000
,  // measure 8
00000000
00000010
00000000
00000010
,  // measure 9
00000000
00000001
00000000
00000001
,  // measure 10
00000000
00000100
00000000
00000100
,  // measure 11
00000000
00001000
00000000
00001000
,  // measure 12
00000000
00010000
00000000
00010000
,  // measure 13
00000000
01000000
00000000
01000000
,  // measure 14
00000000
10000000
00000000
10000000
,  // measure 15
00000000
00100000
00000000
00100000
,  // measure 16
00000000
10010000
00000000
01100000
,  // measure 17
00000000
10010000
00000000
01100000
,  // measure 18
00000000
01000000
00000000
00010000
,  // measure 19
00000000
00001000
00000000
00000100
,  // measure 20
00000000
00001001
00000000
00000110
,  // measure 21
00000000
00001001
00000000
00000110
,  // measure 22
00000000
00000010
00000000
00001000
,  // measure 23
00000000
00010000
00000000
00100000
,  // measure 24
10010000
00000000
00000000
00000000
,  // measure 25
00011000
00000000
00000000
00000000
,  // measure 26
00001001
00000000
00000000
00000000
,  // measure 27
00011000
00000000
00000000
00000000
,  // measure 28
00100000
00000000
00010000
00000000
,  // measure 29
10000000
00000000
01000000
00000000
,  // measure 30
00010000
00000000
00001000
00000000
,  // measure 31
00000100
00000000
00000001
00000000
,  // measure 32
00001000
00000010
00000100
00000001
,  // measure 33
00000100
00000000
00001000
00000000
,  // measure 34
00010000
01000000
10000000
00100000
,  // measure 35
01000000
00000000
10010000
00000000
,  // measure 36
01100000
00000000
10010000
00000000
,  // measure 37
00011000
00000000
00001001
00000000
,  // measure 38
00000110
00000000
00001001
00000000
,  // measure 39
00011000
00000000
00000000
00000000
,  // measure 40
00100000
00001000
00100000
00001000
,  // measure 41
00010000
00000010
00010000
00000010
,  // measure 42
00000000
00000000
00000000
00000000
,  // measure 43
00000000
00000000
00000000
00000000
,  // measure 44
00000100
00010000
00000100
00010000
,  // measure 45
00001000
01000000
00001000
01000000
,  // measure 46
00000000
00000000
00000000
00000000
,  // measure 47
00000000
00000000
00000000
00000000
,  // measure 48
10010000
00000000
01100000
00000000
,  // measure 49
01000000
00010000
00001000
00000000
,  // measure 50
00001001
00000000
00000110
00000000
,  // measure 51
00000100
00001000
00010000
00000000
,  // measure 52
10010000
00000000
00011000
00000000
,  // measure 53
00001001
00000000
00011000
00000000
,  // measure 54
00100000
10000000
01000000
00010000
,  // measure 55
00001000
00000100
00000001
00000000
,  // measure 56
00001001
00000000
00011000
00000000
,  // measure 57
10010000
00000000
00011000
00000000
,  // measure 58
00000010
00001000
00000100
00010000
,  // measure 59
00001000
00000000
00010000
00000000
,  // measure 60
00001000
00100000
00010000
00000000
,  // measure 61
10000000
00000000
01000000
00000000
,  // measure 62
00010000
00001000
00000100
00000000
,  // measure 63
00000001
00000000
00001000
00000000
,  // measure 64
00000010
00001000
00000100
00000000
,  // measure 65
00010000
00000000
00001000
00000000
,  // measure 66
00100000
00010000
01000000
00000000
,  // measure 67
00100000
00010000
00001000
00000000
,  // measure 68
00000010
00001000
00010000
00000000
,  // measure 69
00010100
00000000
01001000
00000000
,  // measure 70
00011000
00000000
00000000
00000000
;

//---------------dance-double - ----------------
#NOTES:
     dance-double:
     :
     Medium:
     5:
     0.404,0.386,0.370,0.000,0.000,219.000,33.000,0.000,0.000,0.000:  // measure 1
00000000
00000000
00000000
00000000
,  // measure 2
00000000
00000000
00000000
00000000
,  // measure 3
00000000
00000000
00000000
00000000
,  // measure 4
00000000
10000000
00000000
00010000
,  // measure 5
00000000
00001000
00000000
00000001
,  // measure 6
00000000
00000100
00000000
00001000
,  // measure 7
00010000
01000000
10000000
00100000
,  // measure 8
10000000
00010000
01000000
00000000
,  // measure 9
00100000
00010000
00001000
00000000
,  // measure 10
00000010
00000100
00001000
00000001
,  // measure 11
00000100
00001000
00010000
01000000
,  // measure 12
10000000
00010000
01000000
00000000
,  // measure 13
00100000
00010000
00001000
00000000
,  // measure 14
00000010
00000100
00001000
00000001
,  // measure 15
00000100
00001000
00010000
00001000
,  // measure 16
00000000
00101000
00000000
01010000
,  // measure 17
00000000
00101000
00000000
01010000
,  // measure 18
00100000
10000000
01000000
00010000
,  // measure 19
01000000
10000000
00100000
00010000
,  // measure 20
00000000
00010010
00000000
00001100
,  // measure 21
00000000
00010010
00000000
00001100
,  // measure 22
00000010
00000001
00000100
00001000
,  // measure 23
00000100
00000001
00000010
00001000
,  // measure 24
00010000
00001000
00100000
00000000
,  // measure 25
00001000
00010000
00000010
00000000
,  // measure 26
00010000
00001000
00100000
00010000
,  // measure 27
10000000
01000000
10010000
00000000
,  // measure 28
01000000
00001000
00010000
00000000
,  // measure 29
00000100
00010000
00001000
00000000
,  // measure 30
00010000
00000100
00001000
00000010
,  // measure 31
00000100
00000000
00000001
00000000
00000000
00001000
00000001
00000000
,  // measure 32
00000010
00000001
00001000
00000100
,  // measure 33
00010000
00001000
01000000
00010000
,  // measure 34
10000000
00100000
01000000
00001000
,  // measure 35
00010000
00000100
00001000
00000001
,  // measure 36
00000110
00000000
00011000
00000000
,  // measure 37
01100000
00000000
00011000
00000000
,  // measure 38
00100000
00010000
10000000
01000000
,  // measure 39
00011000
00000000
00000000
00000000
,  // measure 40
00000000
00001001
00000000
00001010
,  // measure 41
00000000
00010100
00000000
00001010
,  // measure 42
00000100
00000001
00000010
00001000
,  // measure 43
00010000
01000000
10000000
00100000
,  // measure 44
00000000
10010000
00000000
00110000
,  // measure 45
00000000
01001000
00000000
00110000
,  // measure 46
01000000
10000000
00100000
00010000
,  // measure 47
00001000
00000100
00000001
00000010
,  // measure 48
00001001
00000000
00000110
00000000
,  // measure 49
00000001
00000100
00001000
00000000
00011000
00000000
00000000
00000000
,  // measure 50
10010000
00000000
01100000
00000000
,  // measure 51
10000000
01000000
00010000
00000000
00011000
00000000
00000000
00000000
,  // measure 52
00000010
00001000
00000001
00000100
,  // measure 53
00001000
00010000
01000000
00100000
,  // measure 54
00010000
10000000
01000000
00010000
,  // measure 55
00001000
00000100
00000010
00001000
,  // measure 56
00000000
00000101
00000000
00010010
,  // measure 57
00000000
00101000
00000000
11000000
,  // measure 58
00100000
00010000
00001000
00000010
,  // measure 59
00000001
00000001
00001000
00001000
,  // measure 60
00000001
00000100
00001000
00000000
00010000
00000000
01000000
00000000
,  // measure 61
10000000
10000000
00010000
00010000
,  // measure 62
10000000
01000000
00010000
00000000
00001000
00000000
00000100
00000000
,  // measure 63
00000001
00000010
00000100
00001000
,  // measure 64
00000001
00000010
00001000
00010000
,  // measure 65
00100000
10000000
00010000
00100000
,  // measure 66
01000000
10000000
01000000
00010000
,  // measure 67
00001000
00001000
00011000
00000000
,  // measure 68
00010000
00010000
00010000
00000000
,  // measure 69
00000010
00001000
00000000
00000001
00000000
00001000
00000000
00010000
;

//---------------dance-double - ----------------
#NOTES:
     dance-double:
     :
     Hard:
     8:
     0.521,0.657,0.269,0.067,0.449,295.000,24.000,6.000,0.000,0.000:  // measure 1
00000000
00000000
00000000
00000000
,  // measure 2
00000000
00000000
00000000
00000000
,  // measure 3
00000000
00000000
00000000
00000000
,  // measure 4
00000000
10000000
00000000
00010000
,  // measure 5
00000000
00001000
00000000
00000001
,  // measure 6
00000000
00000010
00000000
00000100
,  // measure 7
00000001
00000000
00000000
00000100
00000000
00000000
00001000
00000000
00010000
00000000
00000000
01000000
00000000
00000000
10000000
00000000
,  // measure 8
00010000
00000000
00000000
10000000
00010000
00000000
00000000
10000000
00010000
00000000
00000000
00000000
01000000
00000000
00000000
00000000
,  // measure 9
00001000
00000000
00000000
00100000
00001000
00000000
00000000
00100000
00001000
00000000
00000000
00000000
00010000
00000000
00000000
00000000
,  // measure 10
00000010
00000000
00000000
00000100
00000010
00000000
00000000
00000100
00000010
00000000
00000000
00000000
00001000
00000000
00000000
00000000
,  // measure 11
00000001
00000000
00000000
00001000
00000001
00000000
00000000
00000000
00000100
00000000
00000000
00000000
00000010
00000000
00000000
00000000
,  // measure 12
00001000
00000000
00000000
00000001
00001000
00000000
00000000
00000001
00001000
00000000
00000000
00000000
00000100
00000000
00000000
00000000
,  // measure 13
00010000
00000000
00000000
00000010
00010000
00000000
00000000
00000010
00010000
00000000
00000000
00000000
00001000
00000000
00000000
00000000
,  // measure 14
00100000
00000000
00000000
01000000
00100000
00000000
00000000
01000000
00100000
00000000
00000000
00000000
00010000
00000000
00000000
00000000
,  // measure 15
10000000
00000000
00000000
00010000
10000000
00000000
00000000
00000000
00100000
00000000
00000000
00000000
01000000
00000000
00000000
00001000
,  // measure 16
00000000
00000000
00000000
00000000
00010000
00000000
00000000
00000000
00000010
00000000
00000000
00010000
00000000
00000000
00000000
00001000
,  // measure 17
00000000
00000000
00000000
00000000
00010000
00000000
00000000
00000000
00000010
00000000
00000000
00010000
00000000
00000000
00000000
00000010
,  // measure 18
00000000
00000000
00000000
00000100
00000000
00000000
00000000
00001001
00000000
00000000
00000000
00000000
00000000
00000000
00000000
00001000
,  // measure 19
00000000
00000000
00000000
00000001
00000000
00000000
00000000
00000010
00000000
00000000
00000000
00000100
00000000
00000000
00000000
00010000
,  // measure 20
00000000
00000000
00000000
00000000
00001000
00000000
00000000
00000000
00100000
00000000
00000000
00001000
00000000
00000000
00000000
00010000
,  // measure 21
00000000
00000000
00000000
00000000
00001000
00000000
00000000
00000000
00100000
00000000
00000000
00001000
00000000
00000000
00000000
00100000
,  // measure 22
00000000
00000000
00000000
01000000
00000000
00000000
00000000
10010000
00000000
00000000
00000000
00100000
01000000
00000000
00000000
00010000
,  // measure 23
00000000
00000000
00000000
00000000
10000000
00000000
00000000
00000000
01000000
00000000
00000000
00100000
00000000
00000000
00000000
00000000
,  // measure 24
20000000
00010000
00010000
30010000
,  // measure 25
00020000
00001000
00001000
00031000
,  // measure 26
00002000
00000001
00000001
00003001
,  // measure 27
00000001
00001000
00000010
00000100
,  // measure 28
00000002
00001000
00001000
00001003
,  // measure 29
00002000
00010000
00010000
00013000
,  // measure 30
00020000
10000000
10000000
10030000
,  // measure 31
10000000
00000000
00000000
00000000
00010000
00000000
00000000
00000000
00000000
00000000
00000000
00100000
01000000
00000000
00000000
00000000
,  // measure 32
01000000
10000000
00010000
01000000
,  // measure 33
00001000
00010000
00000100
00001000
,  // measure 34
00000001
00000100
00000010
00001000
,  // measure 35
00000100
00001000
00000010
00000101
,  // measure 36
00000100
00000001
00001000
00000100
,  // measure 37
00010000
00001000
01000000
00010000
,  // measure 38
10000000
01000000
00010000
00001000
,  // measure 39
00000100
00000000
00001000
00000000
00000000
00010000
00000000
00000000
01000000
00000000
00000000
00010000
00000000
00001000
00000000
00010000
,  // measure 40
00000000
00000000
00000000
00000000
00000100
00000000
00000000
00000000
00010000
00000000
00000000
00001000
00000000
00000000
00000000
00010000
,  // measure 41
00000000
00000000
00000000
00000000
00000100
00000000
00000000
00000000
00010000
00000000
00000000
00001000
00000000
00000000
00000000
00000100
,  // measure 42
00000000
00000000
00000000
00000001
00000000
00000000
00000000
00001000
00000000
00000000
00000000
00000000
00000100
00000000
00000000
00000010
,  // measure 43
00000000
00000000
00000000
00000000
00001000
00000000
00000000
00000000
00010000
00000000
00000000
00011000
00000000
00000000
00000000
00001000
,  // measure 44
00000000
00000000
00000000
00000000
01000000
00000000
00000000
00000000
00001000
00000000
00000000
00010000
00000000
00000000
00000000
00001000
,  // measure 45
00000000
00000000
00000000
00000000
01000000
00000000
00000000
00000000
00001000
00000000
00000000
00010000
00000000
00000000
00000000
01000000
,  // measure 46
00000000
00000000
00000000
10000000
00000000
00000000
00000000
00010000
00000000
00000000
00000000
00000000
00100000
00000000
00000000
01000000
,  // measure 47
00000000
00010000
00001000
00011000
,  // measure 48
00000010
00000000
00000000
00001000
00000000
00000000
00000000
00000000
00000010
00000000
00000000
00001000
00000000
00000000
00000000
00000000
,  // measure 49
00000010
00000000
00000000
00000100
00001000
00000000
00000000
00010000
00001000
00000000
00000000
00000000
00011000
00000000
00000000
00000000
,  // measure 50
00100000
00000000
00000000
00010000
00000000
00000000
00000000
00000000
00100000
00000000
00000000
00010000
00000000
00000000
00000000
00000000
,  // measure 51
00100000
00000000
00000000
01000000
00010000
00000000
00000000
00001000
00010000
00000000
00000000
00000000
00011000
00000000
00000000
00000000
,  // measure 52
00000010
00000100
00000001
00001000
,  // measure 53
00000010
00000000
00000000
00000000
00000100
00000000
00000000
00000000
00000001
00000000
00000000
00000100
00001000
00000000
00000000
00010000
,  // measure 54
01000000
00100000
00010000
10000000
,  // measure 55
00100000
00000000
00000000
00000000
01000000
00000000
00000000
00000000
00100000
00000000
00000000
00010000
00001000
00000000
00000000
00000010
,  // measure 56
00000001
00001000
00000001
00001000
,  // measure 57
00000100
00010000
00000100
00010000
,  // measure 58
00001000
01000000
00010000
10000000
,  // measure 59
00100000
00000000
00000000
10000000
01000000
00000000
00000000
00000000
00100000
00000000
00000000
00001000
00010000
00000000
00000000
00000000
,  // measure 60
00000010
00000000
00000000
00001000
00000001
00000000
00000000
00000000
00000100
00000000
00000000
00000010
00001000
00000000
00000000
00000000
,  // measure 61
00000101
00000110
00001010
00001100
,  // measure 62
00010100
00001100
00001010
00000110
,  // measure 63
00000010
00000000
00000000
00000001
00000100
00000000
00000000
00000000
00000010
00000000
00000000
00010000
00001000
00000000
00000000
00000000
,  // measure 64
00100000
00000000
00000000
00010000
10000000
00000000
00000000
00000000
01000000
00000000
00000000
00100000
00010000
00000000
00000000
00000000
,  // measure 65
11000000
01100000
00110000
01010000
,  // measure 66
01001000
01010000
00110000
01100000
,  // measure 67
10000000
00000000
00000000
00000000
01000000
00000000
00000000
00000000
00010000
00000000
00000000
00001000
00000100
00000000
00000000
00000000
,  // measure 68
00000001
00000000
00000000
00000000
00000010
00000000
00000000
00000000
00001000
00000000
00000000
00010000
00100000
00000000
00000000
00000000
,  // measure 69
01000000
00001000
00000000
00010000
00000000
00000100
00000000
00011000
;
