#TITLE:Rave on the Bay of Bengal;
#SUBTITLE:;
#ARTIST:Drugs on Disc;
#TITLETRANSLIT:;
#SUBTITLETRANSLIT:;
#ARTISTTRANSLIT:;
#CREDIT:;
#BANNER:Rave.png;
#BACKGROUND:Rave- bg.png;
#LYRICSPATH:;
#CDTITLE:HS2logo.png;
#MUSIC:Rave on the Bay of Bengal.ogg;
#OFFSET:0.000;
#SAMPLESTART:41.379;
#SAMPLELENGTH:12.000;
#SELECTABLE:YES;
#BPMS:0.000=36.250,8.000=72.500,24.000=145.000,256.000=72.500;
#STOPS:;
#BGCHANGES:;
// cache tags:
#FIRSTBEAT:0.000;
#LASTBEAT:258.000;
#SONGFILENAME:Songs/StepMix 1.0/Rave on the Bay of Bengal/Rave on the Bay of Bengal.sm;
#HASMUSIC:1;
#HASBANNER:1;
#MUSICLENGTH:135.875;
// end cache tags

//---------------dance-single - ----------------
#NOTES:
     dance-single:
     :
     Hard:
     9:
     0.652,0.783,0.316,0.471,0.324,513.000,43.000,64.000,0.000,0.000:
2000
0000
0000
0000
3002
0000
0000
0003
,
1000
0001
1000
0100
2000
0000
0000
0000
0000
0000
0000
0000
3000
0000
0000
0000
0001
1000
0001
2000
0000
0000
0000
0000
0000
0000
0000
0000
3000
0000
0000
0000
,
1000
0000
0000
0000
0001
0000
1000
0000
0001
0000
0000
0000
1000
0000
0001
0000
0100
0000
0001
0000
0100
0000
0001
0000
0100
0000
0001
0100
0001
0100
0001
0000
,
0001
0000
0000
0000
1000
0000
0001
0000
1000
0000
0000
0000
0001
0000
1000
0000
0010
0000
1000
0000
0010
0000
1000
0000
0010
0000
1000
0010
1000
0010
1000
0000
,
0100
0000
0000
0000
0010
0000
0100
0000
0010
0000
0000
0000
0100
0000
0010
0000
0001
0000
0010
0000
0001
0000
0010
0000
0001
0000
0010
0001
0010
0001
0010
0000
,
0010
0000
0000
0000
0100
0000
0010
0000
0100
0000
0000
0000
0010
0000
0100
0000
1000
0000
0100
0000
1000
0000
0100
0000
1000
0000
0100
1000
0100
1000
0100
0000
,
2000
3002
0203
0320
,
2030
3002
0203
0320
,
2030
3002
0203
0320
0032
2003
3200
0320
,
0032
2003
3200
0320
0032
2003
3200
0320
,
2030
0001
0001
3001
0002
1000
1000
1003
,
0020
0100
0100
0130
0200
0010
0010
0310
,
0002
2003
3200
0320
,
0032
0000
2003
0000
3200
0000
0320
0030
,
0001
0100
1000
0010
0001
0100
1000
0010
,
0001
0100
1000
0010
0001
0100
1000
0000
,
1001
0001
0101
0000
1001
1000
1100
0000
,
0110
0100
0101
0000
0110
0100
1100
0000
,
0001
0100
1000
0100
0001
0100
1000
0100
,
0010
0001
0010
1000
0010
0001
0010
0000
,
0001
1000
0001
1000
0001
1000
0001
1000
0000
0000
0001
1000
0001
1000
0001
1000
,
0002
2000
0000
0000
0000
0000
3003
0000
1001
0000
0001
1000
0001
0000
0101
0000
,
0001
1000
0001
0100
0001
1000
0001
0100
,
0001
1000
0001
0100
0001
1000
0001
0100
,
1000
0001
1000
0010
1000
0001
1000
0010
,
1000
0001
1000
0010
1000
0001
1000
0010
,
0001
1000
0100
0010
0001
1000
0100
0010
,
0001
1000
0100
0010
0001
1000
0100
0010
,
1001
0001
0101
0000
1001
1000
1001
0000
,
0110
0100
0101
0000
0110
0100
1100
0000
,
0001
0100
1000
0010
0002
1000
1000
1003
,
1000
0100
0001
0010
2000
0001
0001
3001
,
0001
0000
1000
0000
0001
0000
1000
0000
0001
1000
0001
0000
1000
0001
1000
0000
,
0010
0000
0100
0000
0010
0000
0100
0000
0010
0100
0010
0000
0100
0010
0100
0000
,
0001
0100
1000
0100
0010
0001
0010
1000
,
0010
0100
1000
0010
0001
0100
1000
0000
,
0001
0100
1000
0010
0001
0100
1000
0000
,
0001
1000
0100
0000
1100
0000
1100
0000
0001
1000
0100
0000
0101
0000
0101
0000
,
2000
0000
3002
0000
0203
0000
0320
0030
,
1001
1000
1100
0000
1001
0001
0101
0000
,
0001
1000
0000
0001
1000
0000
1000
0000
0001
0000
0001
0000
0202
0000
0303
0000
,
1000
0001
0000
1000
0001
0000
0001
0000
1000
0000
2200
0000
0000
0000
3300
0000
,
1000
0000
0001
1000
0001
0000
0101
0000
0001
0000
0000
0000
1100
0000
0000
0000
,
0001
0000
1000
0001
1000
0000
1010
0000
1000
0000
0000
0000
0011
0000
0000
0000
,
1000
0001
0000
1000
0001
0000
0001
0000
1000
0000
1000
0000
2020
0000
3030
0000
,
0001
1000
0000
0001
1000
0000
1000
0000
0001
0000
0022
0000
0000
0000
0033
0000
,
1000
0001
1000
0001
1000
0000
0001
1000
0001
1000
0001
0000
1000
0001
1000
0000
,
0001
1000
0001
1000
0001
0000
0001
0000
0100
0000
1000
0000
0010
0000
0001
0000
,
1000
0001
1000
0001
1000
0000
0001
1000
0001
1000
0001
0000
1000
0001
1000
0000
,
1001
1000
1100
0000
1001
0001
0101
0000
,
0001
0000
0100
0000
2000
0000
3000
0000
0001
0000
1000
0001
1000
0000
0000
0000
,
1000
0000
0010
0000
0002
0000
0003
0000
1000
0000
0001
1000
0001
0000
0000
0000
,
0001
1000
0000
0001
1000
0000
0001
1000
0000
0001
0000
0101
0000
0101
0000
0000
,
0001
1000
0000
0001
1000
0000
0001
1000
0000
0001
1000
0000
0000
0000
0000
0000
,
0001
0100
1000
0100
0001
0100
1000
0010
,
0001
0100
1000
0010
1000
0010
0001
1000
,
0100
0010
0001
1000
0100
0010
0100
0010
,
0001
0100
1000
0100
0001
0100
0001
0100
,
1000
0100
1000
0100
0001
0100
1000
0100
,
1000
0001
0100
0001
0100
1000
0100
1000
,
0100
0001
0100
0001
0100
1000
0100
1000
,
0100
0001
0100
0001
1000
0100
0100
0100
,
2002
0000
0000
0000
0003
0000
0001
0000
3001
0000
0000
0000
0001
1000
0001
0000
,
2002
0000
0000
3003
,
2200
0000
3300
0000
;

//---------------dance-single - ----------------
#NOTES:
     dance-single:
     :
     Beginner:
     2:
     0.127,0.165,0.066,0.000,0.000,112.000,9.000,0.000,0.000,0.000:
1000
0000
0000
0010
,
0000
0100
0000
0001
,
0001
0000
0001
0000
,
0001
0000
0001
0000
,
0001
0000
0001
0000
,
1000
0000
0010
0000
,
0100
0100
0100
0000
,
0001
0000
1000
0000
,
0100
0100
0100
0000
,
0001
0000
1000
0000
,
0010
0000
0000
0000
,
0100
0000
0000
0000
,
0001
0000
0000
0000
,
1000
0000
0000
0010
,
0100
0000
0100
0000
,
0100
0000
0001
0000
,
1000
0000
1000
0000
,
1000
0000
0010
0000
,
0100
0000
0100
0000
,
0100
0000
0010
0000
,
0001
0000
0000
0000
,
1000
0000
0000
0000
,
0101
0000
0000
0000
,
1010
0000
0000
0010
,
0101
0000
0000
0000
,
1010
0000
0000
0010
,
0101
0000
0000
0000
,
1010
0000
0000
0000
,
0001
0000
0100
0000
,
1000
0000
0010
0000
,
1000
1000
0000
0000
,
0000
0001
0000
0000
,
1000
1000
0000
0000
,
0001
0000
0000
0010
,
0100
0000
0001
0000
,
1000
1000
1000
0000
,
0010
0000
0100
0000
,
0001
0001
0001
0000
,
1001
0000
0000
0000
,
0010
0000
0000
0000
,
0100
0000
0000
0001
,
1000
0000
0000
0001
,
0100
0000
0000
0010
,
0100
0000
0000
0010
,
1000
0000
0000
0001
,
0001
0000
0000
0000
,
1001
0000
0010
0000
,
0010
0000
0010
0000
,
1000
0000
0010
0000
,
0001
0000
0100
0000
,
0001
0000
0100
0000
,
0010
0000
1000
0000
,
0100
0000
1000
0000
,
0010
0000
0100
0000
,
1001
0000
0000
0000
,
0001
0000
0000
0000
,
1000
0000
0000
0000
,
0010
0000
0000
0000
,
0001
0000
0000
0000
,
1000
0000
0000
0000
,
0100
0000
0000
0000
,
0010
0000
0000
0000
,
0001
0000
1000
0000
,
0001
0000
0000
1000
,
0001
0000
0000
0000
;

//---------------dance-single - ----------------
#NOTES:
     dance-single:
     :
     Easy:
     6:
     0.267,0.403,0.191,0.088,0.000,216.000,26.000,12.000,0.000,0.000:
1000
0000
0000
0000
0020
0000
0000
0130
,
0000
0000
0000
0000
0002
0000
0000
1003
,
0010
0010
0010
0010
,
0010
0010
0010
0010
,
1001
1001
1001
1001
,
0101
0101
0101
1010
,
0001
1000
0010
0100
,
0001
1000
0010
0100
,
0001
1000
0010
0100
,
0010
0010
0110
0000
,
0010
1000
0100
0001
,
0010
0100
1000
0010
,
0100
0001
1000
0100
,
0010
0000
0001
0010
0001
0000
0000
0000
,
1000
0010
1000
0010
,
1000
0010
1000
0010
,
0100
0001
0100
0001
,
0100
0001
0100
0001
,
1001
0110
0000
0001
,
1001
0110
0000
1000
,
1001
0110
0000
0010
,
1000
0100
0000
1000
,
0001
0010
0001
0000
0000
0000
0000
0000
,
1000
1000
0000
0000
0010
0010
0000
0000
,
1001
0000
0000
0000
,
0010
0010
0000
0000
0100
0100
0000
0000
,
0001
0000
1000
0000
,
0010
0010
0010
0000
,
1000
0100
0001
0010
,
0110
1001
0110
0000
,
0001
0100
1000
0000
0000
0000
0000
0000
,
0010
0000
0000
0000
,
0001
0100
1000
0000
0000
0000
0000
0000
,
0010
0000
0010
0000
,
0001
0100
1000
0000
0000
0000
0000
0000
,
0010
0010
0010
0000
,
0001
0100
1000
0000
0001
0100
1000
0000
,
0010
0010
0110
0000
,
0001
0100
0001
0000
0000
0000
0000
0000
,
1000
0000
0010
0000
,
0100
0000
0001
0000
,
0000
1000
0000
0010
0000
0100
0000
0000
,
0001
0000
1000
0000
,
0010
0000
0100
0000
,
0000
0001
0000
0000
0000
1000
0000
0000
,
0010
0000
0000
0100
0000
0000
0000
0000
,
0001
0001
0001
0001
,
1001
1100
1010
0000
,
0001
0100
0010
1000
,
0001
0010
0001
0010
0001
0000
0000
0000
,
1000
0100
1000
0010
,
0100
0001
0010
0000
,
0100
1000
0010
0100
,
0000
1001
0000
1001
0000
0010
0010
0000
,
1000
0100
1000
0100
,
1000
0000
0010
0000
,
0100
0001
0100
0001
,
0010
0010
0000
0000
0100
0100
0000
0000
,
1000
0010
0001
0100
,
1000
0010
0001
0100
,
1000
0010
0001
0100
,
1000
1000
1000
0000
,
2000
3020
0230
0302
,
2003
3200
0320
0032
,
0013
0220
0000
0330
0000
0000
0000
0000
;

//---------------dance-single - ----------------
#NOTES:
     dance-single:
     :
     Medium:
     8:
     0.456,0.638,0.236,0.464,0.132,339.000,32.000,63.000,6.000,0.000:
0020
0000
0000
0000
0230
0000
0000
0300
,
0001
0100
0001
0100
0001
0000
0000
0000
0000
0000
0000
0000
0000
0000
0000
0000
0100
0010
0100
0010
0100
0000
0000
0000
0000
0000
0000
0000
0000
0000
0000
0000
,
0001
0000
0000
0000
0001
0000
1000
0000
0001
0000
1000
0000
0001
1000
0001
0000
,
1000
0000
0000
0000
1000
0000
0001
0000
1000
0000
0001
0000
0010
0010
0100
0000
,
1000
0000
0000
0000
0100
0000
0000
0000
0010
0001
0010
0001
1000
0001
1000
0000
,
0010
0000
0000
0000
0100
0000
0000
0000
0002
0000
2000
0003
0002
3000
0103
0000
,
0010
1010
0010
1010
,
0010
0000
1010
0000
0010
1000
0100
0000
,
0100
0110
0100
0110
,
0100
0000
0110
0000
0010
0001
1000
0000
,
0001
1001
1000
1001
,
0001
0000
1001
0000
1001
0001
1000
0000
,
0010
0100
0001
1000
,
0010
0100
0001
1000
0100
1000
0010
0000
,
0002
0100
1000
0010
,
0100
0000
1000
0000
0100
0100
0103
0000
,
2000
0010
0100
0001
,
0010
0000
0100
0000
0001
0001
3001
0000
,
1000
0100
1000
0000
0001
0100
0001
0000
,
1000
0010
1000
0000
0001
0010
0001
0000
,
2000
3100
0002
0023
,
1000
0000
0000
0000
0001
0000
0030
0000
1001
0000
0001
1000
0001
0000
1000
0000
,
0002
0103
0002
1003
,
0002
0000
0013
0000
0001
0010
0001
0000
,
2000
3100
2000
3001
,
2000
0000
3010
0000
1000
0010
1000
0000
,
0001
0010
0001
0000
1000
0100
0001
0000
,
1000
0010
0001
0000
0001
0100
0010
0000
,
1001
1000
0100
0010
,
0002
0000
0103
0000
,
2000
3020
0230
0302
2003
3200
0320
0032
,
2003
3020
0230
0302
2003
0000
0000
0000
,
3200
0320
0032
0023
0230
2300
3020
0230
,
0302
2003
3020
0230
0302
0000
0000
0000
,
1003
1000
1000
0000
0001
0001
0001
0000
,
2001
3020
0230
0300
,
0001
1000
0001
0000
1010
0000
1100
0000
,
0002
2003
3010
0000
,
0010
0000
0000
0010
0100
0000
0000
0100
0001
0000
0000
0001
1000
0000
0000
1000
,
0010
0000
0000
0010
0100
0000
0000
0100
0001
0000
0000
0000
0000
0000
0000
0000
,
1000
0000
0000
1000
0001
0000
0000
0001
1000
0000
0000
1000
0010
0000
0000
0010
,
0100
0000
0000
0100
0001
0000
0000
0001
1000
0000
0000
0000
0000
0000
0000
0000
,
0010
0000
0000
0010
0100
0000
0000
0100
0001
0000
0000
0001
1000
0000
0000
1000
,
0001
0000
0000
0001
1000
0000
0000
1000
0001
0000
0000
0000
0000
0000
0000
0000
,
0100
0000
0000
0100
0001
0000
0000
0001
1000
0000
0000
1000
0001
0000
0000
0001
,
1000
0000
0000
1000
0010
0000
0000
0010
0100
0000
0001
0000
0101
0000
0000
0000
,
1020
0100
0100
0130
,
0102
0010
0010
0013
,
2001
0001
0001
3001
,
0220
0330
2020
3030
,
0012
1000
1000
1003
,
1200
0001
0001
0301
,
0120
0100
0100
0130
,
0001
1000
2002
3003
,
0001
1000
0001
0000
1000
0000
1000
0000
,
0001
0010
0001
0000
2000
0000
3000
0000
,
0010
0100
0001
1000
0010
0100
1000
0000
,
0001
0010
0001
1000
0010
0100
0001
0000
,
1000
0001
1000
0000
0001
0000
0001
0000
,
1000
0100
1000
0000
0002
0000
0003
0000
,
0100
0010
1000
0001
0100
0010
0001
0000
,
1000
0100
1000
0001
0100
0010
1000
0010
,
0110
0110
0110
0110
,
0MM0
0110
MMMM
1001
,
0210
0301
0000
0000
;
