#TITLE:Street Sweeper;
#SUBTITLE:;
#ARTIST:Digitaliz;
#TITLETRANSLIT:;
#SUBTITLETRANSLIT:;
#ARTISTTRANSLIT:;
#CREDIT:;
#BANNER:Street Sweeper.png;
#BACKGROUND:Street Sweeper-bg.png;
#LYRICSPATH:;
#CDTITLE:HS2logo.png;
#MUSIC:Street Sweeper.ogg;
#OFFSET:0.000;
#SAMPLESTART:44.404;
#SAMPLELENGTH:12.000;
#SELECTABLE:YES;
#BPMS:0.000=135.000;
#STOPS:;
#BGCHANGES:;
// cache tags:
#FIRSTBEAT:6.000;
#LASTBEAT:326.500;
#SONGFILENAME:Songs/StepMix 1.0/Street Sweeper/Street Sweeper.sm;
#HASMUSIC:1;
#HASBANNER:1;
#MUSICLENGTH:146.750;
// end cache tags

//---------------dance-single - Copied from----------------
#NOTES:
     dance-single:
     Copied from:
     Challenge:
     11:
     0.764,0.723,0.579,0.886,0.382,570.000,85.000,130.000,0.000,0.000:
0000
0000
0000
0000
,
0000
0000
0000
0000
0000
0000
0000
0000
1000
0000
0000
1000
0000
0000
1000
0000
,
1000
0000
0000
0000
2002
0000
0000
0000
3003
0000
0100
0000
1000
0000
0000
0110
,
0000
0000
0000
0000
1000
0000
0010
0000
1001
0000
0000
0001
1000
0000
0001
0000
,
1000
0000
0110
0000
0000
1001
0000
0000
1100
0000
0000
1002
0000
0000
0100
0000
,
1003
0000
0000
0000
0001
0000
0000
0000
1000
0000
0000
1000
0100
0000
1000
0000
,
0010
0000
1001
0000
0000
1100
0000
0000
1001
0000
0000
0110
0000
0000
2002
0000
,
0000
3000
0103
0000
1001
0000
0000
0000
1000
0000
0000
0010
1000
0000
0100
0000
,
1000
0000
0110
0000
0000
1100
0000
0000
0101
0000
0000
1001
0000
0000
2002
0000
,
3000
0000
0103
0000
1000
0000
0000
0000
1000
0000
0001
0000
1000
0000
1000
0001
,
1000
0000
1001
0000
0000
0110
0000
0000
1010
0000
0000
0011
0000
0000
2001
0000
,
0000
0000
3010
0000
0100
0010
1000
0000
0001
0100
1000
0000
1100
0000
0010
0000
,
0100
0000
1000
0000
2010
0000
0100
0000
3010
0000
0100
0000
1000
0000
0001
0100
,
2000
0000
0100
0000
0100
0000
0001
0000
0100
0000
0001
0000
0100
0000
3001
1000
,
0002
0000
1000
0000
1000
0000
1000
0000
1000
0000
0100
0000
1000
0000
1003
0001
,
2000
0000
0000
0000
3010
0001
1000
0000
0010
0000
1000
0000
0010
0000
2000
0000
,
0001
0000
0100
0000
0100
0000
0200
0000
0000
0300
0001
0000
0100
0000
0200
0000
,
0000
0000
0000
0300
0000
0000
0010
0000
0000
0000
0000
0000
0200
0000
0000
0000
0000
0000
3300
0000
0000
0000
0000
0000
1000
0000
0000
0000
0100
0000
0000
0000
0010
0000
0000
0000
0001
0000
0000
0000
0000
0000
0001
0000
0000
1000
0000
0000
,
0000
0000
1001
0000
0000
0110
0000
0000
1001
0000
0000
0110
0000
0000
2200
0300
,
0010
0000
0000
3001
0000
0000
1000
0000
0000
0000
0000
0000
0100
0000
0010
0000
0001
0000
1000
0000
0000
0100
0000
0000
,
2002
3003
1100
0020
0000
0130
0101
0010
,
0000
0000
0000
0000
0000
0000
1001
0000
0000
0000
0000
0000
0200
0000
0000
0000
0000
0000
0000
0000
0000
0300
0000
0000
1000
0000
0000
0000
0100
0000
0000
0000
0010
0000
0000
0000
0100
0000
0000
0000
0000
0000
1000
0000
0000
0010
0000
0000
,
0001
0000
0010
0001
0000
0010
0001
0000
0010
0001
0000
0010
0001
0000
0010
0001
,
1000
0010
0220
0000
0000
0030
1300
0010
,
1000
0000
0100
0000
0010
1000
0001
0000
1000
0000
0100
0000
0010
0000
0001
0000
,
1000
0100
0010
0000
0100
0000
0001
0000
1000
0000
0010
0000
0100
0000
0001
0000
,
1000
0010
1000
0000
0010
0000
0001
0000
1000
0000
0100
0000
0010
0000
0001
0000
,
0001
1000
0001
0000
0100
0000
0010
0000
1000
0000
0100
0000
0100
0000
0001
0000
,
1000
0100
1000
0000
0010
0000
0001
0000
1000
0000
0010
0000
0100
0000
0000
0000
,
0100
0001
0100
0010
0100
0000
0001
0000
1000
0000
0100
0000
0010
0000
0000
0000
,
1000
0100
1000
0010
1000
0000
0100
0000
1000
0000
0000
0000
0001
0100
0001
0010
,
0001
0001
0001
0100
0010
0000
0100
0010
,
2002
0000
3000
0000
0103
0000
0100
1000
0010
0000
2200
0000
0300
0000
3001
0010
,
0100
0000
1000
0000
1000
0000
0001
0000
0010
0000
2200
0000
0300
0000
3100
0010
,
0001
0000
0100
0000
1000
0000
2020
0000
0030
0000
3010
0100
1000
0000
0010
0000
,
0202
0000
0300
0000
0013
0100
0001
0000
1000
0000
0100
0010
0001
0010
0000
0000
,
0000
0000
2000
0000
0000
0000
3002
0000
1000
0003
0100
0001
0010
0000
0000
0000
,
0100
1000
0010
0000
0001
0000
1000
0000
2000
0000
0001
0000
3000
0000
0020
0000
,
0000
2030
0000
3002
0023
0000
0230
2000
,
0300
0000
0020
0030
3000
0020
0000
0000
2030
0000
0000
0000
0010
0000
3001
0000
,
0100
0000
0001
0000
1000
0100
0000
0100
0000
0000
0001
0000
1000
0100
0100
0000
,
0000
0000
1000
0000
0100
0001
0000
0001
0000
0000
1000
0000
1000
0100
0001
0000
,
0000
0000
0010
0000
1000
0100
0000
0100
0000
0000
0010
0000
1000
0100
0010
0000
,
0000
0000
1000
0000
0010
0100
0000
0100
0000
0000
1000
0000
0100
0010
0001
0000
,
0000
0000
0110
0000
0000
1001
0000
0000
0110
0000
0000
1100
0000
0000
0100
0000
,
2002
0000
0000
3003
0110
0000
0000
0000
1000
0000
1000
0100
1000
0100
1000
0100
,
0000
0000
1010
0000
0000
1100
0000
0000
1010
0000
0000
0011
0000
0000
2002
0000
,
0000
0000
3003
0000
0110
0000
0000
0000
1000
0000
1000
0100
1000
0100
1000
0100
,
0000
0000
0110
0000
0000
1001
0000
0000
1001
0000
0000
0110
0000
0000
2002
0000
,
0000
0000
0003
0000
3001
0000
0000
0000
0001
0000
0001
0010
0001
0010
0001
0010
,
0000
0100
1000
0100
0010
0001
0010
0100
,
1000
0001
1000
0001
1000
0000
0100
0000
1000
0000
0001
0000
1000
0000
0000
0000
,
2000
0000
0000
3000
0020
0000
0000
0030
2000
0000
0010
0000
3010
0000
1000
0001
,
1000
0000
0010
0000
0002
0000
0000
0003
0002
0000
2003
0000
3002
0000
0203
0000
,
0302
0000
0000
0003
2000
0000
3001
0000
0100
0000
1000
0001
0100
0000
0100
0000
,
2000
0000
0000
3000
0002
0000
2003
0000
3200
0000
0302
0000
2003
0000
3200
0000
,
0320
0000
0000
0000
0230
0000
0000
0000
1300
0000
0001
1000
0010
0000
0100
0000
,
0200
0000
0000
0300
0002
0000
0203
0000
0320
0000
0032
0000
0203
0000
0320
0030
,
2000
0000
3000
0000
2000
0000
3001
1000
0010
0000
0100
0000
1000
0000
0000
0000
,
0000
0100
2000
3000
2000
3200
0320
0032
,
0203
0000
0000
0300
0020
0000
0030
0000
1000
0100
1000
0000
1000
0100
0000
0000
,
0000
0000
2000
3000
0200
0000
0000
0300
0002
0000
2003
0000
3200
0000
0310
0000
,
0200
0000
0310
0000
0002
0000
0203
0000
0000
0300
0020
0030
0101
0000
0202
0000
,
0000
0000
0303
0000
1010
0000
0000
0000
1000
0001
1000
0000
0020
0000
0230
0000
,
2300
3200
2300
0002
3003
1010
2010
0001
,
3000
0000
0000
0000
1001
0000
0100
1000
0010
0100
0001
0000
0000
0000
0010
0000
,
1000
0001
0200
0010
0010
0300
0001
2000
,
0100
0000
0100
0000
3001
0000
0000
0000
0110
0000
0000
0000
0001
1000
0001
0000
,
0200
0000
0010
0000
0301
0000
0000
0000
0200
0000
0010
0000
0301
0000
1000
0001
,
0100
0010
1001
0000
0000
0002
0010
0100
,
1003
0020
1000
0100
1030
0002
1000
2000
,
3003
0000
0000
0000
0110
0000
0000
0000
0000
0000
1000
0001
1000
0001
1000
0001
,
1000
0002
0000
0000
1003
0000
0110
0000
0000
0000
0011
0000
1100
0000
0022
0000
,
0000
0033
1001
0000
0000
0020
0001
1030
,
0100
0200
0010
1300
0000
0002
0100
2000
,
3003
0000
0000
0000
1001
0000
0000
0000
1010
0000
0000
0000
1000
0100
0010
0100
,
1000
0000
0110
0000
0000
0110
0000
0000
0110
0000
0000
0110
0000
0000
0220
0000
,
0000
0000
0330
0000
2002
0000
0000
0000
3003
0000
0000
0000
0010
0100
1000
0100
,
0010
0000
1001
0000
0000
1001
0000
0000
1001
0000
0000
1001
0000
0000
2002
0000
,
0000
0000
3003
0000
0200
0000
0000
0000
0300
0000
0000
0000
0000
0000
0001
0100
,
1000
0100
1000
0000
0001
0000
2000
0000
0000
0000
3000
0000
0000
0000
0100
0010
,
0001
0010
0100
0000
0000
0000
2002
0000
0000
3003
0000
0000
0000
0000
0000
0000
;

//---------------dance-single - ----------------
#NOTES:
     dance-single:
     :
     Hard:
     8:
     0.473,0.584,0.211,0.395,0.269,397.000,31.000,58.000,16.000,0.000:
0000
0000
0000
0000
,
0000
0000
0000
0000
,
0001
0000
0000
0000
0010
0000
0000
0000
0000
0000
0010
0000
0001
0000
0000
1000
,
0000
0000
0000
0000
0010
0000
0000
0000
0100
0000
0000
0100
0001
0000
1000
0000
,
0010
0000
0100
0000
0000
0001
0000
0000
1000
0000
0001
1000
0000
0000
0020
0000
,
0000
0000
0000
0000
0130
0000
0000
0000
0000
0000
0000
0000
0001
0000
0001
1000
,
0100
0000
0010
0000
0000
1000
0000
0000
0001
0000
1000
0001
0000
0000
0200
0000
,
0000
0000
0000
0000
0310
0000
0000
0000
0000
0000
0000
0000
1000
0000
1000
0001
,
1000
0000
0001
0000
0000
0010
0000
0000
0100
0000
0010
0100
0000
0000
2000
0000
,
0000
0000
0000
0000
3001
0000
0000
0000
0000
0000
0000
0000
0010
0000
0010
0100
,
0001
0000
1000
0000
0000
0100
0000
0000
0010
0000
0100
0010
0000
0000
0002
0000
,
0000
0000
0000
0000
1003
0000
0000
0000
0000
0000
0000
0000
0100
0000
0100
0010
,
2000
0000
0000
0000
0020
0000
0000
3030
0000
0000
0000
0000
0000
0000
0100
0001
,
2000
0000
0000
0000
0020
0000
0000
3030
0000
0000
0000
0000
2020
0000
3030
0000
,
0002
0000
0000
0000
0200
0000
0000
0303
0000
0000
0000
0000
0000
0000
0010
1000
,
0002
0000
0000
0000
0200
0000
0000
0303
0000
0000
0000
0000
0202
0000
0303
0000
,
0100
0010
0100
0001
0000
0001
1000
0100
,
0000
0000
0100
0000
0020
0000
0000
0000
0030
0000
0000
0000
0000
0000
0000
1000
,
0001
0000
0010
0000
0000
0001
0000
0000
1000
0000
0000
0001
0000
0000
2000
0000
,
0000
0000
0000
0000
3100
0000
0000
0000
0000
0000
0000
0000
0000
0000
0010
0001
,
0010
0100
1000
0010
0000
0010
0100
0001
,
0000
0100
0020
0000
0030
0000
0000
0000
,
1000
0000
0010
0000
0000
0100
0000
0000
0001
0000
0000
1000
0000
0000
0020
0000
,
0000
0031
0000
0000
,
0010
1000
0000
0001
0000
0000
1000
0000
0000
0000
0000
0000
0000
0000
0010
1000
,
0010
1000
0000
0001
0000
0000
0100
0000
0000
0000
0000
0000
0000
0000
0010
1000
,
0010
1000
0000
0001
0000
0000
0100
0000
0000
0000
0000
0000
0000
0000
1000
0100
,
1000
0100
0000
0010
0000
0000
0001
0000
0000
0000
0000
0000
0000
0000
0001
1000
,
0002
0000
0000
0000
0000
0000
0013
0000
0000
0000
0000
0000
0000
0000
0010
0100
,
2000
0000
0000
0000
0000
0000
3001
0000
0000
0000
0000
0000
0000
0000
1000
0001
,
1000
0000
0000
1000
0000
0000
2000
0000
0000
0000
3000
0000
0000
0000
0001
1000
,
0001
0000
0000
0001
0000
0000
0002
0000
0000
0000
0003
0000
0000
0000
0000
0000
,
2010
3100
0000
0000
,
0012
0100
0000
0103
,
1200
1300
0000
0000
,
0201
0010
0000
0310
,
0000
0000
0100
0000
0000
0010
0000
0000
1000
0000
0000
0001
0000
0000
1000
0000
,
0000
0000
0010
0000
0000
0010
0000
0000
0100
0000
0000
0100
0000
0000
1001
0000
,
0000
0000
0010
0000
0000
0100
0000
0000
0001
0000
0000
1000
0000
0000
0101
0000
,
0000
0000
0100
0000
0000
0100
0000
0000
0010
0000
0000
0010
0000
0000
1010
0000
,
1000
0000
1000
0000
0100
0010
0000
0001
0000
0001
0000
1000
0200
0000
0310
0000
,
0001
0000
0001
0000
0010
0100
0000
1000
0000
1000
0000
0001
0020
0000
0130
0000
,
1000
0000
1000
0000
0100
0010
0000
0001
0000
0001
0000
1000
0200
0000
0310
0000
,
0001
0000
0001
0000
0010
0100
0000
1000
0000
1000
0000
0001
0020
0000
0130
0000
,
0010
1001
0000
0000
0110
0000
0000
2002
,
0000
0000
0000
3003
0110
0000
0000
0000
0000
0000
0000
0000
0010
0000
0100
0010
,
0110
0000
0000
0000
1001
0000
0000
0220
,
0000
0000
0330
0000
1001
0000
0000
0000
0000
0000
0000
0000
0001
0000
0001
1000
,
0100
0000
0100
0000
0000
0100
0000
0000
0100
0000
0000
0100
0000
0000
0200
0000
,
0000
0000
0000
0000
0310
0000
0000
0000
0000
0000
0000
0000
1000
0000
0100
0010
,
0001
1000
0010
1000
0001
0100
0010
0000
,
0000
0000
0010
0100
0001
0000
0000
1000
0001
0000
0100
0000
0000
0001
0000
0000
,
1000
0000
0100
0001
1000
1000
0001
0000
,
0000
0001
0100
0000
1010
0100
0001
1000
,
0010
0000
0010
0000
0010
0100
0010
0000
,
0000
1000
0010
0000
1001
0100
0010
0100
,
0001
1000
0001
0010
0001
0001
1000
0000
,
0000
1000
0001
0000
0101
0001
0010
0100
,
1000
0001
1000
0100
1000
1000
0001
0000
,
0000
0001
1000
0000
1010
1000
0100
0010
,
0001
0000
1000
0000
0001
1000
0001
0000
,
0000
1000
0001
0000
1000
0010
0001
0010
,
2000
0100
3001
0020
0000
0130
0001
2000
,
0000
3000
0000
0000
0000
0010
0100
0001
,
2000
0010
3100
0002
0000
0013
0100
2000
,
0000
3000
0000
0000
0000
1000
0001
0010
,
0200
1000
0301
0020
0000
1030
0001
0200
,
0000
0300
0000
0000
0000
0100
0010
1000
,
0002
0100
0013
2000
0000
3100
0010
0002
,
0000
0003
0000
0000
0000
1000
000M
1000
,
0010
0010
0100
0001
0000
0001
1000
2200
,
0000
3300
0001
000M
0000
1000
0001
1000
,
0010
0100
0001
1000
0000
0010
0100
0202
,
0000
0303
1000
M000
0000
0010
0100
0010
,
0100
M000
00M0
0M01
M000
00M0
0M0M
2000
,
00M0
0000
0M00
0000
3001
0000
0000
0000
0000
0000
0000
0000
1000
0000
0001
1000
,
0001
0000
1000
0000
0000
0001
0000
0000
0010
0000
0000
0100
0000
0000
2002
0000
,
0000
0000
0000
3003
1001
0000
0000
0000
0000
0000
0000
0000
0001
0000
1000
0001
,
1000
0000
0001
0000
0000
1000
0000
0000
0100
0000
0000
0010
0000
0000
2002
0000
,
0000
0000
0000
3003
1001
0000
0000
0000
0000
0000
0000
0000
0000
0000
0000
0000
,
1010
0000
0000
0000
0000
0000
0000
0000
0000
0000
0000
0000
0101
0000
0000
0000
0000
0000
0000
0M00
000M
0000
0000
0000
0000
0000
0000
0000
0000
0000
0000
0000
,
0011
0000
0000
0000
0000
0000
0000
0000
0000
0000
0000
0000
1100
0000
0000
0000
0000
0000
0000
0M00
M000
0000
0000
0000
0000
0000
0000
0000
0000
0000
0000
0000
;

//---------------dance-single - ----------------
#NOTES:
     dance-single:
     :
     Beginner:
     1:
     0.090,0.167,0.041,0.000,0.000,86.000,6.000,0.000,0.000,0.000:
0000
0000
0000
0000
,
0000
0000
0000
0000
,
0010
0000
0000
0000
,
1000
0000
0000
0000
,
0001
0000
0001
0000
,
0001
0000
0000
0000
,
1000
0000
0010
0000
,
0100
0000
0000
0000
,
0010
0000
0010
0000
,
0010
0000
0000
0000
,
0001
0000
0010
0000
,
0001
0000
0000
0000
,
1000
0000
0000
0000
,
0010
0000
0000
0000
,
0100
0000
0000
0000
,
0001
0000
0000
0000
,
0010
0000
0000
0000
,
0100
0000
0000
0000
,
0100
0000
0000
0000
,
0100
0000
0000
0000
,
1000
0000
0000
0000
,
0010
0000
0000
0000
,
0001
0000
0000
0000
,
0100
0000
0000
0000
,
0100
0000
0000
0000
,
0100
0000
0000
0000
,
0010
0000
0000
0000
,
1000
0000
0000
0000
,
0001
0000
0000
0000
,
0100
0000
0000
0000
,
0010
0000
0000
0000
,
1001
0000
0000
0000
,
0010
0000
0010
0000
,
0010
0000
0000
0000
,
0001
0000
0000
0000
,
1000
0000
0000
0000
,
0010
0000
0000
0000
,
0100
0000
0000
0000
,
0001
0000
0000
0000
,
0100
0000
0000
0000
,
0010
0000
0000
0000
,
0100
0000
0000
0000
,
1000
0000
0000
0000
,
0100
0000
0000
0000
,
0010
0000
0000
0000
,
0001
0000
0000
0000
,
0010
0000
0000
0000
,
0100
0000
0000
0000
,
1000
0000
0000
0000
,
0100
0000
0000
0000
,
0100
0000
0000
0000
,
0010
0000
0000
0000
,
0010
0000
0000
0000
,
0001
0000
0000
0000
,
0001
0000
0000
0000
,
1000
0000
0000
0000
,
0100
0000
0000
0000
,
0010
0000
0000
0000
,
0001
0000
0000
0000
,
0100
0000
0000
0000
,
1000
0000
0000
0000
,
0100
0000
0000
0000
,
0010
0000
0000
0000
,
0110
0000
0000
0000
,
1001
0000
0000
0000
,
0110
0000
0000
0000
,
1001
0000
0000
0000
,
0010
0000
0000
0000
,
0010
0000
0000
0000
,
0100
0000
0000
0000
,
0100
0000
0000
0000
,
0001
0000
0000
0000
,
0001
0000
0000
0000
,
1000
0000
0000
0000
,
1000
0000
0000
0000
,
0010
0000
0000
0000
,
0100
0000
0000
0000
,
0001
0000
0000
0000
,
1000
0000
0000
0000
,
0100
0000
0000
0000
,
0001
0000
0000
0000
,
1001
0000
0001
0000
;

//---------------dance-single - ----------------
#NOTES:
     dance-single:
     :
     Easy:
     3:
     0.193,0.249,0.089,0.089,0.000,172.000,13.000,13.000,0.000,0.000:
0000
0000
0000
0000
,
0000
0000
0000
0000
,
0010
0010
0000
0000
,
0010
0010
0000
0000
,
1001
0000
0001
0000
,
2000
0000
3000
0000
,
1001
0000
0010
0000
,
0002
0000
0003
0000
,
1000
1000
0100
0000
,
0010
0000
0000
0000
,
0001
0001
0001
0000
,
0010
0000
0010
0000
,
0100
0001
0000
0000
,
0100
0000
0000
0000
,
0100
1000
0000
0000
,
0001
0000
0000
0000
,
1001
0000
0010
0000
,
0010
0000
0000
0000
,
1001
0000
0100
0000
,
0100
0000
0000
0000
,
0010
0010
0010
0000
,
0001
0000
1000
0000
,
0001
0001
0001
0000
,
0100
0000
0100
0000
,
0010
1000
0010
0000
,
0010
1000
0010
0000
,
0100
0001
0100
0000
,
1001
0000
0000
0000
,
0100
0010
0100
0000
,
0010
0100
0010
0000
,
1000
0001
1000
0000
,
0001
0000
1000
0000
,
0020
0000
0030
0000
,
0200
0000
0300
0000
,
0002
0000
1003
0000
,
0020
0000
0130
0000
,
1000
0000
0100
0000
,
0001
0000
0010
0000
,
1000
0000
0100
0000
,
0001
0000
0010
0000
,
0100
0100
0100
0100
,
0100
0100
0100
0000
,
0010
0010
0010
0010
,
0010
0010
0010
0000
,
1001
0000
0100
0000
,
1001
0000
0100
0000
,
0001
0000
0101
0000
,
1000
0000
1100
0000
,
0010
0010
0010
0000
,
0200
0000
0300
0000
,
0010
0010
0010
0000
,
0002
0000
0003
0000
,
1000
1000
0000
0000
,
0020
0000
0030
0000
,
0100
0001
0100
0000
,
1000
0100
1000
0000
,
0001
0010
0001
0000
,
1000
0010
1000
0000
,
1001
0000
0000
0000
,
0100
0100
0000
0000
,
0001
0010
0000
0000
,
0100
0100
0000
0000
,
1000
0010
0001
0100
,
1000
0000
0000
0000
,
1000
0100
0001
0010
,
1000
0000
0000
0000
,
1000
0010
0001
0100
,
1000
0000
0000
0000
,
1000
0100
0001
0010
,
1000
0000
0000
0000
,
0110
0000
0001
0000
,
1000
0000
0000
0000
,
1001
0000
0001
0000
,
0010
0000
0000
0000
,
0100
1000
0010
0000
,
0100
0000
0100
0000
,
0001
0010
0100
0000
,
1001
0000
0000
0000
,
1000
0100
0001
0000
,
0001
0100
2000
3000
,
0002
0003
2000
3000
,
0002
0003
0000
0000
;

//---------------dance-single - ----------------
#NOTES:
     dance-single:
     :
     Medium:
     5:
     0.306,0.388,0.164,0.075,0.000,279.000,24.000,11.000,0.000,0.000:
0000
0000
0000
0000
,
0000
0000
0000
0000
,
0110
0000
1001
0000
0000
0000
0000
0010
,
0000
0000
0000
0000
,
1000
0000
0100
0000
0010
0000
0001
1000
,
0000
0010
0000
0000
,
0100
0000
0001
0000
0010
0000
0100
1000
,
0000
0010
0000
0000
,
0100
0000
0001
0000
0010
0000
0001
1000
,
0000
0010
0000
0000
,
1000
0000
0100
0000
0010
0000
0001
0010
,
0000
0100
0000
0000
,
2100
3100
0000
0000
,
0210
0000
0010
0300
0000
0000
0000
0000
,
0102
0000
0010
0003
0000
0000
0000
0000
,
2100
0000
0010
3000
0000
0000
0000
0000
,
0010
0100
0010
0100
0000
0100
0010
0100
,
0000
0100
0010
0000
0000
0000
0000
0000
,
0001
1000
0001
1000
0000
1000
0001
1000
,
0000
1000
0001
0000
0000
0000
0000
0000
,
0001
0010
0100
1000
0000
1000
0010
0100
,
0000
0100
0001
0000
0000
0000
0000
0000
,
1000
0100
0010
0001
0000
0001
0010
0100
,
0000
0100
0010
0000
0000
0000
0000
0000
,
1001
0001
0100
0000
,
1001
1000
0010
0000
,
0100
0010
0100
0010
0000
0000
0000
0000
,
1000
0100
1000
0100
0000
0000
0000
0000
,
0010
0010
0200
0000
,
0301
0001
2000
0000
,
3010
0000
0010
0000
0200
0000
0000
0300
,
0001
0001
0000
0000
1001
0000
0000
0000
,
0010
1000
0100
0010
,
0001
0010
0100
1000
0010
0000
0000
0000
,
0001
1000
0100
1000
,
0010
0100
0001
0010
0100
0000
0000
0000
,
1001
1001
0010
0000
,
1001
1001
0200
0310
,
1001
1001
0010
0100
,
0002
0000
1000
0003
1000
1000
1000
0000
,
0010
0100
0001
1000
,
0100
1000
0100
0000
0010
0000
0000
0000
,
0001
0010
0100
0010
,
0001
0000
0100
0000
0010
1000
0010
0000
,
0001
0000
1000
0000
0010
0000
0100
0001
,
0000
1000
0000
0000
,
0010
0000
0100
0000
0001
0000
1000
0010
,
0000
0100
0000
0000
,
0010
0000
0100
0000
0001
0000
1000
0010
,
0000
0100
0000
0000
,
0010
0100
0001
0000
,
1000
0100
0010
0000
,
0001
0010
0100
1000
,
1100
1100
0002
0103
,
1000
1000
0010
0010
,
0110
0110
0002
1003
,
0010
0000
0100
0000
0001
0100
0001
0000
,
0000
1000
0010
0100
,
0001
1000
0001
0000
0010
0100
0010
0000
,
0001
1000
0001
0000
0010
0100
0010
0001
,
1000
0000
0010
0000
0100
0001
1000
0000
,
0000
0010
0100
0000
0001
1000
0010
0100
,
0001
1000
0100
0010
,
0001
1000
0000
0000
,
0010
0100
0001
1000
,
0001
0010
0000
0000
,
1000
0100
0010
0001
0000
0001
0010
0100
,
0000
0000
0000
0000
,
1000
0010
0100
0001
0000
0001
0010
0100
,
0000
0000
0000
0000
,
0010
0000
0100
0000
0010
0000
0100
0110
,
0000
0000
0000
0000
,
0001
0000
1000
0000
0001
0000
1000
1001
,
0000
0000
0000
0000
,
1000
0000
0100
0000
1000
0000
0100
1100
,
0000
0000
0000
0000
,
0001
0001
0001
0001
,
1001
0000
0000
0000
,
1000
1000
1000
1000
,
1001
0000
0000
0000
,
0001
0100
0001
1000
0000
0000
0000
0000
,
1000
0010
1000
0001
0000
0000
0000
0000
;
