#TITLE:Slayers Next;
#SUBTITLE:- Give A Reason [Giga Mix];
#ARTIST:林原めぐみ;
#TITLETRANSLIT:;
#SUBTITLETRANSLIT:;
#ARTISTTRANSLIT:Megumi Hayashibara;
#CREDIT:Anime Toshokan;
#BANNER:Slayers Next - Give A Reason [Giga Mix].png;
#BACKGROUND:Slayers Next - Give A Reason [Giga Mix] bg.png;
#LYRICSPATH:;
#CDTITLE:dejiko.png;
#MUSIC:Slayers Next - Give A Reason [Giga Mix].mp3;
#OFFSET:2.311;
#SAMPLESTART:76.290;
#SAMPLELENGTH:13.780;
#SELECTABLE:YES;
#DISPLAYBPM:140.000;
#BPMS:0.000=140.350,40.000=140.210,200.000=139.920;
#STOPS:;
#BGCHANGES:;
// cache tags:
#FIRSTBEAT:10.000;
#LASTBEAT:249.000;
#SONGFILENAME:Songs/DDR Anime 1st Mix/Slayers Next - Give A Reason [Giga Mix]/Slayers Next - Give A Reason [Giga Mix].sm;
#HASMUSIC:1;
#HASBANNER:1;
#MUSICLENGTH:115.176;
// end cache tags

//---------------dance-single - BASIC----------------
#NOTES:
     dance-single:
     BASIC:
     Easy:
     3:
     0.247,0.269,0.061,0.000,0.000,192.000,7.000,0.000,0.000,0.000:
0000
0000
0000
0000
,
0000
0000
0000
0000
,
0000
0000
0000
0100
,
0000
0010
0000
0100
,
0000
0010
0000
0100
,
0000
0010
0000
1000
,
0000
0001
0000
1000
,
0000
0001
0000
1000
,
0000
0001
0000
0000
,
0000
0000
0000
0000
,
1001
0001
1000
0010
,
0100
0000
0000
0001
,
0100
1000
0010
0000
,
0000
0010
0100
1000
,
0001
0000
0100
0001
,
1000
0010
0000
1000
,
0010
1000
0010
0001
,
0010
0001
0010
0100
,
0000
0100
0000
0100
,
0000
0100
0100
0100
,
0100
1001
0000
1000
,
1000
1000
1000
0001
,
0001
0001
0001
0100
,
0100
0100
0100
0010
,
0010
0010
0010
1000
,
0000
0100
0000
0010
,
0000
0001
0000
1000
,
1000
0001
0001
1000
,
1000
0001
0001
0010
,
0100
0010
1000
0001
,
0100
0100
0000
1001
,
0000
0100
0001
0100
,
0001
1000
0100
1000
,
0100
0010
1000
0010
,
1000
0010
0001
0010
,
0001
0000
0000
0000
,
1001
0010
0100
0010
,
0100
0010
0100
1000
,
0001
0001
1000
0100
,
0010
0010
1000
0001
,
0100
1000
0010
0001
,
0100
0001
1000
0001
,
0000
0010
0000
0100
,
0000
1000
0000
0001
,
0000
0010
0000
0110
,
0110
0000
0000
0000
,
0000
1000
0100
0010
,
0001
1000
0100
0001
,
0010
1000
0010
0001
,
0100
1000
0010
0001
,
0100
0100
0100
0001
,
0001
0001
0010
0010
,
0010
1000
1000
1000
,
0100
0001
1000
0100
,
0001
0010
1000
0001
,
0010
1000
0001
0001
,
1000
1000
1000
0001
,
1000
0001
1000
0001
,
0100
0010
0100
0010
,
0001
1000
0100
0100
,
0100
0100
0100
0100
,
0100
0100
1000
0001
,
1001
0000
0000
0000
;

//---------------dance-single - ANOTHER----------------
#NOTES:
     dance-single:
     ANOTHER:
     Medium:
     5:
     0.314,0.351,0.174,0.000,0.000,233.000,20.000,0.000,0.000,0.000:
0000
0000
0000
0000
,
0000
0000
0000
0000
,
0000
0000
0000
0110
,
0000
0100
0000
0010
,
0000
1001
0000
1000
,
0000
0001
0000
0110
,
0000
1010
0000
1100
,
0000
0101
0000
0011
,
1000
0001
1001
0010
,
0010
0000
0010
0000
0010
0010
0010
0000
,
1000
0010
0100
0001
,
0100
0010
1000
0001
,
0001
1000
1000
0100
,
0010
1000
0001
0100
,
0010
1000
0100
0010
,
0001
0001
1000
1000
,
0100
0100
0010
0010
,
1000
0010
1000
0010
,
0010
0001
0010
0001
,
0010
1001
1001
1001
,
1001
1000
0001
1000
,
0001
0100
1000
0001
,
0100
1000
0001
0010
,
1000
0001
0100
1000
,
0010
0100
0001
0010
,
0010
1000
0001
0100
,
0100
0010
0001
1000
,
1000
1000
0001
0001
,
0001
0100
0010
0100
,
1000
0001
1000
0010
,
0100
0000
0000
1000
0001
1000
0000
0000
,
0010
1000
0001
0010
,
1000
0001
0100
1000
,
0001
0100
0001
1000
,
0100
0010
1000
0001
,
1000
1000
1000
0000
0001
0001
0001
0000
,
0110
0001
0001
1000
,
1000
0100
0010
1000
,
0100
0010
0001
0010
,
1000
0100
0010
0001
,
0100
1000
0001
0010
,
0010
0100
0100
1000
,
0001
0010
0010
1000
,
0001
0100
0001
0001
,
0001
0010
1000
1000
,
0100
0010
0100
0000
0000
0000
0110
0000
,
1001
0110
0010
0100
,
1000
0001
0100
0010
,
1000
0001
0010
0100
,
1000
1000
0001
0100
,
0001
0100
0010
0100
,
1000
0100
0100
0001
,
0010
0001
1000
0001
,
1000
0010
0100
0010
,
0001
1000
0010
1000
,
0001
0001
1000
1000
,
0100
1000
0100
0010
,
0001
0010
0001
1000
,
0010
1000
0010
0100
,
0001
0100
0001
1001
,
0100
1001
0100
1001
,
0100
1001
0001
1000
,
0100
0100
0100
0000
0000
0000
0000
0000
;

//---------------dance-single - MANIAC----------------
#NOTES:
     dance-single:
     MANIAC:
     Hard:
     8:
     0.541,0.538,0.200,0.078,0.074,404.000,23.000,9.000,0.000,0.000:
0000
0000
0000
0000
,
0000
0000
0000
0000
,
0000
0000
0000
1010
,
0001
1000
0100
0011
,
1000
0001
0100
1100
,
0001
1000
0010
0101
,
0010
1000
0001
1001
,
0110
1001
0100
0100
,
0100
0010
0100
0000
1000
1000
1000
0000
,
0001
0001
0001
0000
0000
0110
0110
0000
,
1000
0010
1000
0010
0001
0010
0001
0010
,
0100
1000
0100
1000
0001
0100
0001
0100
,
0001
1000
0010
0100
0001
1000
0010
0100
,
0001
1000
0100
0010
0001
1000
0100
0010
,
0001
1000
0100
0010
0001
0010
0100
0010
,
0100
0010
0100
0010
0100
1000
0001
1000
,
0001
1000
0001
1000
0001
0010
1000
0010
,
0001
0010
1000
0010
0001
0010
1000
0010
,
0001
0100
0010
1000
0001
0010
0100
1000
,
0010
0000
0100
0000
0001
0000
1000
0000
0000
0001
1000
0001
1000
0001
1000
0001
,
0010
1000
0010
1000
0010
1000
0001
0010
,
0001
0010
0001
0010
0100
0010
0001
1000
,
0100
0010
1000
0001
0010
1000
0001
0100
,
0001
1000
0010
0100
0001
1000
0001
1000
,
0010
0100
0010
0100
1000
0100
0001
0100
,
1000
0001
0100
0010
0010
0010
0100
0100
,
0100
1000
1000
1000
0001
0001
0001
0010
,
0001
0000
0010
0000
1000
0000
0000
0000
0001
0000
0000
1001
0000
0000
1000
0000
,
1000
0000
1000
0000
0000
0000
1000
0001
0000
1000
0001
0000
0000
0000
0000
0000
,
0001
0000
0001
0000
0000
0000
0001
1000
0000
0001
1000
0000
0000
0000
0000
0000
,
0010
0000
0010
0000
0000
0000
0010
0100
0000
0010
0100
0000
0000
0000
0000
0000
,
0100
0000
0100
0000
0000
0000
0100
0010
0000
0100
0010
0000
0000
0000
0000
0000
,
1000
0000
0100
0000
0000
0000
1000
0100
0000
1000
0100
0000
0000
0000
0000
0000
,
0001
0000
0100
0000
0000
0000
0001
0100
0000
0001
0100
0000
0000
0000
0000
0000
,
1010
0011
1100
0101
,
1001
0110
1001
0000
,
0100
1000
0001
0010
0100
1000
0001
0010
,
1000
0001
0010
0100
1000
0010
1000
0001
,
0010
0001
0100
1000
0001
0100
1000
0100
,
0001
0010
0100
0001
0001
1000
1000
0010
,
0010
0100
0100
0010
0100
0010
0100
0100
,
0010
0100
0010
1000
0001
1000
0200
0000
,
0300
0000
0010
0100
1000
0001
0010
0200
,
0300
0000
0010
0001
1000
0100
0010
0200
,
0300
0000
0010
1000
0001
1000
0100
0010
,
2002
0000
3003
0000
,
0010
0100
1000
0100
0010
0001
0010
0001
,
1000
0001
1000
0100
2000
3000
0000
1000
,
0001
0010
0001
1000
0100
0010
1000
0001
,
0010
0100
0001
1000
0002
0003
0000
0100
,
0001
0010
0001
1000
0100
1000
0001
0010
,
0100
0010
0001
1000
0200
0300
0000
1000
,
0100
0010
0001
1000
0100
0010
0001
0001
,
0010
0100
1000
0001
0020
0030
0000
0010
,
0001
1000
0100
0010
0010
0001
1000
0100
,
0010
0001
1000
0100
0100
0010
1000
0001
,
1000
0010
0001
0100
1000
0010
0100
0001
,
0010
1000
0100
0010
0001
1000
0100
1000
,
0100
1000
0100
1000
0100
0001
0100
0001
,
0100
0001
0100
0001
0100
0010
1000
0010
,
1000
0010
1000
0010
0001
0010
0001
0010
,
1000
0000
0110
1010
0101
0000
1001
0000
,
1001
0000
0000
0000
;

//---------------dance-single - BEGINNER----------------
#NOTES:
     dance-single:
     BEGINNER:
     Beginner:
     2:
     0.150,0.161,0.052,0.000,0.000,115.000,6.000,0.000,0.000,0.000:
0000
0000
0000
0000
,
0000
0000
0000
0000
,
0000
0000
0100
0000
,
0010
0000
0100
0000
,
0010
0000
0100
0000
,
0010
0000
1000
0000
,
0001
0000
1000
0000
,
0001
0000
1000
0000
,
0001
0000
0000
0000
,
0000
0000
0000
0000
,
1001
0000
1000
0000
,
0100
0000
0000
0001
,
0100
0000
0010
0000
,
0000
0010
0100
0000
,
0001
0000
0100
0000
,
1000
0000
0000
1000
,
0010
0000
0010
0000
,
0010
0000
0010
0000
,
0000
0100
0000
0100
,
0000
0100
0100
0000
,
0100
0000
0000
1000
,
1000
0000
1000
0000
,
0001
0000
0001
0000
,
0100
0000
0100
0000
,
0010
0000
0010
0000
,
0000
0100
0000
0010
,
0000
0001
0000
1000
,
1000
0000
0001
0000
,
1000
0000
0001
0000
,
0100
0000
1000
0000
,
0100
0000
0000
1001
,
0000
0100
0001
0000
,
0001
0000
0100
0000
,
0100
0000
1000
0000
,
1000
0000
0001
0000
,
0001
0000
0000
0000
,
1001
0000
0100
0000
,
0100
0000
0100
0000
,
0001
0000
1000
0000
,
0010
0000
1000
0000
,
0100
0000
0010
0000
,
0100
0000
1000
0000
,
0000
0010
0000
0100
,
0000
1000
0000
0001
,
0000
0010
0000
0110
,
0110
0000
0000
0000
,
0000
1000
0100
0000
,
0001
0000
0100
0000
,
0010
0000
0010
0000
,
0100
0000
0010
0000
,
0100
0000
0100
0000
,
0001
0000
0010
0000
,
0010
0000
1000
0000
,
0100
0000
1000
0000
,
0001
0000
1000
0000
,
0010
0000
0001
0000
,
1000
0000
1000
0000
,
1000
0000
1000
0000
,
0100
0000
0100
0000
,
0001
0000
0100
0000
,
0100
0000
0100
0000
,
0100
0000
1000
0000
,
1001
0000
0000
0000
;
