#TITLE:Blow Me Up;
#SUBTITLE:;
#ARTIST:Heath Whitelock;
#TITLETRANSLIT:;
#SUBTITLETRANSLIT:;
#ARTISTTRANSLIT:;
#CREDIT:;
#BANNER:Blow Me Up BN.jpg;
#BACKGROUND:Blow Me Up BG.jpg;
#LYRICSPATH:;
#CDTITLE:;
#MUSIC:Blow Me Up - Heath Whitelock.mp3;
#OFFSET:0.002;
#SAMPLESTART:58.714;
#SAMPLELENGTH:15.000;
#SELECTABLE:YES;
#BPMS:0.000=70.000,44.000=140.000,172.000=70.000;
#STOPS:60.000=0.435
;
#BGCHANGES:;
// cache tags:
#FIRSTBEAT:8.000;
#LASTBEAT:204.250;
#SONGFILENAME:Songs/StepMix 1/Blow Me Up/Blow Me Up.sm;
#HASMUSIC:1;
#HASBANNER:1;
#MUSICLENGTH:121.554;
// end cache tags

//---------------dance-single - ----------------
#NOTES:
     dance-single:
     :
     Beginner:
     1:
     0.086,0.147,0.049,0.066,0.000,59.000,6.000,8.000,0.000,0.000:
0000
0000
0000
0000
,
0000
0000
0000
0000
,
0010
0000
0000
0000
,
1000
0000
0000
0000
,
0001
0000
0000
0000
,
1000
0000
0001
0000
,
1001
0000
0100
0000
,
0001
0000
0000
0000
,
0010
0000
0000
0000
,
0010
0000
0100
0000
,
0010
0000
0000
0000
,
0001
0000
0000
0000
,
1000
0000
0010
0000
,
0100
0000
0000
0000
,
1000
0000
1000
0000
,
1001
0000
0000
0010
,
0000
0000
0000
1000
,
0000
0000
0000
0100
,
0000
0000
0000
0010
,
0000
0000
0000
0001
,
0000
0000
0000
0010
,
0000
0000
0000
0001
,
0000
0200
0000
0300
,
0110
0000
0000
0000
,
0100
0000
0000
0000
,
1000
0000
0000
0000
,
0000
0010
0000
0000
,
0000
0001
0000
0000
,
0000
0000
0010
0000
,
0002
0000
0000
0003
,
0000
0100
0000
0000
,
0000
0010
0000
0000
,
0000
1000
0000
0000
,
2002
0000
0000
3003
,
0000
0001
0000
0000
,
0000
0100
0000
0000
,
0000
0000
0010
0000
,
0000
1000
0000
0000
,
0010
0001
0010
0001
,
0002
0000
0000
0003
,
2000
0000
0000
3000
,
0020
0000
0000
0030
,
0200
0000
0000
0300
,
1000
0000
0000
0000
,
0001
0000
0000
0000
,
0100
0000
0000
0000
,
0010
0000
0000
0000
,
0110
0000
0000
0000
,
1001
0000
0000
0000
,
0100
0000
0000
0000
,
0010
0000
0000
0000
,
1000
0000
0000
0000
;

//---------------dance-single - ----------------
#NOTES:
     dance-single:
     :
     Easy:
     4:
     0.202,0.189,0.082,0.148,0.000,144.000,10.000,18.000,0.000,0.000:
0000
0000
0000
0000
,
0000
0000
0000
0000
,
0010
0000
2000
0000
,
3010
0000
0002
0000
,
0013
0000
2000
0000
,
3010
0000
0002
0000
,
1003
1000
0100
0010
,
0001
0001
0001
0100
,
0010
1000
0100
0100
,
0010
0100
0020
0000
,
0032
0000
2000
0003
,
0002
0000
0000
3003
,
1000
0100
0010
0001
,
0100
0000
0100
0001
,
1000
0000
1000
0100
,
1001
0100
0000
0001
,
0100
0000
0010
1000
,
1000
0000
0010
0100
,
0001
0000
0100
0010
,
1100
0100
0000
0100
,
1001
0010
0000
0010
,
0100
0100
0000
0001
,
0000
2000
0000
3002
,
0103
0011
0000
0100
,
0010
1001
0000
1000
,
0100
1001
0000
0010
,
0100
0010
0000
0010
,
0010
0001
0100
1000
,
0010
0100
0010
0100
,
0002
0000
0000
0103
,
0010
0110
0000
1000
,
0010
1000
0010
1000
,
0010
1000
0010
1000
,
2002
0000
0000
3003
,
0100
0001
0100
0001
,
0100
0001
0100
0001
,
1000
0100
1000
0100
,
1000
0100
1000
0100
,
0010
0001
0010
0001
,
0002
0000
0000
0000
,
2003
0000
0000
0000
,
3000
0110
0100
0010
,
0200
0000
0000
0300
,
2000
0000
3000
0000
,
0101
0000
0010
0000
,
0100
0100
0010
0010
,
0200
0000
0000
0300
,
0001
1000
0001
1000
,
0010
0100
0010
0100
,
1000
0001
1000
0001
,
0100
0010
0100
0010
,
0001
0000
0000
0000
;

//---------------dance-single - ----------------
#NOTES:
     dance-single:
     :
     Medium:
     6:
     0.308,0.336,0.173,0.148,0.029,223.000,21.000,18.000,0.000,0.000:
0000
0000
0000
0000
,
0000
0000
0000
0000
,
0010
0100
2000
0000
,
3010
0100
0002
0000
,
0013
0100
2000
0000
,
3010
0100
0002
0000
,
1003
0000
1000
0000
0100
0010
0010
0000
,
0001
0000
0001
0000
0100
0001
0100
0000
,
0010
0000
1000
0000
0100
0010
0100
0000
,
0010
0100
0020
0000
,
0032
0000
2000
0003
,
0002
0000
0000
3003
,
1000
0000
0110
0000
0100
0010
0001
0000
,
0100
0000
0001
1000
0100
0000
0001
0000
,
1100
0000
0010
0100
1000
0010
0100
0000
,
1001
0000
0000
0000
0100
0000
0000
0100
0000
0000
0100
0000
0001
0000
0000
0000
,
0100
0000
0010
0100
0010
0000
1000
0010
,
1000
0000
0010
0100
0010
0000
0100
0000
,
0001
1000
0100
0000
0001
0000
0010
0000
,
1100
0100
0010
0100
,
0010
0000
1000
0000
0010
0000
0000
1000
0000
0000
0001
0000
0100
0000
0001
0000
,
0100
0000
0000
0000
0100
0000
0000
0001
0000
0000
0100
0000
1001
0000
0000
0000
,
0110
1000
0110
0002
,
0103
0000
0011
0000
1000
0010
0100
0000
,
0010
0000
1001
0000
0100
0001
1000
0000
,
0100
0000
1001
0000
0100
0010
0001
0000
,
0100
0000
0010
0000
0100
0100
0010
0000
,
0010
0001
0000
0100
0000
1000
0000
0010
,
0001
1000
0000
0100
0010
0000
0100
0010
,
0002
0000
0000
0100
0000
0000
0100
0000
0103
0000
0000
0000
0100
0001
0000
0000
,
0010
0110
0001
1001
,
0010
0100
1000
0000
0010
0100
0000
1000
,
0010
0100
1000
0000
0010
0000
0110
0000
,
2000
0000
0000
3002
0000
0000
0103
0000
0000
0100
0010
1000
,
0100
0000
1001
0000
0100
0010
1000
0000
,
0010
0000
1010
0000
0001
0100
0010
0000
,
2100
0000
0001
0000
3010
1000
0100
0000
,
0012
0000
1000
0000
0103
0001
0010
0000
,
0101
0000
0100
0000
1000
0100
0010
0000
,
0002
1000
0000
1000
,
2003
0001
0001
0001
,
3010
0100
1001
0110
,
0200
0000
0000
0300
,
1000
0000
1000
0000
0001
0100
0001
0000
,
0001
0000
0001
0000
1000
0100
1000
0000
,
0100
0000
0100
0000
0010
0100
0010
0000
,
0200
0000
0000
0300
,
1001
0000
1000
0000
0100
1000
0010
0000
,
0001
0000
0001
0000
0100
0001
0010
0000
,
0010
0000
0010
0000
0100
0001
1000
0000
,
0010
0000
0010
0000
0100
0001
0010
1000
,
0100
0000
0000
0000
;

//---------------dance-single - ----------------
#NOTES:
     dance-single:
     :
     Hard:
     8:
     0.397,0.420,0.197,0.099,0.202,302.000,24.000,12.000,0.000,0.000:
0000
0000
0000
0000
,
0000
0000
0000
0000
,
0010
0100
2000
0100
,
3010
0100
0002
0100
,
0013
0100
2000
0100
,
3010
0100
0002
0010
,
1003
0000
1000
0000
1000
0000
0000
0000
0100
0000
0001
0010
0000
0010
0000
0000
,
0001
0000
0001
0000
0001
0000
0000
0000
0100
0000
1000
0100
0000
0000
0000
0000
,
0010
0010
0010
0000
0100
1000
0100
0000
,
0010
0010
0010
0000
0100
0001
0100
0000
,
0002
0000
2000
0003
,
0002
0000
0000
3003
,
1001
0100
0010
0001
0100
0010
0001
0000
,
0110
0001
0010
1000
0100
0010
0001
0000
,
1100
0001
0010
0100
1000
0010
0100
0010
,
1001
0000
0000
0000
0100
0000
0000
0010
0000
0000
1000
0000
0100
0000
0001
0000
,
0100
0000
1000
0010
0000
0000
0100
0000
0010
0000
0000
0000
1000
0000
0010
0000
,
0101
0000
0010
0100
1000
0000
0100
1000
,
0001
0000
1000
0100
0000
0000
0010
0000
0001
0000
0001
0000
0010
0000
0100
0000
,
1100
0000
1000
0000
0100
0000
0100
0000
0000
0100
0010
0000
0000
0000
0100
0000
,
0010
1000
0100
1000
0001
0000
0100
0001
,
0101
0000
0000
0000
0100
0000
0000
1000
0000
0000
0001
0000
1001
0000
0000
0000
,
0110
0000
0000
0000
1000
0100
0000
1000
0000
0100
0010
0000
0001
0010
0100
1000
,
0001
0000
0011
0100
1000
0010
0100
0000
,
0010
0000
1001
0100
0010
0001
1000
0000
,
0100
0001
1001
0000
0100
0010
0100
0000
,
0100
0100
0010
0010
0100
0100
0010
0000
,
0000
0000
0011
0000
0000
0100
0000
0000
1000
0000
0000
0010
0000
0000
0101
0000
,
0000
1000
0000
0100
0010
1000
0100
0010
,
0002
0000
0000
0010
0000
0000
1000
0000
0103
0000
0000
0000
0100
0001
0000
0000
,
0010
0000
0000
0000
0110
0000
0001
0000
0001
0000
0000
0000
1000
0100
0000
0000
,
0010
0100
1000
0010
0000
0100
0001
0010
,
0100
0000
0000
1100
0000
0000
1000
0000
0010
0100
0000
0000
0110
0000
0000
0000
,
1000
0100
1000
0001
0100
0001
1000
0010
1000
0001
0010
0001
,
0000
0010
0100
0000
1001
0000
0000
0000
0100
0000
0010
0000
0100
0000
0000
0000
,
0010
0000
0000
0000
1100
0000
0000
0010
0001
0000
0100
0000
0010
0000
0000
0000
,
0100
0001
0010
0100
1000
0010
0100
0000
,
0010
1000
0100
0010
0001
0100
0010
0000
,
0100
0001
0101
0000
1000
0100
0010
0000
,
0002
0100
1000
0010
,
0103
0000
0000
0000
0101
0000
0000
0000
0101
0000
0000
0100
0001
0000
0010
0000
,
2000
0100
3001
0110
,
0100
0001
0200
0000
0010
0000
0000
0000
0000
0000
0000
0000
0300
0000
0000
0000
,
1000
0000
1000
0000
1000
0000
0000
0000
0100
0000
0001
0100
0000
0100
0000
0000
,
0001
0000
0001
0000
0001
0000
0000
0000
0100
0001
1000
0100
0000
0000
0000
0000
,
0100
0000
0100
0000
0100
0000
0000
0000
0010
0000
0100
0010
0000
0010
0000
0000
,
0200
0000
1000
1300
,
1001
0000
1000
0000
1000
0000
0000
0000
0100
1000
0001
0010
0000
0010
0000
0000
,
0001
0000
0001
0000
0001
0000
0000
0000
0100
0001
1000
0100
0000
0000
0000
0000
,
0010
0000
0010
0000
0010
0000
0000
0000
0100
0001
1000
0001
0100
0000
0000
0000
,
0010
0000
0010
0000
0010
0000
0000
0000
0100
0001
0000
0001
0100
0001
0000
0100
,
0010
0000
0000
0000
;

//---------------dance-single - ----------------
#NOTES:
     dance-single:
     :
     Challenge:
     11:
     0.531,0.609,0.296,0.395,0.391,367.000,36.000,48.000,0.000,52.000:
0000
0000
0000
0000
,
0000
0000
0000
0000
,
1000
0100
0001
0000
1000
0010
0000
0100
1000
0000
0001
0100
0000
0100
0001
0100
,
0001
0100
1000
0000
0001
0010
0000
0100
0001
0000
1000
0100
0000
0100
1000
0100
,
1000
0100
0001
0000
1000
0010
0000
0100
1000
0000
0001
0100
0000
0100
0001
0100
,
1000
0100
0001
0000
1000
0010
0000
0100
1000
0000
0001
0100
0000
0100
0001
0100
,
0010
0000
0100
0000
0220
0000
0000
0000
1000
0001
1000
0001
0000
1000
0330
0000
,
1000
0000
0001
0000
2002
0000
0000
0000
0100
0010
0100
0010
0000
0000
3003
0000
,
0100
0000
0001
0000
0101
0000
1000
0010
0000
0100
0001
0100
0001
0100
0000
0100
,
0001
0000
0001
0000
0001
0000
1000
0100
0001
0000
1000
0100
0001
0000
0200
0000
,
2000
0000
0001
3300
,
1101
0000
0100
0000
0010
1000
0100
0010
,
0011
0000
2000
0000
0100
0010
0001
0100
,
3020
0000
0000
0002
0000
0000
0030
0000
0010
0000
0000
0000
1000
0010
0000
0000
,
2013
0000
0000
0000
0000
0000
0000
0000
3000
0000
0010
0000
1000
0001
0000
0000
,
1001
0000
0000
0100
0010
0000
0000
1000
0000
0000
0001
0000
0110
0000
1000
0000
,
1001
0000
0100
0010
0000
0000
1000
0000
0100
0000
0100
0010
0000
0000
0000
0000
,
0101
0000
0000
0200
0001
0000
1000
0000
0011
0000
0300
0000
0010
0000
0000
0000
,
0100
1000
0002
0100
0010
1000
0103
0010
,
0002
0010
1010
0103
,
0001
0000
0010
0000
0001
0000
0000
0001
0000
0000
0001
0000
2000
0000
0000
0000
,
0101
0000
3000
0000
1000
0100
0000
0010
0000
0001
0010
0000
0001
0000
0000
0100
,
0000
0000
0010
0000
1000
0010
0000
0100
0000
0100
1000
0000
2000
0200
0002
0010
,
3303
0000
1100
0000
0100
0010
1000
0200
,
0020
0000
0331
0000
0010
0100
1000
0010
,
0200
1000
0001
1000
0310
0001
1000
0100
,
0200
0001
1000
0001
0310
0000
1001
0001
,
2000
0000
0100
0000
0000
0001
0000
0000
0010
0000
0000
0100
3000
0000
1000
0000
,
0010
0000
0000
0100
0000
0001
0000
0100
0000
0001
0100
0000
0001
2000
0000
0000
,
0020
0000
0000
0001
0000
0000
0001
0000
0001
0000
3030
0000
1000
0001
0000
0000
,
0001
0000
1000
0000
0110
0000
0010
0100
0002
0000
0000
0000
1100
0000
0000
0000
,
0013
0100
1000
0010
0100
1000
0001
0010
,
0100
0001
0010
0100
1000
0001
0100
1000
,
0001
0010
1000
0001
0100
1000
0001
0010
1000
0100
0001
1000
,
0010
0001
1000
0000
1001
0000
0000
0000
0200
0000
0000
0000
0010
0000
1000
0000
,
0301
0000
0010
0100
1000
0000
0002
1000
,
0100
0010
0103
0000
2000
0000
0010
0001
,
0100
0010
3100
0000
0002
0100
0010
1000
,
0100
0000
1103
0000
0020
0100
1000
0001
,
0100
0000
0131
0000
0100
0001
0020
1000
,
0130
0000
0002
1000
0010
0100
1000
0100
,
0020
1003
0100
0001
1000
0001
0100
1000
,
0032
2000
0000
3003
,
0202
0000
1010
0000
1010
0000
0000
0000
1000
0010
1000
0010
0303
0010
0000
0000
,
2200
0000
0011
0000
0011
0000
0000
0000
0010
0001
0010
0001
3300
0000
0000
0000
,
0202
0000
1010
0000
1010
0000
1000
0010
0000
1000
0010
1000
0313
1000
0000
0000
,
2200
0000
0000
0000
0000
0000
0000
0010
0002
0000
0010
0000
3313
0000
0010
0000
,
0010
0000
0001
0000
0011
0000
0000
0000
0100
1000
0010
0001
0000
0001
0000
0000
,
0001
0000
0010
0000
0011
0000
0000
0000
0010
1000
0100
0002
0000
0000
0000
0000
,
0100
1000
2103
0000
0100
0001
3110
0000
,
0100
0000
0000
0000
1000
0000
0000
0000
0101
0000
0000
0000
0100
0000
1000
0100
0001
0000
0001
0000
0100
0000
1000
0100
0001
0000
0001
0000
0200
0000
2000
0000
,
0011
3300
0000
0000
0000
0000
0000
0000
0000
0000
0000
0000
0000
0000
0000
0000
;

//---------------dance-double - ----------------
#NOTES:
     dance-double:
     :
     Easy:
     3:
     0.202,0.189,0.082,0.148,0.000,144.000,10.000,18.000,0.000,0.000:
00000000
00000000
00000000
00000000
,
00000000
00000000
00000000
00000000
,
00100000
00000000
00020000
00000000
,
00130000
00000000
00002000
00000000
,
00103000
00000000
00020000
00000000
,
00030100
00000000
00020000
00000000
,
00030010
00000100
00001000
00100000
,
00010000
01000000
00010000
01000000
,
00001000
00010000
00000100
00001000
,
00000010
00001000
00000200
00000000
,
00020300
00000000
00002000
00030000
,
00020000
00000000
00000000
00033000
,
00010000
00100000
00001000
00010000
,
00000010
00000000
00001000
00001000
,
00010000
00000000
00010000
01000000
,
00011000
00010000
00000000
00010000
,
00000100
00000000
00000100
00001000
,
00000010
00000000
00000010
00010000
,
00001000
00000000
01000000
00010000
,
01010000
00001000
00000000
00010000
,
00011000
00100000
00000000
00100000
,
01000000
01000000
00000000
00010000
,
00000000
00002000
00000000
00023000
,
00030100
00010100
00000000
00001000
,
00100000
00110000
00000000
00010000
,
01000000
01010000
00000000
00001000
,
01000000
00010000
00000000
00001000
,
00100000
00010000
01000000
00001000
,
00010000
00000100
00001000
00000010
,
00020000
00000000
00000000
00030100
,
00001000
00000110
00000000
00001000
,
00000010
00001000
00000010
00001000
,
00000010
00001000
00000010
00001000
,
00022000
00000000
00000000
00033000
,
00000100
00010000
00000100
00010000
,
00000100
00010000
00000100
00010000
,
00001000
01000000
00001000
01000000
,
00001000
01000000
00001000
01000000
,
00010000
00100000
00010000
00100000
,
00002000
00000000
00000000
00000000
,
00023000
00000000
00000000
00000000
,
00030000
00000110
00001000
00000100
,
00002000
00000000
00000000
00000000
,
00003200
00000000
00000000
00000300
,
00011000
00000000
00100000
00000000
,
00010000
00001000
00010000
00001000
,
00000200
00000000
00000000
00000300
,
00001000
00010000
00001000
00010000
,
00100000
01000000
00100000
01000000
,
00010000
10000000
00010000
10000000
,
01000000
00100000
01000000
00100000
,
00001000
00000000
00000000
00000000
;

//---------------dance-double - Copied from----------------
#NOTES:
     dance-double:
     Copied from:
     Medium:
     6:
     0.308,0.336,0.173,0.148,0.029,223.000,21.000,18.000,0.000,0.000:
00000000
00000000
00000000
00000000
,
00000000
00000000
00000000
00000000
,
00100000
01000000
00020000
00000000
,
00130000
00001000
00020000
00000000
,
00030010
00001000
00000200
00000000
,
00010300
00001000
00020000
00000000
,
00031000
00000000
00100000
00000000
01000000
00100000
00100000
00000000
,
00010000
00000000
01000000
00000000
00001000
00010000
00001000
00000000
,
00010000
00000000
00000100
00000000
00000010
00000100
00000010
00000000
,
00000100
00001000
00000020
00000000
,
00020030
00000000
00000200
00030000
,
00020000
00000000
00000000
00030300
,
00001000
00000000
00011000
00000000
00001000
00100000
00010000
00000000
,
01000000
00000000
00001000
00010000
00000100
00000000
00010000
00000000
,
00010010
00000000
00010000
00001000
00100000
00010000
01000000
00000000
,
01010000
00000000
00000000
00000000
01000000
00000000
00000000
00010000
00000000
00000000
01000000
00000000
00010000
00000000
00000000
00000000
,
00100000
00000000
00001000
00010000
00001000
00000000
00010000
00100000
,
00001000
00000000
00010000
00000010
00010000
00000000
00000100
00000000
,
00001000
00000010
00010000
00000000
00001000
00000000
00100000
00000000
,
00110000
01000000
00100000
00010000
,
00100000
00000000
00001000
00000000
00100000
00000000
00000000
00001000
00000000
00000000
00010000
00000000
00000100
00000000
00010000
00000000
,
00000100
00000000
00000000
00000000
00001000
00000000
00000000
00010000
00000000
00000000
00000010
00000000
00010010
00000000
00000000
00000000
,
00011000
00000100
00011000
00020000
,
00031000
00000000
00110000
00000000
00100000
00010000
01000000
00000000
,
00100000
00000000
00011000
00000000
00000100
00001000
00000010
00000000
,
00000100
00000000
00011000
00000000
00001000
00000100
00000010
00000000
,
00000100
00000000
00001000
00000000
00000010
00000010
00000100
00000000
,
00001000
00010000
00000000
01000000
00000000
00100000
00000000
00001000
,
00010000
00000010
00000000
00000100
00001000
00000000
00100000
00010000
,
02000000
00000000
00000000
00001000
00000000
00000000
00001000
00000000
03001000
00000000
00000000
00000000
01000000
00001000
00000000
00000000
,
00100000
00011000
00000100
00000110
,
00000010
00000100
00001000
00000000
00100000
00010000
00000000
00001000
,
01000000
00100000
00010000
00000000
00001000
00000000
00011000
00000000
,
00002000
00000000
00000000
00023000
00000000
00000000
01030000
00000000
00000000
01000000
00100000
00010000
,
01000000
00000000
00011000
00000000
00000100
00000010
00001000
00000000
,
00100000
00000000
00101000
00000000
00010000
00001000
00100000
00000000
,
01002000
00000000
00010000
00000000
00103000
00001000
01000000
00000000
,
00020100
00000000
00001000
00000000
00030010
00010000
00000100
00000000
,
00011000
00000000
01000000
00000000
00001000
01000000
00100000
00000000
,
00020000
01000000
00000000
01000000
,
02030000
00001000
00001000
03001000
,
00010000
00000100
00011000
00000110
,
00002000
00000000
00000000
00000000
,
00013000
00000000
00010000
00000000
00000100
00001000
00010000
00000000
,
00100000
00000000
01000000
00000000
01000000
00010000
00001000
00000000
,
00000100
00000000
00001000
00000000
00010000
00100000
00010000
00000000
,
00002000
00000000
00000000
00003000
,
00011000
00000000
00010000
00000000
01000000
00001000
00100000
00000000
,
00001000
00000000
00010000
00000000
00000100
00010000
00000010
00000000
,
00001000
00000000
00000100
00000000
00001000
00000010
00010000
00000000
,
00001000
00000000
00100000
00000000
01000000
00010000
00001000
00000010
,
00000100
00000000
00000000
00000000
;

//---------------dance-double - Copied from----------------
#NOTES:
     dance-double:
     Copied from:
     Hard:
     7:
     0.391,0.441,0.189,0.099,0.197,298.000,23.000,12.000,0.000,0.000:
00000000
00000000
00000000
00000000
,
00000000
00000000
00000000
00000000
,
00010000
01000000
00020000
01000000
,
00130000
01000000
00002000
00010000
,
00103000
00010000
00000200
00001000
,
00000310
00000001
00002000
00000100
,
00003010
00000000
00000010
00000000
00000010
00000000
00000000
00000000
00000100
00000000
00000001
00000010
00000000
00000010
00000000
00000000
,
00000100
00000000
00000100
00000000
00000100
00000000
00000000
00000000
00010000
00000000
00001000
01000000
00000000
00000000
00000000
00000000
,
00100000
00100000
00100000
00000000
10000000
01000000
00100000
00000000
,
00010000
00001000
00010000
00000000
00000100
00010000
00000100
00000000
,
00020000
00000000
00002000
00030000
,
00020000
00000000
00000000
00033000
,
00011000
00000000
00100000
00010000
01000000
00000000
00010000
10000000
,
00100000
00000000
01000000
00001000
00100000
00000000
00011000
00000000
,
00010000
00000100
00001000
00000010
00010000
00001000
01000000
00001000
,
00011000
00000000
00000000
00000000
01000000
00000000
00000000
00100000
00000000
00000000
00010000
00000000
01000000
00000000
00010000
00000000
,
01000000
00000000
00001000
00100000
00000000
00000000
01000000
00000000
00100000
00000000
00000000
00000000
00001000
00000000
00000100
00000000
,
00001100
00000000
00000010
00000001
00000100
00000000
00001000
00010000
,
00000100
00000000
00010000
00001000
00000000
00000000
00100000
00000000
00010000
00000000
01000000
00000000
00001000
00000000
00010000
00000000
,
00010100
00000000
00000100
00000000
00001000
00000000
00000001
00000000
00000000
00000100
00000010
00000000
00000000
00000000
00001000
00000000
,
00000100
00000010
00001000
00010000
00010000
00000000
00001000
01000000
,
01010000
00000000
00000000
00000000
00100000
00000000
00000000
01000000
00000000
00000000
00010000
00000000
01010000
00000000
00000000
00000000
,
00011000
00000000
00000000
00000000
00001000
00010000
00000000
00001000
00000000
00100000
00001000
00000000
00000010
00001000
00010000
00100000
,
00010000
00000000
00110000
00010000
00001000
00100000
01000000
00000000
,
00100000
00000000
00011000
00000100
00000010
00001000
00010000
00000000
,
01000000
00001000
00011000
00000000
00001000
00010000
00000010
00000000
,
00001000
00000100
00000010
00000001
00000010
00000100
00010000
00000000
,
00000000
00000000
00101000
00000000
00000000
00010000
00000000
00000000
00000010
00000000
00000000
00001000
00000000
00000000
00000101
00000000
,
00000000
00000010
00000000
00000100
00000001
00001000
00000100
00010000
,
00002000
00000000
00000000
00100000
00000000
00000000
01000000
00000000
00013000
00000000
00000000
00000000
00001000
00010000
00000000
00000000
,
00000010
00000000
00000000
00000000
00000110
00000000
00000001
00000000
00000001
00000000
00000000
00000000
00000100
00000010
00000000
00000000
,
00001000
00000100
00010000
00001000
00000000
01000000
00010000
00100000
,
01000000
00000000
00000000
11000000
00000000
00000000
10000000
00000000
00100000
01000000
00000000
00000000
01100000
00000000
00000000
00000000
,
10000000
01000000
10000000
00010000
01000000
00010000
00100000
00001000
00100000
00001000
00010000
00001000
,
00010000
00000100
00010100
00000000
00000100
00001000
00000010
00000000
,
00000100
00000000
00000000
00000000
00000101
00000000
00000000
00000100
00000010
00000000
00010000
00000000
00001000
00000000
00000000
00000000
,
01000000
00010000
00100000
01000000
10000000
00100000
01000000
00000000
,
00010000
01000000
00001000
00100000
00010000
01000000
00100000
00000000
,
00010000
00001000
00011000
00000000
00001000
00000100
00000010
00000000
,
00020000
00000100
00001000
00000010
,
00031000
00000000
00000000
00000000
01010000
00000000
00000000
00000000
01010000
00000000
00000000
01000000
00010000
00000000
00100000
00000000
,
00002000
01000000
00013000
00010100
,
00001000
00000010
00000000
00000000
00002000
00000000
00000000
00000000
00000000
00000000
00000000
00000000
00003000
00000000
00000000
00000000
,
00010000
00000000
00010000
00000000
00010000
00000000
00000000
00000000
00001000
00000000
00010000
00001000
00000000
00010000
00000000
00000000
,
00000100
00000000
00000100
00000000
00000100
00000000
00000000
00000000
00001000
00000001
00000100
00000001
00000000
00000000
00000000
00000000
,
00000010
00000000
00000010
00000000
00000010
00000000
00000000
00000000
00000100
00000000
00010000
00001000
00000000
00001000
00000000
00000000
,
02000000
00000000
00010000
03010000
,
10010000
00000000
00010000
00000000
00010000
00000000
00000000
00000000
01000000
00001000
00010000
00001000
00000000
00000100
00000000
00000000
,
00000001
00000000
00000001
00000000
00000001
00000000
00000000
00000000
00000001
00001000
00000100
00010000
00000000
00000000
00000000
00000000
,
00001000
00000000
00001000
00000000
00001000
00000000
00000000
00000000
01000000
00010000
10000000
00010000
01000000
00000000
00000000
00000000
,
00100000
00000000
00100000
00000000
00100000
00000000
00000000
00000000
01000000
00001000
00000000
00010000
00100000
00010000
00000000
00001000
,
00000010
00000000
00000000
00000000
;

//---------------dance-double - Copied from----------------
#NOTES:
     dance-double:
     Copied from:
     Challenge:
     11:
     0.527,0.524,0.230,0.403,0.366,370.000,28.000,49.000,0.000,32.000:
00000000
00000000
00000000
00000000
,
00000000
00000000
00000000
00000000
,
10000000
01000000
00010000
00000000
00001000
00000100
00000000
00000001
00000010
00000000
00000010
00001000
00000000
00001000
00010000
00100000
,
10000000
01000000
00010000
00000000
00001000
00000100
00000000
00000001
00000010
00000000
00000010
00001000
00000000
00001000
00010000
00100000
,
10000000
01000000
00010000
00000000
00001000
00000100
00000000
00000001
00000010
00000000
00000010
00001000
00000000
00001000
00010000
00100000
,
10000000
01000000
00010000
00000000
00001000
00000010
00000000
00000001
00000100
00000000
00000100
00001000
00000000
01000000
00010000
01000000
,
00100000
00000000
01000000
00000000
02200000
00000000
00000000
00000000
00000100
00000010
00000100
00000010
00000000
00000200
03300000
00000000
,
01000000
00000000
00010000
00000000
01000000
00000000
00000000
00000000
00010000
01000000
00010000
02000000
00000300
00000000
00000000
00000000
,
00010000
00001000
00010000
00001000
00000010
00001000
00000010
00001000
,
03010000
00000000
00010000
00000000
00010000
00000000
10000000
01000000
00010000
00000000
00001000
00000100
00000001
00000000
00000000
00000000
,
00000020
00002000
00020000
00033030
,
00001010
00010000
10000000
00000000
00100000
10000000
01000000
00100000
,
00110000
00000000
00002000
00000000
01000000
00100000
00010000
01000000
,
00203000
00000000
00000000
00000000
00000200
00000000
00300000
00000000
00001000
00000000
00010000
00000000
00000010
00001000
00000000
00000000
,
00000311
00000000
00000000
00000000
00020000
00000000
00000000
00000000
00000100
00000000
00000010
00000000
00000001
00000010
00030000
00000000
,
01000110
00000000
00000000
00000100
00000010
00000000
00000000
00000001
00000000
00000000
00001000
00000000
00001100
00000000
00010000
00000000
,
00011000
00000000
01000000
00100000
00000000
00000000
10000000
00000000
01000000
00000000
01000000
00100000
00000000
00000000
00000000
00000000
,
00011000
00000000
00000000
00000200
00010000
00000000
00001000
00000000
00010310
00000000
00000000
00000000
00001000
00000000
00000000
00000000
,
00000100
00000010
00020000
00000100
00000010
00000001
00001000
00000100
,
00030010
00000012
00011000
00000103
,
00010000
00000000
00001000
00000000
00010000
00000000
00000000
00010000
00000000
00000000
00010000
00000000
20000000
00000000
00000000
00000000
,
01010000
00000000
30000000
00000000
10000000
01000000
00000000
00010000
00000000
00001000
00000010
00000000
00010000
00000000
00000000
01000000
,
00000000
00000000
00100000
00000000
10000000
00100000
00000000
01000000
00000000
01000000
10000000
00000000
20000000
02000000
00020000
00002000
,
33030000
00000000
01103000
00000000
00010000
00100000
00000010
00002000
,
00000200
00000000
00013300
00000000
00000010
00001000
01000000
00100000
,
02000000
00100000
00000100
00000010
03001000
10000000
00001000
00100000
,
02000000
00020000
00001000
00030100
03100000
00000000
00010000
01000000
,
20000000
00000000
01000000
00000000
00000000
00011000
00000000
00000000
00100000
00000000
00000000
00010000
30000000
00000000
00001000
00000000
,
01100000
00000000
00000000
01000000
00000000
00001000
00000000
00010000
00000000
00000100
01000000
00000000
00000010
00000200
00000000
00000000
,
00002000
00000000
00000000
00010000
00000000
00000000
00010000
00000000
00010000
00000000
00003300
00000000
00001000
00000100
00000000
00000000
,
00000001
00000000
00000010
00000000
00001100
00000000
00000010
00000100
00002000
00000000
00000000
00000000
00010100
00000000
00000000
00000000
,
00003100
00100000
01000000
00010000
00001000
00000010
00000100
00100000
,
00001000
00010000
00100000
01000000
00010000
00100000
01000000
10000000
,
01000000
00010000
00001000
00000010
00000001
00000100
00001000
00100000
10000000
01000000
00010000
00001000
,
00100000
00010000
01000000
00000000
00011000
00000000
00000000
00000000
02000000
00000000
00000000
00000000
00000100
00000000
00001000
00000000
,
03000010
00000000
00010000
00001000
00100000
00000000
00000200
01000000
,
00010000
10000000
00010300
00000000
20000000
00000000
00100000
00100000
,
00010000
01000000
30001000
00100000
00020000
01000000
00100000
10000000
,
01000000
00000000
01030100
00000000
00020000
00000001
00000100
00000001
,
00001000
00000100
00000010
00000100
01030000
00000000
02000000
00010000
,
03001000
00000000
00000200
01000000
00010000
10000000
00001000
01000000
,
00200000
00001300
10000000
00010000
01000000
00001000
00000100
00001000
,
00300002
20000000
00000000
30000003
,
00000002
00000000
00001000
00000000
00001000
00000000
00000000
00000000
00000100
00010000
00001000
00100000
00000003
00100000
00000000
00000000
,
20000000
00000000
00101000
00000000
00101000
00000000
00000000
00000000
00100000
00010000
01000000
00001000
30000000
00000000
00000000
00000000
,
00000200
00000000
01000000
00000000
01000000
00000000
00001000
00100000
00000000
10000000
00010000
01000000
00001000
00100300
00000000
00000000
,
22000000
00000000
00000000
00000000
00000000
00000000
00000000
00010000
00000200
00000000
00010000
00000000
33001000
00000000
00010300
00000000
,
00001000
00000000
00010000
00000000
11000000
00000000
00000000
00000000
01000000
10000000
00001000
00100000
00000000
00010000
00000000
00000000
,
00000100
00000000
00010000
00000000
00000101
00000000
00000000
00000000
00010000
00000100
00000010
00002000
00000000
00000000
00000000
00000000
,
00010000
00013000
00200200
00000000
01300300
00000010
00011000
00000000
,
01000000
00000000
00000000
00000000
00010000
00000000
00000000
00000000
01001000
00000000
00000000
00000000
00000100
00000000
00000010
00001000
00010000
00000000
00100000
00000000
10000000
00000000
01000000
00010000
00001000
00000000
00000010
00000000
00000002
00000000
00000200
00000000
,
10100303
00000000
00000000
00000000
;
