#TITLE:MegaSonic;
#SUBTITLE:;
#ARTIST:Joshua Duarte;
#TITLETRANSLIT:;
#SUBTITLETRANSLIT:;
#ARTISTTRANSLIT:;
#CREDIT:JDDD;
#BANNER:MegaSonic-banner.png;
#BACKGROUND:MegaSonic-bg.png;
#LYRICSPATH:;
#CDTITLE:;
#MUSIC:MegaSonic.mp3;
#OFFSET:-0.020;
#SAMPLESTART:10.000;
#SAMPLELENGTH:12.000;
#SELECTABLE:YES;
#BPMS:0.000=169.960;
#STOPS:148.000=0.180
,149.000=0.180
,150.000=2.440
;
#BGCHANGES:;
// cache tags:
#FIRSTBEAT:0.000;
#LASTBEAT:247.000;
#SONGFILENAME:Songs/StepMix 2/MegaSonic/MegaSonic.sm;
#HASMUSIC:1;
#HASBANNER:1;
#MUSICLENGTH:95.843;
// end cache tags

//---------------dance-single - JDDD Fun----------------
#NOTES:
     dance-single:
     JDDD Fun:
     Hard:
     9:
     0.642,0.676,0.543,0.167,0.000,363.000,52.000,16.000,13.000,0.000:
1000
0100
0010
0000
0001
0100
0010
0000
,
1000
0001
0100
0001
1000
0100
0010
0000
,
0001
0100
0010
0000
1000
0001
0100
0000
,
0010
1000
0001
0010
0100
1000
0001
0000
,
0101
0101
0000
0010
0000
1000
0000
0100
,
0110
0010
0000
0001
0000
0100
0000
0010
,
1010
1000
0000
0101
0000
1000
0000
0100
,
0110
0000
0010
0001
0100
0010
1000
0000
,
0101
0100
0000
0010
0000
1100
0000
0101
,
0000
0001
0000
0100
0000
0000
0000
1000
,
0100
1000
0000
0110
0000
0011
0000
0010
,
0100
1000
0000
0101
0000
0110
0000
1000
,
0001
0010
0000
0110
0000
1100
0000
0001
,
0100
0010
0000
1000
0010
0100
0000
0001
,
0010
0100
0000
1100
0000
0011
0000
0100
,
0010
1000
0000
0101
0100
0010
0000
0010
,
1000
1100
0000
0011
0000
0110
0000
1000
,
0001
0100
0000
0120
0000
0001
0030
0010
,
2000
0100
000M
0010
,
0M00
0001
0M00
0010
,
000M
0100
00M0
0001
,
00M0
0100
000M
0010
,
0M00
0000
0001
0000
00M0
0000
0100
3000
,
0001
0010
0002
0103
0010
1000
0200
1300
,
0001
0100
0020
1030
0001
0010
0200
1300
,
0001
0100
0020
0130
0001
0010
0200
1300
,
0001
0100
0020
0130
0001
1000
0200
1300
,
0010
1000
0000
0001
0000
0010
0000
0100
,
0000
1100
0000
0101
0000
0010
0000
1000
,
0100
0010
0000
0101
0000
0110
0000
0000
,
1000
0100
0000
1000
0000
0010
0000
0010
,
0100
0001
0000
1100
0000
0010
0000
0100
,
0001
0100
0000
0010
1000
0100
0000
1000
,
0001
0010
0000
0011
0000
0101
0000
0100
,
0100
0010
0000
1000
1000
0100
0000
0100
,
0110
0011
0000
0101
0000
1001
0000
1100
,
0100
1000
0000
0101
0000
0101
0000
0000
,
2002
3003
2002
3003
2002
3000
0003
0000
,
1000
0100
1000
0010
0100
0001
0010
1000
,
0010
0001
0100
0010
0001
0010
0100
1000
,
0100
0010
1000
0100
0001
0100
0010
0001
,
0010
0100
0001
0100
1000
0010
0100
1000
,
0100
0010
0100
0001
0010
0100
0010
1000
,
0010
0001
0100
0010
0001
0010
1000
0010
,
0100
0001
0100
1000
0100
0001
0010
0100
,
1000
0100
0001
0100
0010
1000
0010
0100
,
0001
0100
0010
0001
0010
0100
1000
0010
,
0100
0001
0100
1000
0100
0010
1000
0100
,
1000
0010
0100
0001
0010
0001
0100
0010
,
0001
0010
0100
0001
0010
0100
1000
0001
,
0100
0001
0010
0100
1000
0001
0100
0010
,
0100
0001
0100
0010
1000
0001
0010
0100
,
1000
0001
0100
0001
0010
0100
1000
0001
,
0100
0001
010M
0010
100M
0010
010M
0010
,
100M
0001
0000
0011
0000
0101
0000
0010
,
1000
0100
0000
1100
0000
0101
0000
0100
,
0010
1000
0000
0011
0000
1010
0000
0010
,
0100
0000
0101
0100
0001
0010
0100
0000
,
1100
0100
0000
0110
0000
0011
0000
0100
,
0010
1000
0000
0101
0000
1100
0000
0010
,
0100
1000
0000
1000
0000
0101
0000
0010
,
0001
1000
0010
0100
0001
0010
1000
0000
;

//---------------dance-single - JDDD----------------
#NOTES:
     dance-single:
     JDDD:
     Medium:
     6:
     0.434,0.417,0.261,0.021,0.000,264.000,25.000,2.000,0.000,0.000:
1000
0100
0100
0010
,
0010
0000
0001
0000
0001
0100
0010
0000
,
1000
0001
0100
0010
,
1010
0000
0100
0000
1000
0100
0010
0000
,
1000
0100
0010
0001
,
0101
1001
1100
0110
,
0001
0010
0100
1000
,
0101
1001
1010
0100
,
1000
0001
0101
0001
,
1000
0100
1100
0000
,
0110
0100
1000
0001
,
0101
0101
0110
0010
,
1000
0100
0110
0000
,
0001
0100
0010
1000
,
0001
0010
0110
0010
,
0001
0100
0010
0100
,
0100
0010
1000
1000
,
0100
0010
0001
0100
,
0200
0010
0000
1000
,
0000
0010
0000
0001
,
0000
0010
0000
0001
,
0000
1000
0000
0010
,
0000
0001
0000
0310
,
1000
0010
0100
0001
,
0010
0100
1000
0001
,
0100
0001
0010
0100
,
1000
0100
1000
0000
0010
0000
0100
0000
,
0001
0010
0100
1000
,
0001
0100
0001
0000
0010
0000
0100
0000
,
1000
0100
1000
0000
0010
0000
0100
0000
,
0001
0010
0001
0000
0100
0000
0010
0000
,
1000
0100
0010
0000
0001
0000
0010
0000
,
0100
1000
0010
0000
0100
0000
0001
0000
,
1000
0010
0100
0000
0001
0000
0010
0000
,
0100
1000
0001
0000
0010
0000
0100
0000
,
1000
0001
0100
0000
0010
0000
1000
0000
,
0100
1000
0001
0000
0100
0010
1000
0000
,
1000
0000
0000
0000
0010
0000
0000
0000
0200
0300
0000
0000
0000
0000
0000
0000
,
0001
0100
0010
1000
,
0001
0101
1010
0001
,
0010
0100
0101
0100
,
0010
1000
1100
1000
,
0010
0100
0001
0011
,
0001
0100
0010
1000
,
1100
1000
0010
0110
,
0010
0100
0001
0010
,
0100
0011
0100
0010
,
1000
0100
1000
0010
,
0100
0101
0010
1000
,
0100
1000
0001
0100
,
0010
1000
0001
0010
,
0001
0100
0010
0100
,
1000
0100
0010
0100
,
0001
0010
0100
1000
,
1000
0100
0010
0000
1000
0100
0010
0000
,
0010
0100
1000
0000
1000
0100
0010
0000
,
0001
0100
0010
0000
0001
0100
0010
0000
,
0001
0100
0010
0000
0010
0100
0001
0000
,
1000
0001
0100
0000
0001
1000
0100
0000
,
0100
1000
0001
0000
0100
0001
1000
0000
,
0010
1000
0001
0000
0001
0010
0100
0000
,
0100
0010
0001
0010
0001
0000
0000
0000
;

//---------------dance-single - JDDD----------------
#NOTES:
     dance-single:
     JDDD:
     Easy:
     3:
     0.361,0.447,0.271,0.021,0.000,214.000,26.000,2.000,0.000,0.000:
1000
0010
0100
0000
,
0001
0010
0100
0000
,
1000
0001
0100
0000
,
0010
1000
0001
0000
,
0010
0100
1000
0000
,
0001
0100
0010
0000
,
1000
0001
0100
0000
,
0001
0010
0100
0000
,
1000
0010
0100
0001
,
0001
0100
0010
0000
,
1000
0001
0010
0100
,
0100
1000
0001
0000
,
0100
0010
1000
0001
,
0010
0100
0001
0000
,
1000
0100
0010
1000
,
0100
0001
0100
0000
,
1000
0100
0010
0001
,
0100
0010
1000
0000
,
0001
0100
0100
1000
,
0001
0100
0001
1000
,
0100
0010
0001
0100
,
0010
1000
0001
0010
,
0100
1000
1000
0100
,
0010
0001
0100
0010
,
1010
0100
0001
0010
,
0100
1000
0001
0100
,
0001
0001
0010
0100
,
1000
0001
0100
0010
,
0010
0100
0010
1000
,
0001
0010
0100
1000
,
1000
0010
0100
0001
,
1000
0010
1000
0001
,
0010
0100
1000
0001
,
0100
1000
0100
0001
,
0010
0100
1000
0001
,
0100
0010
1000
0001
,
0010
0100
1000
0010
,
0100
0100
0200
0300
,
1001
1001
1001
0000
,
0110
0110
0110
0000
,
1010
0101
1010
0000
,
0011
1100
0011
0000
,
1000
1001
1000
0001
,
0011
0001
1000
1100
,
0010
0010
0010
0100
,
0101
0100
0010
0010
,
0100
0010
0100
0010
,
1000
0100
0010
0100
,
0010
0100
1000
0001
,
0100
0010
0100
0001
,
0010
0100
1000
0100
,
0010
0001
0100
0010
,
1000
0001
0100
0001
,
1000
0100
0010
0001
,
0100
0000
1010
0000
,
0011
0000
1100
0000
,
0010
0000
0101
0000
,
1000
0000
1100
0000
,
0010
0000
0101
0000
,
1000
0000
1100
0000
,
0101
0000
2010
0000
,
3001
0001
0000
0000
;

//---------------dance-single - JDDD----------------
#NOTES:
     dance-single:
     JDDD:
     Beginner:
     1:
     0.218,0.225,0.021,0.021,0.000,142.000,2.000,2.000,0.000,0.000:
1000
0000
0100
0000
,
0010
0000
0100
0000
,
0010
0000
0100
0000
,
0100
0000
0010
0000
,
0001
0000
0100
0000
,
0010
0000
1000
0000
,
0100
0000
0010
0000
,
0001
0000
0010
0000
,
0001
0000
0100
0000
,
0110
0000
1001
0000
,
0010
0000
0100
0000
,
1000
0000
0001
0000
,
0010
0000
1000
0000
,
0100
0000
0010
0000
,
0001
0000
1000
0000
,
0100
0000
0010
0000
,
0100
0000
1000
0000
,
0001
0000
0100
0000
,
0010
0000
1000
0000
,
0100
0000
1000
0000
,
0001
0000
0010
0000
,
0100
0000
0010
0000
,
0001
0000
0100
0000
,
1000
0000
0100
0000
,
0010
0000
0100
0000
,
0001
0000
1000
0000
,
0100
0000
0010
0000
,
0100
0000
1000
0000
,
0001
0000
0010
0000
,
0010
0000
0001
0000
,
0100
0000
0010
0000
,
0100
0000
0010
0000
,
1000
0000
0001
0000
,
0100
0000
0010
0000
,
0200
0300
0000
0000
,
0010
0000
0100
0000
,
0001
0000
1000
0000
,
0020
0030
0000
0000
0000
0000
0000
0000
0000
0000
0000
0000
0000
0000
0000
0000
,
1000
1000
1000
0000
,
0010
0010
0010
0000
,
0100
0100
0100
0000
,
0001
0001
0001
0000
,
0010
0010
0010
0000
,
0100
0100
0100
0000
,
1000
1000
1000
0000
,
0001
0001
0001
0000
,
0100
0100
0100
0000
,
0010
0010
0010
0000
,
1000
1000
1000
0000
,
0001
0001
0001
0000
,
0010
0010
0010
0000
,
0100
0100
0100
0000
,
1000
1000
1000
0000
,
0001
0001
0001
0000
,
0100
0100
0100
0000
,
0010
0000
1000
0000
,
0001
0001
0001
0000
,
0010
0000
0100
0000
,
1000
1000
1000
0000
,
0100
0000
0010
0000
,
0001
0001
0001
0000
,
0100
0000
0010
0000
;

//---------------dance-single - JDDD----------------
#NOTES:
     dance-single:
     JDDD:
     Challenge:
     10:
     0.747,0.773,0.668,0.125,0.068,423.000,64.000,12.000,23.000,1.000:
1000
0100
0110
0000
0010
0001
0101
0000
,
0100
0010
0110
0010
1000
0100
1100
0000
,
0001
0100
0110
0000
0010
1000
0101
0000
,
0001
0010
0110
0100
0010
1100
0110
0000
,
0010
0011
0000
0101
0000
1100
0000
1001
,
0001
M010
00M0
M010
00M0
M010
00M0
M010
,
0002
0100
MM00
0100
0M03
0100
0M00
0100
,
0010
1000
0001
0010
0100
1000
1100
0000
,
1000
0001
0000
0101
0000
0110
0000
1010
,
0000
1000
0001
0100
0010
0000
0010
1000
,
0001
0010
0000
0110
0000
1100
0000
0001
,
0100
0010
0000
1001
0000
0101
0000
1000
,
0100
0010
0000
1100
0000
0101
0000
0100
,
0010
1000
0000
0001
0010
0100
0000
0001
,
0101
0001
0000
1000
0000
1010
0000
1000
,
1100
0100
0000
0100
0010
0100
0000
1000
,
0001
0000
0101
0001
0000
1100
0000
0110
,
0000
0001
0101
0100
0000
0010
0000
1100
,
0001
M011
0110
110M
,
1001
M101
0110
101M
,
0101
0100
10MM
1100
,
0100
0110
M011
0101
,
1010
0M0M
0101
0000
1000
0100
0110
0100
,
0010
0001
0101
0010
1000
0001
0011
0001
,
0100
0010
1010
1000
0100
1000
1010
0010
,
0100
0001
1010
0100
0010
1000
1100
1000
,
0001
0010
0101
0100
0010
1000
1100
0100
,
0010
0100
1100
1000
0001
0100
0110
0100
,
0001
0010
0011
0001
0100
0010
1001
1000
,
0200
M300
0010
0000
0000
0000
0201
0000
0300
000M
1020
0000
0030
M000
0000
0000
,
0100
0010
1000
0001
0010
0100
1000
0001
,
0100
0001
0010
0100
1000
0001
0100
0010
,
2000
3200
0310
0001
0200
0310
1000
0001
,
0020
0230
1300
0020
0130
0002
0013
0100
,
1000
0001
0100
0001
0010
0100
1000
0001
,
0100
0001
0010
0100
1000
0001
0100
0001
,
0010
1000
0010
0001
0100
0010
1000
0010
,
0100
0000
0100
0001
0100
0000
0100
0001
0200
0000
0300
0000
0000
0000
0000
0000
,
1111
0000
0001
0100
0001
0000
1000
0100
,
1000
0000
0001
0010
0001
0100
0010
1000
,
0001
0000
0010
0001
0100
0000
0010
1000
,
0100
1000
0010
0100
0001
1000
0100
0000
,
1000
0010
0100
0000
0001
0010
0100
0000
,
1000
0001
0100
0001
1000
0100
0010
0000
,
0001
0010
0001
0100
0010
0000
1000
0001
,
0100
1010
0011
0110
,
0100
0000
1000
0000
0001
0000
0100
0000
0010
0000
1000
0000
0001
0000
0010
0001
,
0100
0000
1000
0000
0001
0000
0100
0000
0001
0000
1000
0000
0100
0000
0010
1000
,
0001
0000
0100
0000
0010
0000
1000
0000
0001
0000
0010
0000
0100
0000
1000
0010
,
0001
0000
0100
0000
0010
0000
0100
0000
0001
0000
0010
0000
0100
0000
1000
0010
,
0001
0010
1000
0100
0010
0001
1000
0001
,
0100
0000
0010
1000
0100
0000
0001
0000
0010
0000
0100
0000
0001
0000
0100
1000
,
0010
0000
0100
0000
1000
0000
0001
0000
0010
0000
1000
0000
0010
0000
0001
1000
,
0100
0000
1000
0000
0100
0000
0010
0000
1000
0000
0100
0000
0001
0000
0100
1000
,
0010
0100
0001
0010
0001
0010
0100
0001
,
0010
0100
1000
0100
0001
0100
1000
0010
,
0100
0001
1000
0100
0001
0100
1000
0001
,
0100
0010
0100
0001
1000
0100
0001
0100
,
1000
0010
0001
0010
0100
0001
0100
1000
,
0100
0010
1000
0100
0001
0100
0010
0001
,
0010
1000
0010
0100
1000
0001
0100
0010
,
1000
0001
0010
0100
1000
0001
1000
0000
;

//---------------dance-double - JDDD----------------
#NOTES:
     dance-double:
     JDDD:
     Easy:
     4:
     0.359,0.447,0.261,0.021,0.000,214.000,25.000,2.000,0.000,0.000:
10000000
00100000
01000000
00000000
,
00010000
00100000
01000000
00000000
,
10000000
00010000
01000000
00000000
,
00100000
10000000
00010000
00000000
,
00010000
00100000
01000000
00000000
,
00001000
00100000
00010000
00000000
,
01000000
00001000
00100000
00000000
,
00001000
00010000
00100000
00000000
,
00100000
00001000
00010000
00000100
,
00000100
00010000
00001000
00000000
,
00100000
00000100
00001000
00010000
,
00010000
00100000
00000100
00000000
,
00001000
00000100
00010000
00000010
,
00000100
00001000
00000010
00000000
,
00010000
00001000
00000100
00010000
,
00001000
00000010
00001000
00000000
,
00001000
00000100
00000010
00000001
,
00000100
00000010
00001000
00000000
,
00000001
00000100
00000100
00001000
,
00000001
00000100
00000001
00001000
,
00001000
00000100
00000010
00001000
,
00000100
00010000
00000010
00000100
,
00001000
00010000
00010000
00001000
,
00000100
00000010
00001000
00000100
,
00101000
00010000
00000100
00001000
,
00010000
00100000
00000100
00010000
,
00000100
00000100
00001000
00010000
,
00100000
00000100
00010000
00001000
,
00010000
00100000
00010000
01000000
,
00001000
00010000
00100000
01000000
,
01000000
00010000
00100000
00001000
,
01000000
00010000
01000000
00001000
,
00100000
01000000
10000000
00010000
,
01000000
10000000
01000000
00010000
,
00100000
01000000
10000000
00010000
,
01000000
00100000
10000000
00010000
,
00010000
00100000
01000000
00010000
,
00100000
00100000
00200000
00300000
,
01001000
01001000
01001000
00000000
,
00110000
00110000
00110000
00000000
,
00101000
00010100
00101000
00000000
,
00001100
00110000
00001100
00000000
,
00100000
00100000
00100000
00000100
,
00001100
00000100
00100000
00110000
,
00000100
00000100
00000100
00001000
,
00001010
00001000
00000100
00000100
,
00001000
00000100
00001000
00000100
,
00010000
00001000
00000100
00001000
,
00000010
00000100
00001000
00000001
,
00000100
00000010
00000100
00000001
,
00000010
00000100
00001000
00000100
,
00000010
00000001
00000100
00000010
,
00010000
00000010
00001000
00000010
,
00010000
00001000
00000100
00000010
,
00001000
00000000
00010100
00000000
,
00000110
00000000
00011000
00000000
,
00001000
00000000
00010100
00000000
,
00100000
00000000
00110000
00000000
,
00001000
00000000
00010100
00000000
,
00100000
00000000
00110000
00000000
,
00101000
00000000
02010000
00000000
,
03001000
00001000
00000000
00000000
;

//---------------dance-double - JDDD----------------
#NOTES:
     dance-double:
     JDDD:
     Medium:
     7:
     0.434,0.417,0.261,0.021,0.000,264.000,25.000,2.000,0.000,0.000:
10000000
01000000
01000000
00100000
,
00100000
00000000
00010000
00000000
00010000
01000000
00100000
00000000
,
10000000
00010000
01000000
00100000
,
10100000
00000000
01000000
00000000
10000000
01000000
00100000
00000000
,
01000000
00100000
00010000
00001000
,
00101000
01001000
01100000
00110000
,
00001000
00010000
00100000
01000000
,
00101000
01001000
01010000
00100000
,
00100000
00000100
00010100
00000100
,
00100000
00010000
00110000
00000000
,
00011000
00010000
00100000
00000100
,
00010100
00010100
00011000
00001000
,
00010000
00001000
00001100
00000000
,
00000010
00001000
00000100
00010000
,
00000010
00000100
00001100
00000100
,
00000010
00001000
00000100
00001000
,
00000100
00000010
00001000
00001000
,
00000100
00000010
00000001
00000100
,
00000200
00000010
00000000
00001000
,
00000000
00000010
00000000
00000001
,
00000000
00000010
00000000
00000001
,
00000000
00001000
00000000
00000010
,
00000000
00000001
00000000
00000310
,
00001000
00000010
00000100
00000001
,
00000100
00001000
00010000
00000010
,
00001000
00000010
00000100
00001000
,
00010000
00001000
00010000
00000000
00000100
00000000
00001000
00000000
,
00000010
00000100
00001000
00010000
,
00000100
00010000
00000100
00000000
00001000
00000000
00010000
00000000
,
00100000
00010000
00100000
00000000
00001000
00000000
00010000
00000000
,
00000100
00001000
00000100
00000000
00010000
00000000
00001000
00000000
,
00100000
00010000
00001000
00000000
00000100
00000000
00001000
00000000
,
00100000
01000000
00010000
00000000
00100000
00000000
00001000
00000000
,
01000000
00010000
00100000
00000000
00001000
00000000
00010000
00000000
,
00100000
01000000
00001000
00000000
00010000
00000000
00100000
00000000
,
01000000
00001000
00100000
00000000
00010000
00000000
01000000
00000000
,
01000000
10000000
00010000
00000000
01000000
00100000
10000000
00000000
,
10000000
00000000
00000000
00000000
00100000
00000000
00000000
00000000
02000000
03000000
00000000
00000000
00000000
00000000
00000000
00000000
,
00010000
01000000
00100000
10000000
,
00010000
01010000
10100000
00010000
,
00010000
00100000
00101000
00100000
,
00010000
01000000
01100000
01000000
,
00010000
00100000
00001000
00011000
,
00001000
00100000
00010000
01000000
,
00110000
00100000
00001000
00011000
,
00001000
00010000
00000100
00001000
,
00010000
00001100
00010000
00001000
,
00100000
00010000
00100000
00001000
,
00001000
00001010
00000100
00010000
,
00001000
00010000
00000010
00001000
,
00000100
00010000
00000010
00000100
,
00000010
00001000
00000100
00001000
,
00001000
00000100
00000010
00000100
,
00000001
00000010
00000100
00001000
,
00001000
00000100
00000010
00000000
00001000
00000100
00000010
00000000
,
00000010
00000100
00001000
00000000
00001000
00000100
00000010
00000000
,
00000010
00001000
00000100
00000000
00000010
00001000
00000100
00000000
,
00000010
00001000
00000100
00000000
00000100
00001000
00000010
00000000
,
00010000
00000010
00001000
00000000
00000010
00010000
00001000
00000000
,
00001000
00010000
00000010
00000000
00001000
00000010
00010000
00000000
,
00001000
00100000
00000100
00000000
00000100
00001000
00010000
00000000
,
00010000
00001000
00000100
00001000
00000100
00000000
00000000
00000000
;

//---------------dance-double - JDDD Fun----------------
#NOTES:
     dance-double:
     JDDD Fun:
     Hard:
     10:
     0.642,0.676,0.543,0.167,0.000,363.000,52.000,16.000,13.000,0.000:
10000000
01000000
00100000
00000000
00010000
01000000
00100000
00000000
,
10000000
00010000
01000000
00010000
10000000
01000000
00100000
00000000
,
00010000
01000000
00100000
00000000
10000000
00010000
01000000
00000000
,
00100000
10000000
00010000
00100000
01000000
10000000
00010000
00000000
,
00101000
00101000
00000000
00010000
00000000
01000000
00000000
00100000
,
00110000
00010000
00000000
00001000
00000000
00100000
00000000
00010000
,
01010000
01000000
00000000
00101000
00000000
01000000
00000000
00100000
,
00110000
00000000
00010000
00001000
00100000
00010000
01000000
00000000
,
00010100
00010000
00000000
00001000
00000000
00110000
00000000
00010100
,
00000000
00000100
00000000
00010000
00000000
00000000
00000000
00100000
,
00010000
00100000
00000000
00011000
00000000
00001100
00000000
00001000
,
00010000
00100000
00000000
00010100
00000000
00011000
00000000
00100000
,
00000010
00000100
00000000
00001100
00000000
00011000
00000000
00000010
,
00001000
00000100
00000000
00010000
00000100
00001000
00000000
00000010
,
00000100
00001000
00000000
00011000
00000000
00000110
00000000
00001000
,
00000100
00010000
00000000
00001010
00001000
00000100
00000000
00000100
,
00001000
00001100
00000000
00000011
00000000
00000110
00000000
00001000
,
00000001
00000100
00000000
00000120
00000000
00000001
00000030
00000010
,
00002000
00000100
0000000M
00000010
,
00000M00
00000001
00000M00
00000010
,
0000000M
00000100
000000M0
00000001
,
000000M0
00000100
0000000M
00000010
,
00000M00
00000000
00000001
00000000
000000M0
00000000
00000100
00003000
,
00000001
00000010
00000002
00000103
00000010
00001000
00000200
00001300
,
00000010
00001000
00000200
00010300
00000010
00000100
00002000
00013000
,
00000010
00001000
00000200
00001300
00000010
00000100
00002000
00013000
,
00000010
00001000
00000200
00001300
00000010
00010000
00002000
00013000
,
00000100
00010000
00000000
00000010
00000000
00000100
00000000
00001000
,
00000000
00110000
00000000
00010100
00000000
00001000
00000000
00100000
,
00010000
00001000
00000000
00010100
00000000
00011000
00000000
00000000
,
00100000
00010000
00000000
00100000
00000000
00001000
00000000
00001000
,
00010000
00000100
00000000
00110000
00000000
00001000
00000000
00010000
,
00001000
00100000
00000000
00010000
01000000
00100000
00000000
01000000
,
00001000
00010000
00000000
00011000
00000000
00101000
00000000
00100000
,
00100000
00010000
00000000
01000000
01000000
00100000
00000000
00100000
,
00110000
00011000
00000000
00101000
00000000
01001000
00000000
01100000
,
01000000
10000000
00000000
01010000
00000000
01010000
00000000
00000000
,
20020000
30030000
20020000
30030000
20020000
30000000
00030000
00000000
,
10000000
01000000
10000000
00100000
01000000
00010000
00100000
10000000
,
00100000
00010000
01000000
00100000
00010000
00100000
01000000
10000000
,
00100000
00010000
01000000
00100000
00001000
00100000
00010000
00001000
,
00010000
00100000
00001000
00100000
01000000
00010000
00100000
01000000
,
00100000
00010000
00100000
00001000
00010000
00100000
00010000
01000000
,
00010000
00001000
00100000
00010000
00001000
00010000
01000000
00010000
,
00010000
00000100
00010000
00100000
00010000
00000100
00001000
00010000
,
00100000
00010000
00000100
00010000
00001000
00100000
00001000
00010000
,
00000100
00010000
00001000
00000100
00001000
00010000
00100000
00001000
,
00010000
00000100
00010000
00100000
00010000
00001000
00100000
00010000
,
00010000
00000100
00001000
00000010
00000100
00000010
00001000
00000100
,
00000010
00000100
00001000
00000010
00000100
00001000
00010000
00000010
,
00001000
00000010
00000100
00001000
00010000
00000010
00001000
00000100
,
00001000
00000010
00001000
00000100
00010000
00000010
00000100
00001000
,
00001000
00000001
00000100
00000001
00000010
00000100
00001000
00000001
,
00000100
00000001
0000010M
00000010
0000100M
00000010
0000010M
00000010
,
0000100M
00000001
00000000
00000011
00000000
00000101
00000000
00000010
,
00001000
00000100
00000000
00001100
00000000
00000101
00000000
00000100
,
00000100
00010000
00000000
00000110
00000000
00010100
00000000
00000100
,
00001000
00000000
00001010
00001000
00000010
00000100
00001000
00000000
,
00011000
00001000
00000000
00001100
00000000
00000110
00000000
00001000
,
00000100
00010000
00000000
00001010
00000000
00011000
00000000
00000100
,
00010000
00100000
00000000
00100000
00000000
00010100
00000000
00001000
,
00000100
00100000
00001000
00010000
00000100
00001000
00100000
00000000
;

//---------------dance-double - Copied from JDDD----------------
#NOTES:
     dance-double:
     Copied from JDDD:
     Beginner:
     2:
     0.218,0.225,0.021,0.021,0.000,142.000,2.000,2.000,0.000,0.000:
10000000
00000000
01000000
00000000
,
00100000
00000000
01000000
00000000
,
00100000
00000000
01000000
00000000
,
01000000
00000000
00100000
00000000
,
00010000
00000000
01000000
00000000
,
00100000
00000000
10000000
00000000
,
01000000
00000000
00100000
00000000
,
00010000
00000000
00100000
00000000
,
00010000
00000000
01000000
00000000
,
01100000
00000000
10010000
00000000
,
00100000
00000000
01000000
00000000
,
10000000
00000000
00010000
00000000
,
00100000
00000000
10000000
00000000
,
01000000
00000000
00100000
00000000
,
00010000
00000000
10000000
00000000
,
01000000
00000000
00100000
00000000
,
01000000
00000000
10000000
00000000
,
00010000
00000000
01000000
00000000
,
00100000
00000000
10000000
00000000
,
01000000
00000000
10000000
00000000
,
00010000
00000000
00100000
00000000
,
01000000
00000000
00100000
00000000
,
00010000
00000000
01000000
00000000
,
10000000
00000000
01000000
00000000
,
00100000
00000000
01000000
00000000
,
00010000
00000000
10000000
00000000
,
01000000
00000000
00100000
00000000
,
01000000
00000000
10000000
00000000
,
00010000
00000000
00100000
00000000
,
00100000
00000000
00010000
00000000
,
01000000
00000000
00100000
00000000
,
01000000
00000000
00100000
00000000
,
10000000
00000000
00010000
00000000
,
01000000
00000000
00100000
00000000
,
02000000
03000000
00000000
00000000
,
00100000
00000000
01000000
00000000
,
00010000
00000000
10000000
00000000
,
00200000
00300000
00000000
00000000
00000000
00000000
00000000
00000000
00000000
00000000
00000000
00000000
00000000
00000000
00000000
00000000
,
10000000
10000000
10000000
00000000
,
00100000
00100000
00100000
00000000
,
01000000
01000000
01000000
00000000
,
00010000
00010000
00010000
00000000
,
00100000
00100000
00100000
00000000
,
01000000
01000000
01000000
00000000
,
10000000
10000000
10000000
00000000
,
00010000
00010000
00010000
00000000
,
01000000
01000000
01000000
00000000
,
00100000
00100000
00100000
00000000
,
10000000
10000000
10000000
00000000
,
00010000
00010000
00010000
00000000
,
00100000
00100000
00100000
00000000
,
01000000
01000000
01000000
00000000
,
10000000
10000000
10000000
00000000
,
00010000
00010000
00010000
00000000
,
01000000
01000000
01000000
00000000
,
00100000
00000000
10000000
00000000
,
00010000
00010000
00010000
00000000
,
00100000
00000000
01000000
00000000
,
10000000
10000000
10000000
00000000
,
01000000
00000000
00100000
00000000
,
00010000
00010000
00010000
00000000
,
01000000
00000000
00100000
00000000
;

//---------------dance-solo - Copied from JDDD----------------
#NOTES:
     dance-solo:
     Copied from JDDD:
     Beginner:
     2:
     0.218,0.225,0.021,0.021,0.000,142.000,2.000,2.000,0.000,0.000:
100000
000000
000010
000000
,
001000
000000
000010
000000
,
001000
000000
010000
000000
,
010000
000000
001000
000000
,
000001
000000
010000
000000
,
001000
000000
100000
000000
,
010000
000000
000001
000000
,
000100
000000
001000
000000
,
000100
000000
000010
000000
,
001010
000000
000101
000000
,
001000
000000
000010
000000
,
000001
000000
000100
000000
,
001000
000000
000001
000000
,
000010
000000
001000
000000
,
000100
000000
000001
000000
,
000010
000000
001000
000000
,
000010
000000
000001
000000
,
000100
000000
000010
000000
,
001000
000000
100000
000000
,
010000
000000
100000
000000
,
000100
000000
001000
000000
,
010000
000000
001000
000000
,
000100
000000
010000
000000
,
100000
000000
010000
000000
,
001000
000000
010000
000000
,
000100
000000
100000
000000
,
000010
000000
001000
000000
,
000010
000000
000001
000000
,
000100
000000
001000
000000
,
001000
000000
000100
000000
,
000010
000000
001000
000000
,
000010
000000
001000
000000
,
000001
000000
000100
000000
,
000010
000000
001000
000000
,
000020
000030
000000
000000
,
001000
000000
000010
000000
,
000100
000000
000001
000000
,
002000
003000
000000
000000
000000
000000
000000
000000
000000
000000
000000
000000
000000
000000
000000
000000
,
100000
100000
100000
000000
,
001000
001000
001000
000000
,
010000
010000
010000
000000
,
000100
000100
000100
000000
,
001000
001000
001000
000000
,
000010
000010
000010
000000
,
000001
000001
000001
000000
,
000100
000100
000100
000000
,
000010
000010
000010
000000
,
001000
001000
001000
000000
,
000001
000001
000001
000000
,
000100
000100
000100
000000
,
001000
001000
001000
000000
,
000010
000010
000010
000000
,
100000
100000
100000
000000
,
000100
000100
000100
000000
,
010000
010000
010000
000000
,
001000
000000
100000
000000
,
000100
000100
000100
000000
,
001000
000000
010000
000000
,
100000
000001
100000
000000
,
010000
000000
001000
000000
,
000100
000100
000100
000000
,
000010
000000
001000
000000
;

//---------------dance-solo - JDDD----------------
#NOTES:
     dance-solo:
     JDDD:
     Easy:
     4:
     0.361,0.447,0.271,0.021,0.000,214.000,26.000,2.000,0.000,0.000:
100000
001000
010000
000000
,
000100
001000
010000
000000
,
100000
000100
010000
000000
,
001000
100000
000100
000000
,
000100
001000
010000
000000
,
000010
001000
000100
000000
,
010000
000010
001000
000000
,
000010
000100
001000
000000
,
001000
000010
000100
000001
,
000001
000100
000010
000000
,
001000
000001
000010
000100
,
000100
001000
000001
000000
,
001000
000100
010000
000010
,
000100
001000
000010
000000
,
010000
001000
000100
010000
,
001000
000010
001000
000000
,
100000
010000
001000
000100
,
010000
001000
100000
000000
,
000100
010000
010000
100000
,
000100
010000
000100
100000
,
001000
000100
000010
001000
,
000100
010000
000010
000100
,
001000
010000
010000
001000
,
000100
000010
001000
000100
,
001010
000100
000001
000010
,
000100
001000
000001
000100
,
000001
000001
000010
000100
,
001000
000001
000100
000010
,
000100
001000
000100
010000
,
000010
000100
001000
010000
,
010000
000100
001000
000010
,
010000
000100
010000
000010
,
001000
010000
100000
000100
,
010000
100000
010000
000100
,
001000
010000
100000
000100
,
010000
001000
100000
000100
,
000100
001000
010000
000100
,
001000
001000
002000
003000
,
010010
010010
010010
000000
,
001100
001100
001100
000000
,
001010
000101
001010
000000
,
000011
001100
000011
000000
,
001000
001001
001000
000001
,
000011
000001
001000
001100
,
000100
000100
000100
001000
,
001010
001000
000100
000100
,
001000
000100
001000
000100
,
010000
001000
000100
001000
,
001000
010000
100000
000100
,
010000
001000
010000
000100
,
001000
010000
100000
010000
,
001000
000100
010000
001000
,
010000
000010
001000
000010
,
010000
001000
000100
000010
,
001000
000000
010100
000000
,
000110
000000
011000
000000
,
000010
000000
000101
000000
,
001000
000000
001100
000000
,
000010
000000
000101
000000
,
001000
000000
001100
000000
,
001010
000000
020100
000000
,
030010
000010
000000
000000
;

//---------------dance-solo - JDDD----------------
#NOTES:
     dance-solo:
     JDDD:
     Medium:
     7:
     0.434,0.417,0.261,0.021,0.000,264.000,25.000,2.000,0.000,0.000:
100000
010000
010000
001000
,
001000
000000
000100
000000
000100
010000
001000
000000
,
100000
000100
010000
001000
,
101000
000000
010000
000000
100000
010000
001000
000000
,
010000
001000
000100
000010
,
001010
010010
011000
001100
,
000010
000100
001000
010000
,
001010
010010
010100
001000
,
001000
000001
000101
000001
,
001000
000100
001100
000000
,
000110
000100
001000
000001
,
000101
000101
000110
000010
,
010000
001000
001100
000000
,
000010
001000
000100
010000
,
000010
000100
001100
000100
,
000010
001000
000100
001000
,
010000
001000
100000
100000
,
010000
001000
000100
010000
,
020000
001000
000000
100000
,
000000
001000
000000
000100
,
000000
001000
000000
000100
,
000000
100000
000000
001000
,
000000
000100
000000
031000
,
100000
001000
010000
000100
,
000100
001000
010000
000010
,
001000
000010
000100
001000
,
010000
001000
010000
000000
000100
000000
001000
000000
,
000010
000100
001000
010000
,
000001
000100
000001
000000
000010
000000
000100
000000
,
001000
000100
001000
000000
000010
000000
000100
000000
,
000001
000010
000001
000000
000100
000000
000010
000000
,
001000
000100
000010
000000
000001
000000
000010
000000
,
001000
010000
000100
000000
001000
000000
000010
000000
,
010000
000100
001000
000000
000010
000000
000100
000000
,
001000
010000
000010
000000
000100
000000
001000
000000
,
010000
000010
001000
000000
000100
000000
010000
000000
,
010000
100000
000100
000000
010000
001000
100000
000000
,
100000
000000
000000
000000
001000
000000
000000
000000
020000
030000
000000
000000
000000
000000
000000
000000
,
000100
010000
001000
100000
,
000100
010100
101000
000100
,
000100
001000
001010
001000
,
000100
010000
011000
010000
,
000100
001000
000010
000110
,
000010
001000
000100
010000
,
001100
001000
000010
000110
,
000010
000100
000001
000010
,
000100
000011
000100
000010
,
001000
000100
001000
000010
,
001000
001010
000100
010000
,
001000
010000
000010
001000
,
000100
010000
000010
000100
,
000010
001000
000100
001000
,
100000
010000
001000
010000
,
000100
001000
010000
100000
,
100000
010000
001000
000000
100000
010000
001000
000000
,
001000
010000
100000
000000
100000
010000
001000
000000
,
000010
001000
000100
000000
000010
001000
000100
000000
,
000010
001000
000100
000000
000100
001000
000010
000000
,
010000
000010
001000
000000
000010
010000
001000
000000
,
001000
010000
000010
000000
001000
000010
010000
000000
,
000010
001000
000001
000000
000001
000010
000100
000000
,
000100
000010
000001
000010
000001
000000
000000
000000
;

//---------------dance-solo - JDDD Fun----------------
#NOTES:
     dance-solo:
     JDDD Fun:
     Hard:
     10:
     0.642,0.676,0.543,0.167,0.000,363.000,52.000,16.000,13.000,0.000:
100000
010000
001000
000000
000100
010000
001000
000000
,
100000
000100
010000
000100
100000
010000
001000
000000
,
000100
010000
001000
000000
100000
000100
010000
000000
,
001000
100000
000100
001000
010000
100000
000100
000000
,
001010
001010
000000
000100
000000
010000
000000
001000
,
001100
000100
000000
000010
000000
001000
000000
000100
,
010100
010000
000000
001010
000000
010000
000000
001000
,
001100
000000
000100
000010
001000
000100
010000
000000
,
000101
000100
000000
000010
000000
001100
000000
000101
,
000000
000001
000000
000100
000000
000000
000000
001000
,
000100
001000
000000
000110
000000
000011
000000
000010
,
000100
001000
000000
000101
000000
000110
000000
001000
,
000010
000100
000000
001100
000000
011000
000000
000010
,
001000
000100
000000
010000
000100
001000
000000
000010
,
000100
001000
000000
011000
000000
000110
000000
001000
,
000100
010000
000000
001010
001000
000100
000000
000100
,
100000
110000
000000
001100
000000
011000
000000
100000
,
000100
010000
000000
012000
000000
000100
003000
001000
,
200000
010000
000M00
001000
,
0M0000
000100
0M0000
001000
,
000M00
010000
00M000
000100
,
00M000
010000
000M00
001000
,
0M0000
000000
000100
000000
00M000
000000
010000
300000
,
000100
001000
000200
010300
001000
100000
020000
130000
,
000010
001000
000200
010300
000010
000100
002000
013000
,
000010
001000
000200
001300
000010
000100
002000
013000
,
000010
001000
000200
001300
000010
010000
002000
013000
,
000100
010000
000000
000010
000000
000100
000000
001000
,
000000
001100
000000
000101
000000
000010
000000
001000
,
000100
000010
000000
000101
000000
000110
000000
000000
,
001000
000100
000000
001000
000000
000010
000000
000010
,
000100
000001
000000
001100
000000
000010
000000
000100
,
000010
001000
000000
000100
010000
001000
000000
010000
,
000010
000100
000000
000110
000000
001010
000000
001000
,
001000
000100
000000
010000
010000
001000
000000
001000
,
001100
000110
000000
001010
000000
010010
000000
011000
,
010000
100000
000000
010100
000000
010100
000000
000000
,
200200
300300
200200
300300
200200
300000
000300
000000
,
100000
010000
100000
001000
010000
000100
001000
100000
,
001000
000100
010000
001000
000100
001000
010000
100000
,
001000
000100
010000
001000
000010
001000
000100
000010
,
000100
001000
000010
001000
010000
000100
001000
010000
,
001000
000100
001000
000010
000100
001000
000100
010000
,
000100
000010
001000
000100
000010
000100
010000
000100
,
000100
000001
000100
001000
000100
000001
000010
000100
,
001000
000100
000001
000100
000010
001000
000010
000100
,
000001
000100
000010
000001
000010
000100
001000
000010
,
000100
000001
000100
001000
000100
000010
001000
000100
,
010000
000100
001000
000010
000100
000010
001000
000100
,
000010
000100
001000
000010
000100
001000
010000
000010
,
001000
000010
000100
001000
010000
000010
001000
000100
,
001000
000010
001000
000100
010000
000010
000100
001000
,
100000
000100
010000
000100
001000
010000
100000
000100
,
010000
000100
010M00
001000
100M00
001000
010M00
001000
,
100M00
000100
000000
001100
000000
010100
000000
001000
,
100000
010000
000000
110000
000000
010100
000000
010000
,
000100
010000
000000
000110
000000
010100
000000
000100
,
001000
000000
001010
001000
000010
000100
001000
000000
,
011000
001000
000000
001100
000000
000110
000000
001000
,
000100
010000
000000
001010
000000
011000
000000
000100
,
000100
001000
000000
001000
000000
000101
000000
000010
,
000001
001000
000010
000100
000001
000010
001000
000000
;

//---------------pump-single - JDDD----------------
#NOTES:
     pump-single:
     JDDD:
     Hard:
     9:
     0.586,0.548,0.115,0.010,0.000,381.000,11.000,1.000,0.000,0.000:
00100
01000
00010
00000
00100
00010
01000
00000
,
00100
01000
00010
00100
00010
01000
00100
00000
,
10000
00100
01000
00000
01000
00010
00100
00000
,
00100
00001
00010
00100
01000
00010
00100
00000
,
01000
00100
00000
00010
00000
10000
00000
01000
,
00000
00000
00000
10000
00000
00000
00000
00000
,
00100
00010
00000
01000
00000
00100
00000
00000
,
10000
01000
00000
00100
00000
00010
00000
01000
,
00100
01000
00000
00010
00000
00100
00000
00001
,
00010
00001
00000
00001
00100
00001
00000
00100
,
00010
01000
00000
00100
00000
10000
00000
10000
,
00100
01000
00000
01000
00010
00100
00000
00100
,
00001
00010
00000
00100
00000
00100
00000
01000
,
00010
00100
00000
00100
00000
00110
00000
00000
,
00000
11000
00000
00110
,
00000
00011
00000
11000
,
00000
01010
00000
10001
,
00000
01010
00000
10001
,
00000
01010
00000
10001
,
00000
10000
00100
01000
,
00100
10000
00010
01000
,
00100
01000
00010
00100
,
00001
00100
00010
01000
,
00100
10000
00001
00010
,
00100
00000
01000
00000
01000
00100
01000
00100
,
10000
01000
00100
00010
01000
00100
01000
00010
,
00100
00001
00100
00010
00100
00010
10000
00100
,
01000
00100
01000
10000
01000
00100
01000
00010
,
00100
00001
00100
00010
01000
00100
10000
00010
,
00100
00010
01000
00100
01000
00010
00100
00001
,
00100
00010
01000
00100
10000
01000
10000
00100
,
01000
00010
01000
00001
00010
00100
01000
00100
,
10000
00100
00001
00100
00010
00100
01000
00001
,
00100
00010
01000
00100
10000
00100
01000
00100
,
00010
00100
01000
00010
00100
00001
00100
00010
,
01000
00100
10000
01000
10000
00100
01000
00010
,
00100
01000
00100
00010
00100
00001
00010
00100
,
01000
00000
01000
00000
02000
03000
00000
00000
,
10000
00001
10000
00001
10000
00001
10000
00001
,
01000
00010
01000
00010
01000
00010
01000
00010
,
00100
00010
00100
00010
00100
01000
00100
01000
,
00100
00010
01000
00100
01000
00010
00100
00001
,
10000
00100
10000
00001
00100
00001
10000
00100
,
01000
00010
00100
00001
00100
00010
01000
00100
,
10000
00100
01000
00100
10000
00010
00100
00001
,
00100
00010
01000
00100
10000
00100
01000
00100
,
00010
00100
00001
00100
10000
00100
01000
00100
,
00010
00100
01000
00001
00100
00010
01000
00100
,
10000
01000
10000
00100
01000
00010
00100
00001
,
00010
00001
00100
00010
10000
00100
01000
00100
,
01000
00010
00100
00001
00100
00010
10000
00100
,
01000
00100
10000
00010
00100
00001
01000
00100
,
01000
00001
00100
00001
10000
00010
00100
00010
,
10000
00100
10000
00010
00100
00010
01000
00100
,
10000
00100
10000
00100
01000
00100
01000
00010
,
00100
00001
00100
00010
00100
00001
00010
00001
,
00100
00010
01000
00100
10000
00100
01000
00100
,
10000
00100
01000
00010
00100
00001
00100
00000
,
01000
00100
01000
00010
,
00100
00001
01000
00010
,
00100
10000
01000
00100
,
00010
00001
00010
00100
;
