#TITLE:Love Hina Again;
#SUBTITLE:- Be For You, Be For Me [Keitaro & Naru Version];
#ARTIST:Yuji Ueda/Yui Horie;
#TITLETRANSLIT:;
#SUBTITLETRANSLIT:;
#ARTISTTRANSLIT:;
#CREDIT:Anime Toshokan;
#BANNER:Love Hina Again - Be For You, Be For Me [Keitaro & Naru Version].png;
#BACKGROUND:Love Hina Again - Be For You, Be For Me [Keitaro & Naru Version] bg.png;
#LYRICSPATH:;
#CDTITLE:dejiko.png;
#MUSIC:Love Hina Again - Be For You, Be For Me [Keitaro & Naru Version].mp3;
#OFFSET:-0.067;
#SAMPLESTART:51.360;
#SAMPLELENGTH:18.200;
#SELECTABLE:YES;
#DISPLAYBPM:210.000;
#BPMS:0.000=210.170,60.000=210.360,176.000=211.250,188.000=210.290;
#STOPS:;
#BGCHANGES:;
// cache tags:
#FIRSTBEAT:40.000;
#LASTBEAT:304.000;
#SONGFILENAME:Songs/DDR Anime 5th Mix/Love Hina Again - Be For You, Be For Me [Keitaro & Naru Version]/Love Hina Again - Be For You, Be For Me [Keitaro & Naru Version].sm;
#HASMUSIC:1;
#HASBANNER:1;
#MUSICLENGTH:88.973;
// end cache tags

//---------------dance-single - BASIC----------------
#NOTES:
     dance-single:
     BASIC:
     Easy:
     3:
     0.218,0.384,0.214,0.056,0.000,112.000,19.000,5.000,0.000,0.000:
0000
0000
0000
0000
,
0000
0000
0000
0000
,
0000
0000
0000
0000
,
0000
0000
0000
0000
,
0000
0000
0000
0000
,
0000
0000
0000
0000
,
0000
0000
0000
0000
,
0000
0000
0000
0000
,
0000
0000
0000
0000
,
0000
0000
0000
0000
,
0001
0000
0001
0000
,
1000
0000
1000
0000
,
0010
0000
0010
0000
,
1001
0000
0000
0000
,
1000
0000
0010
0000
,
0001
0000
0000
0000
,
0001
0000
0100
0000
,
1000
0000
0000
0000
,
1000
0000
1000
0000
,
0001
0000
0001
0000
,
0100
0000
0100
0000
,
1001
0000
0000
0000
,
0001
0000
0010
0000
,
1000
0000
0000
0000
,
1000
0000
0100
0000
,
0001
0000
0000
0000
,
0100
0000
0100
0000
,
0001
0000
0001
0000
,
0010
0000
1000
0000
,
0100
0000
0001
0000
,
1000
0000
0100
0000
,
0001
0000
0100
0000
,
1000
0000
0001
0000
,
1000
0000
1001
0000
,
0010
0000
0100
0000
,
0010
0000
0100
0000
,
0001
0000
1000
0000
,
0010
0000
0100
0000
,
0001
0000
0010
0000
,
2000
0000
0000
3000
,
0100
0000
0010
0000
,
0002
0000
1000
0000
,
0000
0000
1000
0000
,
0000
0000
0100
0000
,
1000
0003
0000
0000
,
0011
0000
1100
0000
,
1001
0000
0000
0000
,
1010
0000
0110
0000
,
0101
0000
0000
0000
,
1000
0000
0010
0000
,
0001
0000
0000
0000
,
0001
0000
0100
0000
,
1000
0000
0110
0000
,
1001
0000
0101
0000
,
1100
0000
0000
0000
,
1100
0000
0110
0000
,
0011
0000
0000
0000
,
1000
0000
0001
0000
,
2000
0000
0000
3000
,
0001
0000
1000
0000
,
0002
0000
0000
0000
,
2000
0000
0000
0000
,
0000
0000
0000
0000
,
3003
0000
0010
0000
,
1000
0000
0100
0000
,
0001
0000
0010
0000
,
0100
0000
0010
0000
,
1000
0000
0001
0000
,
1000
0000
0001
0000
,
0010
0000
1000
0000
,
0100
0000
0001
0000
,
0010
0000
0001
0000
,
0100
0000
1000
0000
,
0010
0000
0100
0000
,
0010
0000
0100
0000
,
1001
0000
0110
0000
,
1001
0000
0000
0000
;

//---------------dance-single - ANOTHER----------------
#NOTES:
     dance-single:
     ANOTHER:
     Medium:
     6:
     0.361,0.470,0.157,0.247,0.006,189.000,14.000,22.000,0.000,0.000:
0000
0000
0000
0000
,
0000
0000
0000
0000
,
0000
0000
0000
0000
,
0000
0000
0000
0000
,
0000
0000
0000
0000
,
0000
0000
0000
0000
,
0000
0000
0000
0000
,
0000
0000
0000
0000
,
0000
0000
0000
0000
,
0000
0000
0000
0000
,
1000
1000
1000
0000
,
0001
0100
0001
0000
,
1000
0000
0010
0100
0000
0001
0000
1000
,
0000
0000
0000
0000
,
0001
0000
0001
1000
0000
1000
0000
0002
,
0000
0000
0000
0003
0000
0000
0000
0000
,
0100
0000
0100
1000
0000
1000
0000
0002
,
0000
0000
0000
0003
,
1000
0100
1000
0000
,
0001
0100
1000
0000
,
1000
0000
0100
0001
0000
0010
0000
1000
,
0000
0000
0000
0000
0000
0000
0000
0001
,
0010
0000
0100
0001
0000
1000
0000
0001
,
0000
0000
0000
0000
0000
0000
0000
1000
,
0010
0000
0100
1000
0000
0001
0000
1000
,
0000
0000
0020
0030
,
2000
0000
3002
0000
,
0020
0003
0000
0000
0200
0030
0000
0000
,
2300
0000
0000
0000
,
0002
0000
3003
0000
,
0001
0100
1000
0100
,
0001
0010
1000
0010
,
0002
0000
0000
0000
,
2000
0000
0000
3003
,
1000
0100
1000
0000
,
0001
0100
0001
0010
,
1000
0000
0101
0000
,
1100
0000
0000
0001
,
1000
0000
0100
0010
0000
0100
0000
1000
,
0000
0000
0000
0010
,
1000
0000
0010
0100
0010
0000
1000
0001
,
0000
0000
0000
1000
1000
1000
0000
0001
,
0001
0001
0000
0100
0100
0100
0000
0000
,
2002
0000
0000
3003
,
0001
1000
0010
0100
0001
0000
0000
0000
,
1000
0000
0100
0000
0001
0000
0100
1000
,
0000
0100
0000
0000
,
1000
0000
0001
0000
0100
0000
0001
1000
,
0000
0010
0000
0000
,
1000
0000
0110
0000
0100
0001
0000
1000
,
0000
0000
0000
0010
,
0101
0010
1000
0001
,
0010
0000
0100
1000
0000
0000
0000
0000
,
0001
0000
0100
0000
1000
0000
0100
0001
,
0000
0100
0000
0010
,
0001
0000
1000
0000
0001
0000
0010
0001
,
0000
0100
0000
0000
,
0010
0000
0110
0000
0100
1000
0000
0000
,
0202
0000
0303
0000
,
0010
0000
0110
0000
0100
0001
0000
0000
,
2200
0000
3300
0000
,
1000
0000
0000
0001
0000
0000
0020
0000
,
0000
0000
0030
0000
,
2200
0000
0000
0000
,
0000
0000
0000
3300
,
1001
0100
1000
0010
,
0100
0001
0000
1000
0000
0000
0001
0000
,
1000
0000
0100
0010
0000
0000
0001
0000
,
0010
0100
0010
1000
,
0001
0110
1000
0001
,
0100
0010
0000
1000
0000
0000
0010
0000
,
0100
0000
0001
1000
0000
0000
0100
0000
,
0001
0000
0000
0000
1000
0000
0000
0000
0110
0000
0000
0000
0000
0000
0000
0202
,
0000
0000
0000
0000
,
0000
0000
0000
0303
,
0000
0001
0000
0010
0010
0100
0000
1000
,
0001
0000
0000
0000
;

//---------------dance-single - MANIAC----------------
#NOTES:
     dance-single:
     MANIAC:
     Hard:
     9:
     0.607,0.726,0.495,0.393,0.006,299.000,44.000,35.000,0.000,0.000:
0000
0000
0000
0000
,
0000
0000
0000
0000
,
0000
0000
0000
0000
,
0000
0000
0000
0000
,
0000
0000
0000
0000
,
0000
0000
0000
0000
,
0000
0000
0000
0000
,
0000
0000
0000
0000
,
0000
0000
0000
0000
,
0000
0000
0000
0000
,
1000
0010
0100
0001
0000
0010
0000
0001
,
0001
0010
0100
1000
0000
0100
0000
0000
,
1000
0001
0010
0100
0000
0101
0000
2200
,
0000
3300
0000
0000
0010
0001
0100
0010
,
1000
1000
0001
0001
0000
1100
0000
0202
,
0000
0303
0000
0000
0010
1000
0100
0010
,
0001
0010
0100
1000
0000
0011
0000
2200
,
0000
3300
0000
0000
0010
1000
0001
0010
,
1000
0010
0001
0010
,
1000
0100
0010
0100
,
1000
0100
0001
0100
0000
1001
0000
0202
,
0000
0303
0000
0000
0010
1000
0100
1000
,
0010
0000
0011
0100
0000
0110
0000
2200
,
0000
3300
0000
0000
0010
0001
0100
0001
,
0010
0000
1010
0101
0000
1100
0000
2002
,
0000
3003
0000
0000
1000
1000
0100
0000
,
1001
0100
0001
0100
,
1100
0010
0001
0010
,
1100
0010
0001
0010
,
1010
0010
0011
0100
,
0010
1000
0100
0000
0010
0001
0100
0000
,
0010
1000
0100
0000
0010
0001
0100
0000
,
1000
0010
0100
0001
1000
0010
0100
0001
,
0010
0100
1000
0001
2020
0000
3030
0000
,
1000
0100
0101
0100
,
1000
0100
0101
0010
,
1000
0010
0011
0010
,
1000
0010
0011
0000
,
0010
1000
0100
1000
0000
0001
0000
0202
,
0000
0000
0000
0303
0000
0000
1001
0000
,
0010
0100
0010
0001
1000
0000
0000
2200
,
0000
3300
0000
0001
0010
0100
0000
1000
,
0010
0100
0000
0001
0010
0100
0000
1000
,
0100
0001
0000
0001
0100
1000
0000
0000
,
1000
0000
0001
0000
1000
0000
0001
0000
0220
0000
0000
0000
0000
0330
0000
0000
,
1000
0100
0001
0100
1000
0000
0000
0110
,
0000
0202
0303
0010
,
0001
0100
1000
0100
0001
0000
0000
0110
,
0000
2200
3300
0001
,
1100
0000
0010
0000
0001
0110
0000
2000
,
0000
3000
0000
0001
,
0001
0100
1000
0000
1000
0010
0001
0000
,
1000
0001
1000
0200
0000
0000
0300
0000
,
1000
0010
0001
0010
1000
0000
0000
0110
,
0000
0000
1001
0000
0001
0010
1000
0010
,
0001
0010
1000
0010
0001
0000
0000
1100
,
0000
0000
0202
0000
0000
0303
0000
0000
,
0010
1000
0100
1000
0020
1000
0000
0001
,
0000
0000
0000
0030
,
0100
0001
0010
0001
0200
1000
0000
0001
,
0000
0000
0300
0010
,
2000
0000
0000
0002
3000
0000
0200
0000
,
0003
0000
0000
0000
,
0300
1000
0100
0001
,
0101
0010
1100
0010
,
0001
0100
1000
0100
0001
0000
1000
0010
,
0001
0010
1000
0100
0010
0000
0010
0000
,
0001
0010
1000
0100
0000
0000
0010
0001
,
0010
0001
0100
1000
0100
0000
0001
0000
,
1000
0010
0100
0001
0000
0000
0001
0010
,
0100
1000
0100
1000
0000
0010
0001
0010
,
0100
1000
0010
0100
0001
0000
0001
0100
,
1000
0000
0100
0000
0001
0000
0010
0000
1000
0000
0010
0000
0001
0000
0000
0220
,
0000
0000
0000
0000
,
0000
0000
0000
0330
,
0000
0001
0000
1000
0001
0100
0000
0101
,
1100
0000
0000
0000
;

//---------------dance-double - BASIC----------------
#NOTES:
     dance-double:
     BASIC:
     Easy:
     3:
     0.307,0.427,0.517,0.112,0.000,135.000,46.000,10.000,0.000,0.000:
00000000
00000000
00000000
00000000
,
00000000
00000000
00000000
00000000
,
00000000
00000000
00000000
00000000
,
00000000
00000000
00000000
00000000
,
00000000
00000000
00000000
00000000
,
00000000
00000000
00000000
00000000
,
00000000
00000000
00000000
00000000
,
00000000
00000000
00000000
00000000
,
00000000
00000000
00000000
00000000
,
00000000
00000000
00000000
00000000
,
10000000
00000000
00100000
00000000
,
00001000
00010000
00001000
00000000
,
00000100
00000000
00000010
00000000
,
00001001
00000000
00000000
00000000
,
00001000
00000000
00010000
01000000
,
10000000
00000000
00000000
00000000
,
00010000
00000000
00001000
00000100
,
00000001
00000000
00000000
00000000
,
01000000
00000000
00011000
00000000
,
00000100
00000000
00011000
00000000
,
00000010
00000000
00011000
00000000
,
10010000
00000000
00000000
00000000
,
10000000
00010000
01000000
00001000
,
00010000
00000000
00000000
00000000
,
00000010
00000001
00000100
00010000
,
00001000
00000000
00110000
00000000
,
00011000
00000000
00001001
00000000
,
00011000
00000000
10010000
00000000
,
00011000
00000000
00001100
00000000
,
00011000
00000000
01010000
00000000
,
10000000
00000000
00100000
00000000
,
00001000
00000000
00010000
00000000
,
00000010
00000000
00000100
00001000
,
00000001
00000000
00001001
00000000
,
00001000
00000000
00010000
00000000
,
01010000
00000000
00100000
00000000
,
11000000
00000000
00001000
00000000
,
00011000
00000000
00000100
00000000
,
00001000
00000000
00100000
00000000
,
02000000
00000000
03000000
00000000
,
00010000
00000000
00000010
00000000
,
00000210
00000000
00000001
00000000
,
00000010
00000000
00000001
00000000
,
00000310
00000000
00000101
00000000
,
00011000
00000000
00101000
00000000
,
00011000
00000000
00010010
00000000
,
00001001
00000000
00011000
00000000
,
01001000
00000000
00011000
00000000
,
00010100
00000000
00000101
00000000
,
00000010
00000000
00001000
00000000
00000100
00000000
00000000
00020000
,
00000000
00000000
00030000
00100000
,
10000000
00000000
01000000
00000000
,
00010000
00000000
00000010
00000000
,
00011000
00000000
10100000
00000000
,
01010000
00000000
00001010
00000000
,
00000101
00000000
00000011
00000000
,
00001100
00000000
00110000
00000000
,
11000000
00000000
00000000
00000000
00100000
00000000
00000000
00020000
,
00000000
00000000
00000000
00030000
,
00001010
00000000
00000000
00000000
00000110
00000000
00000000
00002000
,
00000000
00000000
00000000
00003000
,
00100000
00000000
00000000
00010000
00000000
00000000
02000000
00000000
,
00000000
00000000
00000000
03000000
,
00202000
00000000
00000000
00000000
,
00000000
00000000
00303000
00000000
,
00010000
00000000
00000000
00000010
00001000
00000000
00000000
00000000
,
00000001
00000000
00000000
00000010
00000100
00000000
00000000
00000000
,
00010000
00000000
00000000
00001000
00100000
00000000
00000000
00000000
,
00010000
00000000
00000000
10000000
00100000
00000000
00000000
00000000
,
00010000
00000000
00000000
00100000
00001000
00000000
00000000
00000000
,
00010000
00000000
00000000
00000010
00000100
00000000
00000000
00000000
,
00000001
00000000
00000000
00001000
00000100
00000000
00000000
00000000
,
00100000
00000000
00000000
00001000
00010000
00000000
00000000
00000000
,
02002000
00000000
00000000
00000000
,
00000000
00000000
00000000
03003000
,
01100000
00000000
00011000
00000000
,
00001001
00000000
00000000
00000000
;

//---------------dance-double - ANOTHER----------------
#NOTES:
     dance-double:
     ANOTHER:
     Medium:
     6:
     0.405,0.513,0.551,0.247,0.006,181.000,49.000,22.000,0.000,0.000:
00000000
00000000
00000000
00000000
,
00000000
00000000
00000000
00000000
,
00000000
00000000
00000000
00000000
,
00000000
00000000
00000000
00000000
,
00000000
00000000
00000000
00000000
,
00000000
00000000
00000000
00000000
,
00000000
00000000
00000000
00000000
,
00000000
00000000
00000000
00000000
,
00000000
00000000
00000000
00000000
,
00000000
00000000
00000000
00000000
,
00100000
00000000
00000000
10000000
01000000
00000000
00000000
00000000
,
00100000
00000000
00000000
00001000
00010000
00000000
00000000
00000000
,
00000010
00000000
00001000
00000100
00000000
00010000
00000000
00001000
,
00000000
00000000
00000000
00000000
00000000
00000000
00000000
00100000
,
10000000
00000000
00100000
01000000
00000000
00001000
00000000
00010000
,
00000000
00000000
00000000
00000000
00000000
00000000
00000000
00000010
,
00000001
00000000
00000010
00000100
00000000
00010000
00000000
00001000
,
00000000
00000000
00000000
00000000
,
00100000
00000000
00000000
00010000
00001000
00000000
00000000
00000000
,
00000010
00000000
00000000
00001000
00010000
00000000
00000000
00000000
,
01010000
00000000
00000000
00011000
00000000
00000100
00000000
00000101
,
00000000
00000000
00000000
00000000
00000000
00000000
00000000
00000010
,
00010000
00000000
01000000
10000000
00000000
01000000
00000000
00010000
,
00000000
00000000
00000000
00000000
00110000
00000000
00000000
00100000
,
00001000
00000000
00000010
00000001
00000000
00000100
00000000
00001000
,
00000000
00000000
01010000
00000000
,
10010000
00000000
01001000
00000000
,
00010010
00000000
00001100
00000000
,
00000101
00000000
00001100
00000000
,
00010100
00001000
02002000
03003000
,
00100000
10000000
01000000
00010000
,
00001000
00000100
00000001
00000010
,
00011000
00000000
01010000
00000000
,
20020000
30030000
00100000
01000000
,
00001000
00000000
00010000
00000000
,
00010100
00000000
00001000
00000010
,
00001001
00000000
00011000
00000000
,
01100000
00000000
00100000
00000000
,
10000000
00000000
00100000
01000000
00000000
00100000
00000000
00020000
,
00000000
00000000
00030000
00000010
,
00001000
00000000
00000010
00000100
00000000
00000010
00000000
00000002
,
00000000
00000000
00000000
00001000
00001000
00001000
00000000
00000010
,
00000010
00000010
00000000
00001000
00001000
00001000
00000000
00000000
,
00000100
00000003
00000000
00000000
00000000
00000000
00000000
00000000
,
00022000
00000000
00033000
00000000
,
00010000
00000000
01000000
00000000
10000000
00000000
01000000
00010000
,
00000000
00020200
00000000
00030300
,
00001000
00000000
00000100
00000000
00000001
00000000
00000100
00001000
,
00000000
02002000
00000000
03003000
,
00110000
00000000
10010000
00000000
11000000
00000000
00000000
20020000
,
00000000
00000000
30030000
00000000
,
00010000
00000000
00000010
00000000
,
00011000
00100000
11000000
00000000
,
01010000
00000000
00001000
00000000
00011000
00000000
00000000
00001010
,
00000000
00000011
00000000
00010010
,
00010100
00000000
00000000
00000000
00110000
00000000
00000000
10010000
,
00000000
01001000
00000000
00000000
,
00100000
00000000
00001000
00000000
00010000
00000020
00000000
00000200
,
00000000
00000000
00000330
00000000
,
00000100
00000000
00010000
00000000
00001000
00200000
00000000
02000000
,
00000000
00000000
00000000
03300000
00000000
00000000
10010000
00000000
,
01100000
00000000
00000000
00011000
00000000
00000000
00000120
00000000
,
00000000
00000000
00000000
00000000
,
00002000
00000000
00000000
00000000
,
00000000
00000000
00003030
00000000
,
00000001
00000100
00001000
00000010
,
00000001
00000010
00000000
00000100
00000000
00000000
00010000
00000000
,
00001000
00000000
00100000
10000000
00000000
00000000
01000000
00000000
,
01001000
00010000
00101000
00000000
,
00000110
00000000
00000101
00000010
,
00000001
00000100
00000000
00000010
00000000
00000000
00010000
00000000
,
00001000
00000000
00100000
00010000
00000000
00000000
10000000
00000000
,
01010000
00000000
00000000
00000000
00000000
00000000
00000000
00000000
00011000
00000000
00000000
00000000
00000000
00000000
00000000
00020200
,
00000000
00000000
00000000
00000000
,
00000000
00000000
00000000
00030300
,
00000000
00010000
00000000
00100000
00001000
00010000
00000000
00000100
,
00000001
00000000
00000000
00000000
;

//---------------dance-solo - BASIC----------------
#NOTES:
     dance-solo:
     BASIC:
     Easy:
     3:
     0.218,0.384,0.214,0.056,0.000,112.000,19.000,5.000,0.000,0.000:
000000
000000
000000
000000
,
000000
000000
000000
000000
,
000000
000000
000000
000000
,
000000
000000
000000
000000
,
000000
000000
000000
000000
,
000000
000000
000000
000000
,
000000
000000
000000
000000
,
000000
000000
000000
000000
,
000000
000000
000000
000000
,
000000
000000
000000
000000
,
000100
000000
000100
000000
,
100000
000000
100000
000000
,
001000
000000
001000
000000
,
100010
000000
000000
000000
,
010000
000000
001000
000000
,
000100
000000
000000
000000
,
000010
000000
010000
000000
,
001000
000000
000000
000000
,
100000
000000
100000
000000
,
000100
000000
000100
000000
,
010000
000000
100000
000000
,
011000
000000
000000
000000
,
000010
000000
001000
000000
,
100000
000000
000000
000000
,
010000
000000
001000
000000
,
000001
000000
000000
000000
,
010000
000000
100000
000000
,
000100
000000
000001
000000
,
001000
000000
100000
000000
,
001000
000000
000010
000000
,
100000
000000
010000
000000
,
000100
000000
000010
000000
,
100000
000000
001000
000000
,
100000
000000
100010
000000
,
001000
000000
010000
000000
,
001000
000000
000010
000000
,
000100
000000
100000
000000
,
001000
000000
000010
000000
,
000100
000000
001000
000000
,
200000
000000
000000
300000
,
010000
000000
001000
000000
,
000020
000000
010000
000000
,
000000
000000
100000
000000
,
000000
000000
010000
000000
,
100000
000030
000000
000000
,
001100
000000
100100
000000
,
000101
000000
000000
000000
,
011000
000000
001010
000000
,
010010
000000
000000
000000
,
100000
000000
000010
000000
,
001000
000000
000000
000000
,
000100
000000
010000
000000
,
100000
000000
001100
000000
,
100001
000000
010010
000000
,
100001
000000
000000
000000
,
110000
000000
100001
000000
,
000110
000000
000000
000000
,
010000
000000
000001
000000
,
200000
000000
000000
300000
,
010000
000000
001000
000000
,
000020
000000
000000
000000
,
200000
000000
000000
000000
,
000000
000000
000000
000000
,
300030
000000
001000
000000
,
100000
000000
010000
000000
,
000100
000000
000010
000000
,
010000
000000
001000
000000
,
100000
000000
000100
000000
,
010000
000000
001000
000000
,
000001
000000
100000
000000
,
000010
000000
000100
000000
,
001000
000000
000100
000000
,
100000
000000
000100
000000
,
001000
000000
000100
000000
,
001000
000000
000001
000000
,
010010
000000
001100
000000
,
100001
000000
000000
000000
;

//---------------dance-solo - ANOTHER----------------
#NOTES:
     dance-solo:
     ANOTHER:
     Medium:
     6:
     0.366,0.470,0.146,0.326,0.006,186.000,13.000,29.000,0.000,0.000:
000000
000000
000000
000000
,
000000
000000
000000
000000
,
000000
000000
000000
000000
,
000000
000000
000000
000000
,
000000
000000
000000
000000
,
000000
000000
000000
000000
,
000000
000000
000000
000000
,
000000
000000
000000
000000
,
000000
000000
000000
000000
,
000000
000000
000000
000000
,
100000
010000
100000
000000
,
000010
000100
001000
000000
,
100000
000000
001000
010000
000000
000100
000000
100000
,
000000
000000
000000
000000
,
000010
000000
000010
010000
000000
010000
000000
002000
,
000000
000000
003000
000000
,
010000
000000
010000
000001
000000
000001
000000
000200
,
000000
000000
000000
000300
,
100000
000010
100000
000000
,
000001
000100
100000
000000
,
000001
000000
010000
000010
000000
001000
000000
000002
,
000000
000000
000000
000003
000000
000000
000000
000000
,
001000
000000
010000
001000
000000
100000
000000
000200
,
000000
000000
000000
000300
000000
000000
000000
000000
,
001000
000000
000010
001000
000000
000100
000000
200000
,
000000
300000
000000
000000
002000
000000
003000
000000
,
020000
000000
030200
000000
,
002000
000300
000000
000000
000020
003000
000000
000000
,
200030
000000
000000
000000
,
000200
000000
300300
000000
,
000100
010000
001000
000001
,
001000
100000
001000
000000
,
000020
000000
000000
000000
,
200000
000000
000000
300030
,
000100
100000
000010
000000
,
000100
010000
000001
001000
,
100000
000000
000011
000000
,
100001
000000
000000
000100
,
100000
000000
001000
000100
000000
001000
000000
020000
,
000000
000000
000000
030000
000000
000000
000001
000000
,
001000
000000
010000
001000
100000
000000
000001
000100
,
000000
000000
000000
010000
010000
010000
000000
000001
,
000001
000001
000000
001000
001000
001000
000000
000000
,
020002
000000
000000
030003
,
000100
100000
000001
001000
010000
000000
000000
000000
,
000010
000000
100000
000000
000100
000000
100000
000010
,
000000
020000
000000
000000
000000
030000
000000
000000
,
000001
000000
010000
000000
001000
000000
010000
000001
,
000000
200000
000000
000000
000000
300000
000000
000000
,
100000
000000
000110
000000
100000
000001
000000
002000
,
000000
000000
000000
003000
000000
000000
001000
000000
,
100100
001000
010000
001000
,
000010
000000
010000
100000
000000
000000
000000
000000
,
000010
000000
001000
000000
010000
000000
001000
000010
,
000000
100000
000000
001000
,
000100
000000
100000
000000
000100
000000
001000
000010
,
000000
100000
000000
000000
,
001000
000000
010001
000000
100000
000010
000000
000000
,
000202
000000
000303
000000
,
000010
000000
100001
000000
001000
000100
000000
000000
,
200020
000000
300030
000000
,
010000
000000
000000
000001
000000
000000
002000
000000
,
000000
000000
000000
000000
000000
003000
000000
000000
,
020002
000000
000000
000000
,
000000
000000
000000
030003
,
100010
000100
001000
000100
,
100000
000100
000000
000001
000000
000000
000100
000000
,
100000
000000
010000
001000
000000
000000
000100
000000
,
001000
010000
001000
100000
,
000100
001001
100000
000100
,
000010
001000
000000
100000
000000
000000
001000
000000
,
000010
000000
010000
100000
000000
000000
000010
000000
,
000100
000000
000000
000000
001000
000000
000000
000000
100000
000000
000000
000000
000000
000000
000000
002020
,
000000
000000
000000
000000
,
000000
000000
000000
003030
,
000000
000001
000000
010000
010000
001000
000000
100000
,
000001
000000
000000
000000
;

//---------------dance-couple - BASIC----------------
#NOTES:
     dance-couple:
     BASIC:
     Easy:
     5:
     0.711,0.897,1.000,0.674,0.006,163.000,140.000,60.000,0.000,47.000:
00000000
00000000
00000000
00000000
,
00000000
00000000
00000000
00000000
,
00000000
00000000
00000000
00000000
,
00000000
00000000
00000000
00000000
,
00000000
00000000
00000000
00000000
,
00000000
00000000
00000000
00000000
,
00000000
00000000
00000000
00000000
,
00000000
00000000
00000000
00000000
,
00000000
00000000
00000000
00000000
,
00000000
00000000
00000000
00000000
,
10000001
00100000
01001001
00000000
,
00010100
00100000
01001001
00000000
,
00010100
00000000
10000000
00101000
00000000
11000000
00000000
20020002
,
00000000
00000000
00000000
30030003
00000000
00000000
00000000
00000000
,
10000010
00000000
00000100
10000001
00000000
00000010
00000000
00022200
,
00000000
00000000
00000000
00033300
00000000
00000000
00000000
00000000
,
00100001
00000000
01000000
10000001
00000000
00100000
00000000
02022000
,
00000000
00000000
00000000
03033000
00000000
00000000
00000000
00000000
,
10000001
00000010
10010100
00000000
,
01001000
00000010
10010100
00000000
,
01000100
00000000
00000000
00011000
00000000
00000101
00000000
20002002
,
00000000
00000000
00000000
30003003
00000000
00000000
00000000
00100000
,
10000100
00000000
01000000
00101000
00000000
10010000
00000000
22002000
,
00000000
00000000
00000000
33003000
00000000
00000000
00000000
00000010
,
01000001
00000000
00000100
00010010
00000000
00001001
00000000
00020202
,
00000000
00030303
10011001
00000000
,
11001100
00000000
01100110
00000000
,
01010101
00000000
01100110
00000000
,
10011001
00000000
00110011
00000000
,
11001100
00000000
00011000
00000000
,
00100010
00000000
10000001
01000100
00000000
00000000
00011000
00000000
,
00100010
00000000
00011000
01000100
00000000
00000000
00000000
00000000
,
10011001
00000000
11000011
00000000
,
00111100
00000000
01011010
00000000
,
00100100
00000000
01000010
00000000
,
00111100
00000000
01011010
00000000
,
10000001
00000000
01100110
00000000
,
11000101
00000000
00111010
00000000
,
01000010
00000000
00010000
10000100
00000000
01000000
00000000
00200020
,
00000000
00000000
00000000
00300030
00000000
00000000
00000000
00000000
,
01000010
00000000
00001000
00100001
00000000
00000100
00000000
02000020
,
00000000
00000000
00000000
00000000
,
00022000
00000000
00000000
00000000
00000000
00000000
00000000
03033030
,
00000000
00000000
00111100
00000000
,
20022002
00000000
00000000
30033003
,
01100110
00000000
00000000
00000000
10001000
00000000
00000000
00010001
,
00000000
22002200
00000000
33003300
,
01100110
00000000
00000000
00000000
00010001
00000000
00000000
10001000
,
00000000
02020202
00000000
03030303
,
00111010
00000000
00000000
00000000
11000101
00000000
00000000
20022002
,
00000000
00000000
00000000
30033003
,
00100010
01000100
10000001
01000100
,
10011001
00000000
10001000
00010001
00000000
00000000
00000000
00000000
,
10001000
00000000
01000100
00000000
00010001
00000000
01000100
10001000
,
00000000
02200220
00000000
03300330
,
00100010
00000000
00011000
00000000
01000100
00000000
00011000
00100010
,
00000000
20022002
00000000
30033003
,
00011000
00100000
10000010
00000100
01000001
00000010
00000000
20000200
,
00000000
00000000
00000000
00000000
00000000
30000300
00000000
00000000
,
00011000
00000010
00100001
01000000
10000100
00100000
00000000
02000002
,
00000000
00000000
00000000
00000000
00000000
03000003
00000000
00000000
,
10000010
00000000
00000000
01000001
00000000
00000000
00022000
00000000
,
00000000
00000000
00000000
00000000
,
20000002
00000000
00000000
00000000
,
00000000
00000000
30033003
00000000
,
10101010
00000000
01010101
00000000
,
10000001
00100010
00011000
00100010
,
10000001
00000000
00100010
01000100
00000000
00000000
00011000
00000000
,
01100110
00000000
10000001
01000100
00000000
00000000
00000000
00000000
,
00110011
00000000
11001100
00000000
,
10000001
01000100
00011000
00100010
,
00011000
00000000
01000100
10000001
00000000
00000000
00000000
00000000
,
00011000
00000000
00000000
00000000
10000001
00000000
00000000
00000000
00100010
00000000
00000000
00000000
00000000
00000000
00000000
02022200
,
00000000
00000000
00000000
00000000
,
00000000
00000000
00000000
03033300
,
00000000
10000001
00000000
00000000
00100010
01000100
00000000
00011000
,
10000001
00000000
00000000
00000000
;

//---------------dance-single - BEGINNER----------------
#NOTES:
     dance-single:
     BEGINNER:
     Beginner:
     2:
     0.128,0.256,0.135,0.022,0.000,66.000,12.000,2.000,0.000,0.000:
0000
0000
0000
0000
,
0000
0000
0000
0000
,
0000
0000
0000
0000
,
0000
0000
0000
0000
,
0000
0000
0000
0000
,
0000
0000
0000
0000
,
0000
0000
0000
0000
,
0000
0000
0000
0000
,
0000
0000
0000
0000
,
0000
0000
0000
0000
,
0001
0000
0000
0000
,
1000
0000
0000
0000
,
0010
0000
0000
0000
,
1001
0000
0000
0000
,
1000
0000
0000
0000
,
0001
0000
0000
0000
,
0001
0000
0000
0000
,
1000
0000
0000
0000
,
1000
0000
0000
0000
,
0001
0000
0000
0000
,
0100
0000
0000
0000
,
1001
0000
0000
0000
,
0001
0000
0000
0000
,
1000
0000
0000
0000
,
1000
0000
0000
0000
,
0001
0000
0000
0000
,
0100
0000
0000
0000
,
0001
0000
0000
0000
,
0010
0000
0000
0000
,
0100
0000
0000
0000
,
1000
0000
0000
0000
,
0001
0000
0000
0000
,
1000
0000
0000
0000
,
1000
0000
0000
0000
,
0010
0000
0000
0000
,
0010
0000
0000
0000
,
0001
0000
0000
0000
,
0010
0000
0000
0000
,
0001
0000
0000
0000
,
1000
0000
0000
0000
,
0100
0000
0000
0000
,
0001
0000
1000
0000
,
0000
0000
1000
0000
,
0000
0000
0100
0000
,
1000
0000
0000
0000
,
0011
0000
0000
0000
,
1001
0000
0000
0000
,
1010
0000
0000
0000
,
0101
0000
0000
0000
,
1000
0000
0000
0000
,
0001
0000
0000
0000
,
0001
0000
0000
0000
,
1000
0000
0000
0000
,
1001
0000
0000
0000
,
1100
0000
0000
0000
,
1100
0000
0000
0000
,
0011
0000
0000
0000
,
1000
0000
0000
0000
,
1000
0000
0000
0000
,
0001
0000
0000
0000
,
0002
0000
0000
0000
,
2000
0000
0000
0000
,
0000
0000
0000
0000
,
3003
0000
0000
0000
,
1000
0000
0000
0000
,
0001
0000
0000
0000
,
0100
0000
0000
0000
,
1000
0000
0000
0000
,
1000
0000
0000
0000
,
0010
0000
0000
0000
,
0100
0000
0000
0000
,
0010
0000
0000
0000
,
0100
0000
0000
0000
,
0010
0000
0000
0000
,
0010
0000
0000
0000
,
1001
0000
0000
0000
,
1001
0000
0000
0000
;
