#TITLE:Auditory Illusion;
#SUBTITLE:(For SM);
#ARTIST:Arctic Xion;
#TITLETRANSLIT:;
#SUBTITLETRANSLIT:;
#ARTISTTRANSLIT:;
#CREDIT:Nathan Schaad;
#BANNER:Auditory Illusion Banner.png;
#BACKGROUND:AuditoryIllusionBG.png;
#LYRICSPATH:;
#CDTITLE:AX-cdtitle.png;
#MUSIC:Auditory Illusion.mp3;
#OFFSET:0.000;
#SAMPLESTART:61.013;
#SAMPLELENGTH:12.000;
#SELECTABLE:YES;
#BPMS:0.000=155.000;
#STOPS:;
#BGCHANGES:;
// cache tags:
#FIRSTBEAT:12.000;
#LASTBEAT:452.000;
#SONGFILENAME:Songs/StepMix 1.0/Auditory Illusion/For SM.sm;
#HASMUSIC:1;
#HASBANNER:1;
#MUSICLENGTH:176.569;
// end cache tags

//---------------dance-single - ----------------
#NOTES:
     dance-single:
     :
     Challenge:
     10:
     0.925,0.864,0.600,0.198,0.875,1002.000,106.000,35.000,0.000,1.000:
0000
0000
0000
0000
,
0000
0000
0000
0000
,
0000
0000
0000
0000
,
0220
0000
0000
0030
,
0310
0000
0000
0000
0000
0000
0001
0000
0000
0100
0000
0000
1000
0000
0000
0010
0000
0000
1000
0000
0000
0010
0000
0000
1000
0000
0000
0000
0000
0000
0000
0000
0000
1000
0000
0000
0001
0000
0000
0000
0010
0000
0000
0000
0100
0000
0000
0000
,
1000
0000
0000
0000
0000
0000
0100
0000
0000
0010
0000
0000
0001
0000
0000
0100
0000
0000
0010
0000
0000
0100
0000
0000
0010
0000
0000
0000
0000
0000
0000
0000
0000
1000
0000
0000
0011
0000
0000
0000
0001
0000
0000
0000
0100
0000
0000
0000
,
0011
0000
0000
0000
0000
0000
0001
0000
0000
0000
0000
0000
0100
0000
0000
0010
0000
0000
0100
0000
0000
0010
0000
0000
1000
0000
0000
0000
0000
0000
0000
0000
0000
0010
0000
0000
0100
0000
0000
0000
1000
0000
0000
0000
0001
0000
0000
0000
,
0010
0000
0000
0000
0000
0000
0100
0000
0000
0000
0000
0000
0001
0000
0000
0010
0000
0000
0001
0000
0000
0010
0000
0000
1000
0000
0000
0000
0000
0000
0000
0000
0000
1000
0000
0000
0001
0000
0000
0000
0110
0000
0000
0000
1000
0000
0000
0000
,
1000
0001
0000
0100
0010
0000
0010
1000
0000
0001
0100
0000
1010
0000
0000
0000
,
0001
1000
0000
0100
0010
0000
0010
1000
0000
1000
0010
0000
0101
0000
0000
0000
,
0010
0100
0010
0000
0001
1000
0000
0001
1000
0000
0100
0000
0011
0000
0000
0000
,
0001
0010
0000
0010
0100
0000
1000
0001
0000
0100
0010
0000
0011
0000
0000
0000
,
1001
0000
0001
0000
0010
0000
0100
0010
0100
0010
0100
0000
1000
0000
0100
0000
,
1000
0000
0000
0000
0000
0000
0100
0000
0000
0000
0000
0000
0010
0000
0000
0100
0000
0000
0001
0000
0000
1000
0000
0000
0010
0000
0000
0000
0000
0000
1000
0000
0000
0000
0000
0000
0100
0000
0000
0000
1000
0000
0000
0000
0100
0000
0000
0000
,
0010
0000
0010
0100
0000
1000
0100
0000
0001
0010
0000
0100
0000
1000
0000
0000
,
0001
0010
0000
0100
1000
0000
1000
0001
0000
0001
0010
0000
0100
0000
0000
0000
,
0001
0010
0100
1000
0001
0010
0100
0000
,
1000
0100
0010
0001
1000
0100
0010
0000
,
0001
0100
1000
0010
0001
0100
1000
0000
,
1100
0101
0110
1001
0110
1100
0101
0000
,
0001
0010
0000
0010
0100
0000
0100
1000
0000
1000
0100
0000
0010
0000
0000
0000
,
1000
0100
0000
0100
1000
0000
1000
0001
0000
0001
0100
0000
1010
0000
0000
0000
,
0010
0100
0000
0100
0010
0000
0001
1000
0000
1000
0001
0000
0110
0000
0000
0000
,
0010
0100
0000
0100
1000
0000
1000
0001
0000
0001
0010
0000
1100
0000
0000
0000
,
1000
0100
0000
0100
0010
0000
0010
0001
0000
0001
0010
0000
0110
0000
0000
0000
,
0001
1000
0000
0100
0010
0000
1000
0100
0000
0010
0100
0000
1000
0000
0000
0000
,
0010
0100
0000
0010
0100
0000
0010
0100
0000
0010
0100
0000
0110
0000
0000
0000
,
1000
0001
0000
1000
0001
0000
1000
0001
0000
1000
0001
0000
1001
0000
0000
0000
,
0001
0010
0000
0001
0010
0000
0001
0010
0000
0001
0010
0000
0011
0000
0000
0000
,
0010
0000
0000
0100
0000
0000
0000
0000
0000
1000
0000
0000
0001
0000
0000
0100
0000
0000
0010
0000
0000
0100
0000
0000
0000
0000
0000
1000
0000
0000
0001
0000
0000
0000
0000
0000
0110
0000
0000
0000
0001
0000
0000
0000
0010
0000
0000
0000
,
0100
1000
0000
1000
0001
0000
0001
0010
0000
0100
1000
0000
1100
0000
0000
0000
,
0001
0010
0000
0100
0010
0000
1000
0100
0000
0001
0010
0000
1100
0000
0000
0000
,
0001
0010
1000
0100
0000
0100
0001
0000
0010
0100
0000
1000
0100
0001
0010
0100
,
1000
0000
0100
0000
0001
0010
0000
1000
0100
0010
0001
0010
0100
1000
0100
0010
,
0001
0000
0001
0000
0010
0100
1000
0000
0100
0010
1000
0100
0001
0010
0100
0000
,
1000
0000
0100
0000
0010
0000
1000
0000
0100
0000
0001
0010
0100
1000
0100
1000
,
0100
0010
0001
0000
0100
0000
0001
0000
0010
0100
0000
0000
1000
0100
0010
0001
,
0010
0100
1000
0100
1000
0000
1000
0000
0001
0010
0100
1000
0010
0100
0010
1000
,
0100
0010
0000
0000
0100
1000
0000
0001
0010
0000
0100
1000
0100
1000
0001
0010
,
0100
1000
0100
0000
0001
0000
0010
0100
0000
0101
0000
0000
0101
0000
0001
0010
,
0100
1000
0100
1000
0100
0000
1010
0000
0000
0101
0000
0000
1001
0000
0000
0000
,
0011
0000
0000
0110
0000
0000
1100
0000
0000
0011
0000
0000
0100
0001
0010
0100
,
1000
0000
0000
0110
0000
0000
0011
0000
0000
1100
0000
0000
1000
0001
0010
0100
,
0010
0000
0000
1100
0000
0000
1001
0000
0000
0011
0000
0000
0100
0010
1000
0100
,
0010
0000
0000
0011
0000
0000
1010
0000
0000
0101
0000
0000
1000
0100
0010
0001
,
0010
0000
0000
0100
0000
0000
1000
0000
0000
0001
0000
0000
0010
0100
0010
0001
,
0100
0000
0000
1001
0000
0000
0110
0000
0000
0011
0000
0000
1000
0001
0010
0100
,
0001
0010
0000
0100
1000
0000
0100
0010
0001
0010
1000
0100
0010
0001
0100
1000
,
0001
0011
0011
0001
0011
0001
0010
0110
,
1000
0110
0010
0110
0100
1001
0100
0101
,
0010
0110
0010
1010
0100
0110
1000
0101
,
0010
0110
1000
0011
0010
0011
1000
0110
,
0010
0011
0010
1010
1000
1001
0010
0110
,
0001
1100
0100
1001
0001
0110
0100
1100
,
1000
0001
0000
0010
0100
0000
1000
0100
1000
0001
0010
0100
1000
0000
0100
0010
,
0000
0001
0010
0000
1000
0100
0010
0000
0001
0010
0100
1000
0001
0100
0010
1000
,
0002
1000
1000
1000
1000
0100
0100
0100
,
1003
1000
0110
0110
0001
0110
0100
1100
,
0100
0110
0001
0110
0100
1100
0010
0001
,
0010
0011
1100
1010
0101
0011
0010
0110
,
0100
0001
0000
0010
0100
1000
0100
0010
0000
0001
0010
0000
0100
1000
0100
0010
,
0100
1000
0100
0010
0001
0000
0100
0000
1000
0100
0001
0010
0100
0000
0100
0010
,
0001
0000
0010
0100
0000
1000
0100
0000
0001
0000
0100
1000
0100
1000
0000
0000
,
0100
0010
0000
0001
0010
0000
0100
1000
0000
0010
0001
0000
0100
1000
0100
0010
,
0001
0000
0010
0100
0000
1000
0100
0000
0001
0010
0100
1000
0100
1000
0100
0001
,
0010
0000
0010
0100
0000
0100
1000
0000
1000
0001
0000
0001
0010
0100
0010
0100
,
1000
0000
0000
0000
0000
0000
0001
0000
0000
0010
0000
0000
0001
0000
0000
0100
0000
0000
1000
0000
0000
0001
0000
0000
1000
0000
0000
0100
0000
0000
0000
0000
0000
0001
0000
0000
0010
0000
0000
0000
1000
0000
0000
0000
0100
0000
0000
0000
,
0010
0000
0100
0010
0000
0001
1000
0100
0010
0000
0000
0001
0010
0100
0001
0010
,
0100
0100
0010
0010
0001
0001
1000
1000
,
0100
0000
0100
0000
0010
0000
0010
0000
0001
0000
0001
0000
1000
0100
0010
0000
,
0001
0010
0100
0000
0100
0010
0001
0000
0010
1000
0100
0000
1000
0001
1000
0000
,
0000
0000
0100
0000
0001
0010
0100
0000
1000
0001
0010
0100
1000
0100
0010
0001
,
0010
0000
0110
0000
1000
0100
0000
0000
0011
0000
0001
0000
1000
0001
0000
0000
,
0110
0010
0010
1000
0002
0000
2003
0000
,
3001
0000
0010
0000
1000
0001
0000
0000
0110
0000
0010
0000
0100
0010
0000
0000
,
0001
0100
1000
0010
0002
0000
0203
0000
,
1300
0000
1000
0000
0001
1000
0000
0000
0100
0000
0100
0000
0010
0001
0000
0000
,
1000
0100
0001
0010
2000
0000
3020
0000
,
0031
0000
0001
0000
0001
1000
0000
0000
1000
0000
1000
0000
1000
0010
0000
0000
,
0010
1000
0001
0010
0021
0000
0230
0000
,
0310
0000
0010
0000
0010
1000
0000
0000
1000
0000
1000
0000
1000
0010
0000
0000
,
0001
0010
0001
0100
0020
0000
0032
0000
,
1103
0000
0100
0000
0100
1000
0000
0000
0011
0000
0001
0000
0001
0010
0000
0000
,
0110
0100
1000
0001
2100
0000
3002
0000
,
0013
0000
0010
0000
0100
1000
0100
0000
0001
0000
0001
0000
0010
0100
1000
0000
,
1000
1000
0001
0100
0020
0001
0032
0000
,
0103
0000
1000
0000
0001
0010
0100
0000
0001
0000
0010
0000
0100
1000
0100
0000
,
0010
0001
0010
0100
2000
0010
3020
0000
,
0130
0000
0001
0000
0010
0001
1000
0001
0100
0000
0001
0010
1000
0000
0100
1000
,
0010
0100
0001
0000
0010
0000
1000
0000
0100
0000
0001
0010
1000
0100
0001
0010
,
0000
0000
0100
1000
0100
0000
0001
0010
1000
0100
1000
0000
0010
0100
1000
0000
,
0100
0000
0001
0000
0010
1000
0100
0000
0001
0010
1000
0100
1000
0001
0000
0000
,
0001
0000
0001
0000
0010
1000
0100
0000
0100
0000
0010
0000
1000
0001
1000
0000
,
0100
0001
0010
0100
2000
0001
3002
0000
,
0013
0000
0100
0000
1000
0001
0010
0000
0100
0000
1000
0000
0001
0010
0100
0000
,
1000
0001
0010
0100
2000
0100
3200
0000
,
0310
0000
0001
0000
0010
1000
0100
0000
0001
0000
1000
0000
0010
0100
0001
0000
,
0010
1000
0100
0001
0020
1000
2030
0000
,
3001
0000
0010
0000
0100
1000
0100
0000
0001
0000
1000
0000
0010
0001
0010
0000
,
0100
1000
0100
0001
0200
0001
0302
0000
,
0013
0000
1000
0000
0100
1000
0100
0000
0001
0000
0010
0000
0100
0010
0100
0000
,
1000
0001
0010
0100
0200
0001
0302
0000
,
1003
0000
0001
0000
1000
0010
1000
0000
0100
0000
0001
0000
0010
0100
1000
0000
,
0001
0010
0100
0001
0020
1000
0230
0000
,
0301
0000
0010
0000
1000
0100
0000
0000
0110
0000
0010
0000
0010
0100
0000
0000
,
1001
0001
0010
0100
0201
0000
0320
0000
,
1030
0100
0000
0000
0010
0100
1000
0001
0010
0000
0000
0100
1000
0000
0100
0010
,
0100
0001
0010
0000
1000
0100
0000
0010
0001
0000
0100
0000
1000
0100
0001
0010
,
0100
0000
0000
0101
0000
0000
1010
0000
0000
0000
0110
0000
1001
0000
0000
0000
,
0001
0000
0000
0010
0000
0000
0100
0000
0000
0000
0001
0000
0100
0000
0000
0000
,
1100
0000
0000
0110
0000
0000
0011
0000
0000
0000
0100
0000
1100
0000
0100
0000
,
0101
0000
0000
0001
0000
0000
0010
0000
0100
0000
0001
0010
0100
1000
0100
0010
,
0202
0000
0000
0000
,
0303
0000
0000
0000
;

//---------------dance-single - ----------------
#NOTES:
     dance-single:
     :
     Hard:
     9:
     0.731,0.736,0.074,0.102,0.603,873.000,13.000,18.000,0.000,0.000:
0000
0000
0000
0000
,
0000
0000
0000
0000
,
0000
0000
0000
0000
,
1001
0000
0000
0000
,
0011
0000
0000
0000
0000
0000
0000
0000
0000
0000
0000
0000
0010
0000
0000
0001
0000
0000
0010
0000
0000
0001
0000
0000
0010
0000
0000
0000
0000
0000
0000
0000
0000
0000
0000
0000
0100
0000
0000
0000
0001
0000
0000
0000
1000
0000
0000
0000
,
0010
0000
0000
0000
0000
0000
0000
0000
0000
0000
0000
0000
0100
0000
0000
1000
0000
0000
0001
0000
0000
1000
0000
0000
0001
0000
0000
0000
0000
0000
0000
0000
0000
0000
0000
0000
0001
0000
0000
0000
0100
0000
0000
0000
1000
0000
0000
0000
,
0001
0000
0000
0000
0000
0000
0000
0000
0000
0000
0000
0000
1000
0000
0000
0001
0000
0000
1000
0000
0000
0001
0000
0000
0010
0000
0000
0000
0000
0000
0000
0000
0000
0000
0000
0000
1000
0000
0000
0000
0010
0000
0000
0000
0100
0000
0000
0000
,
0001
0000
0000
0000
0000
0000
0000
0000
0000
0000
0000
0000
0100
0000
0000
0001
0000
0000
0100
0000
0000
0001
0000
0000
0010
0000
0000
0000
0000
0000
0000
0000
0000
0000
0000
0000
0100
0000
0000
0000
1000
0000
0000
0000
0001
0000
0000
0000
,
0010
0100
0000
1000
0001
0000
0001
0010
0000
0100
1000
0000
0001
0000
0000
0000
,
0100
0010
0000
1000
0001
0000
0001
0010
0000
0010
0001
0000
1000
0000
0000
0000
,
0001
1000
0001
0000
0100
0010
0000
0100
0010
0000
1000
0000
1001
0000
0000
0000
,
0100
0001
0000
0001
1000
0000
0010
0100
0000
1000
0001
0000
0001
0000
0000
0000
,
0010
0000
0100
0000
0001
0000
1000
0001
1000
0001
1000
0000
0010
0000
1000
0000
,
0010
0000
0000
1000
0000
0000
0001
0000
0000
0100
0000
0000
0001
0000
0000
0010
0000
0000
1000
0000
0010
0000
1000
0000
,
0001
0000
0001
1000
0000
0010
1000
0000
0100
0001
0000
0000
0000
0010
0000
0000
,
0100
0001
0000
1000
0010
0000
0010
0100
0000
0100
0001
0000
1000
0000
0000
0000
,
0100
0001
1000
0010
0100
0001
1000
0000
,
0010
1000
0001
0100
0010
1000
0001
0000
,
0100
1000
0010
0001
0100
1000
0010
0000
,
1000
0100
0001
0100
1000
0010
0110
0000
,
0100
0001
0000
0001
1000
0000
1000
0010
0000
0010
1000
0000
0001
0000
0000
0000
,
0010
1000
0000
1000
0010
0000
0010
0100
0000
0100
1000
0000
1001
0000
0000
0000
,
0001
1000
0000
1000
0001
0000
0100
0010
0000
0010
0100
0000
0001
0000
0000
0000
,
0001
1000
0000
1000
0010
0000
0010
0100
0000
0100
0001
0000
0010
0000
0000
0000
,
0010
1000
0000
1000
0001
0000
0001
0100
0000
0100
0001
0000
0001
0000
0000
0000
,
0100
0010
0000
1000
0001
0000
0010
1000
0000
0001
1000
0000
0010
0000
0000
0000
,
0001
1000
0000
0001
1000
0000
0001
1000
0000
0001
1000
0000
1001
0000
0000
0000
,
0010
0100
0000
0010
0100
0000
0010
0100
0000
0010
0100
0000
0110
0000
0000
0000
,
0100
0001
0000
0100
0001
0000
0100
0001
0000
0100
0001
0000
0101
0000
0000
0000
,
0001
0000
0000
1000
0000
0000
0000
0000
0000
0010
0000
0000
0100
0000
0000
1000
0000
0000
0001
0000
0000
1000
0000
0000
0000
0000
0000
0010
0000
0000
0100
0000
0000
0000
0000
0000
1000
0000
0000
0000
0100
0000
0000
0000
0001
0000
0000
0000
,
1000
0010
0000
0010
0100
0000
0100
0001
0000
1000
0010
0000
0010
0000
0000
0000
,
0100
0001
0000
1000
0001
0000
0010
1000
0000
0100
0001
0000
1000
0000
0000
0000
,
0100
0000
0010
1000
0000
1000
0100
0000
0001
1000
0000
0000
1000
0000
0001
0000
,
0010
0000
1000
0000
0100
0001
0000
0010
1000
0000
0100
0000
1000
0000
1000
0000
,
0100
0100
0001
0010
1000
0010
0100
1000
,
0010
0000
1000
0000
0001
0000
0010
0000
1000
0000
0100
0000
1000
0010
0000
0010
,
1000
0000
0100
0000
1000
0000
0100
0000
0001
1000
0000
0000
0010
0000
0001
0100
,
0001
0010
0010
0010
0100
1000
0001
0001
,
1000
0001
0000
0000
1000
0010
0000
0100
0001
0000
1000
0000
1000
0000
0100
0000
,
1000
0000
1000
0000
0100
0000
0001
1000
0000
0100
0000
0000
1000
0000
0100
1000
,
0100
1000
0000
1010
0000
0000
0000
0000
0000
1001
0000
0000
0011
0000
0000
0000
,
0100
0000
0000
0100
0000
0000
0001
0000
0000
0100
0000
0000
0010
0000
1000
0000
,
0010
0000
0000
0100
0000
0000
0100
0000
0000
0001
0000
0000
0001
0000
0100
0010
,
0100
0000
0000
0001
0000
0000
0001
0000
0000
0100
0000
0000
0010
0100
0010
0000
,
1000
0000
0000
0100
0000
0000
0100
0000
0000
1000
0000
0000
0001
0010
0100
0000
,
0100
0000
0000
0010
0000
0000
0001
0000
0000
1000
0000
0000
0100
0010
0100
0000
,
0010
0000
0000
0001
0000
0000
0100
0000
0000
0100
0000
0000
0001
1000
0100
0000
,
1000
0100
0000
0010
0001
0000
0010
0100
1000
0000
0001
0000
0100
0000
0010
0000
,
1000
0100
1000
1000
0100
1000
0100
0010
,
0001
0010
0100
0100
0010
1000
0010
1000
,
0100
0010
0100
0100
0010
0100
0001
0010
,
0100
0010
0001
0100
0100
1000
0001
0010
,
0100
0100
0100
0001
0001
1000
0100
0010
,
1000
0001
0010
0001
1000
0010
0010
0001
,
0001
1000
0000
0100
0010
0000
0001
0010
0001
0000
0100
0000
0001
0000
0010
0100
,
0000
1000
0100
0000
0001
0010
0000
0000
1000
0000
0010
0000
1000
0000
0100
0000
,
2100
0000
0000
0000
,
3000
0001
0010
0100
0010
0100
0010
0001
,
0010
0100
1000
0100
0010
0010
0100
1000
,
0100
1000
0001
0100
0010
0100
0100
0010
,
0010
1000
0000
0100
0010
0000
0010
0100
0000
1000
0100
0000
0010
0000
0001
0000
,
0010
0100
1000
0010
0001
1000
0010
0010
,
1000
0000
0100
0010
0000
0001
0010
0000
1000
0000
0010
0000
0010
0001
0000
0000
,
0010
0100
0000
1000
0100
0000
0010
0001
0000
0100
1000
0000
0010
0000
0010
0000
,
1000
0000
0100
0010
0000
0001
0010
0000
1000
0100
0010
0000
0010
0001
0010
0000
,
0100
0000
0100
0010
0000
0010
0001
0000
0001
1000
0000
0000
0100
0000
0100
0000
,
0001
0000
0000
0000
0000
0000
1000
0000
0000
0000
0000
0000
1000
0000
0000
0000
0000
0000
0001
0000
0000
1000
0000
0000
0001
0000
0000
0000
0000
0000
0000
0000
0000
0000
0000
0000
0100
0000
0000
0000
0001
0000
0000
0000
0010
0000
0000
0000
,
0100
0000
0000
0000
0000
1000
0001
0000
0010
0000
0000
0000
0100
0000
1000
0000
,
0010
0010
0100
0100
1000
1000
0001
0001
,
0010
0000
0010
0000
0100
0000
0100
0000
1000
0000
1000
0000
0001
0010
0100
0000
,
1000
0100
0010
0000
0010
0100
1000
0000
0100
0001
0010
0000
0001
1000
0001
0000
,
0000
0000
0010
0000
1000
0100
0010
0000
0001
1000
0100
0000
0001
0000
0100
0000
,
0100
0000
0100
0000
0001
0010
0000
0000
0100
0000
1000
0000
0001
1000
0000
0000
,
0100
0100
0100
0001
2000
0000
3001
0000
,
1000
0000
0100
0000
0001
1000
0000
0000
0010
0000
0100
0000
0010
0100
0000
0000
,
1000
0010
0001
0100
2000
0000
3001
0000
,
0001
0000
0001
0000
1000
0001
0000
0000
0010
0000
0010
0000
0100
1000
0000
0000
,
0001
0010
1000
0100
0002
0000
0103
0000
,
1000
0000
1000
0000
1000
0001
0000
0000
0001
0000
0001
0000
0001
0100
0000
0000
,
0100
0001
1000
0100
0200
0000
0310
0000
,
0100
0000
0100
0000
0100
0001
0000
0000
0001
0000
0001
0000
0001
0100
0000
0000
,
1000
0100
1000
0010
0200
0000
1300
0000
,
0010
0000
0010
0000
0010
0001
0000
0000
0100
0000
1000
0000
1000
0100
0000
0000
,
0010
0010
0001
1000
0002
0000
1003
0000
,
0100
0000
0100
0000
0010
0001
0010
0000
1000
0000
1000
0000
0100
0010
0001
0000
,
0001
0001
1000
0010
0200
0000
1300
0000
,
0010
0000
0001
0000
1000
0100
0010
0000
1000
0000
0100
0000
0010
0001
0010
0000
,
0100
1000
0100
0010
0002
0000
1003
0000
,
0010
0000
1000
0000
0100
1000
0001
0000
0010
0000
1000
0100
0001
0000
0010
0000
,
0100
0010
1000
0000
0100
0000
0001
0000
0010
0000
1000
0100
0001
0000
1000
0100
,
0000
0000
0010
0001
0010
0000
1000
0100
1000
0000
0001
0000
0100
0000
0001
0000
,
0010
0000
1000
0000
0100
0000
0010
0000
1000
0000
0001
0010
0001
0000
0000
0000
,
1000
0000
1000
0000
0100
0001
0100
0000
0010
0000
0100
0000
0001
1000
0001
0000
,
0010
1000
0100
0010
0002
0000
0003
0000
,
0100
0000
0010
0000
0001
1000
0100
0000
0010
0000
0001
0000
1000
0100
0010
0000
,
0001
1000
0100
0010
0002
0000
0003
0000
,
0100
0000
1000
0000
0100
1000
0010
0000
1000
0000
0001
0000
0100
0010
1000
0000
,
0100
0001
0010
1000
0200
0000
0300
0000
,
1000
0000
0100
0000
0010
0001
0010
0000
1000
0000
0001
0000
0100
1000
0100
0000
,
0010
0001
0010
1000
0020
0000
0030
0000
,
0100
0000
0001
0000
0010
0001
0010
0000
1000
0000
0100
0000
0010
0100
0010
0000
,
1000
1000
0100
0010
0020
0000
0030
0000
,
0001
0000
1000
0000
0001
0100
0001
0000
0010
0000
1000
0000
1000
0010
1000
0000
,
0001
0100
0010
1000
0200
0000
0300
0000
,
1000
0000
0100
0000
0001
0010
0000
0000
0100
0000
0100
0000
0100
0010
0000
0000
,
0001
1000
0100
0010
0020
0000
1030
0000
,
0001
0010
0000
0000
0100
0000
0001
0000
0100
0000
0000
0000
0001
0000
0010
0000
,
0010
0000
0100
0000
0001
0010
0000
0100
1000
0000
0010
0000
0001
0000
1000
0000
,
0010
0000
0000
1000
0000
0000
0100
0000
0000
0000
0010
0000
0001
0000
0000
0000
,
1000
0000
0000
0100
0000
0000
0010
0000
0000
0000
1000
0000
0010
0000
0000
0000
,
0001
0000
0000
0100
0000
0000
0100
0000
0000
0000
0010
0000
0001
0000
0010
0000
,
1000
0000
0000
1000
0000
0000
0100
0000
0010
0000
1000
0100
0010
0000
0000
0000
,
2002
0000
0000
0000
,
3003
0000
0000
0000
;

//---------------dance-single - ----------------
#NOTES:
     dance-single:
     :
     Medium:
     7:
     0.587,0.544,0.136,0.102,0.082,683.000,24.000,18.000,0.000,0.000:
0000
0000
0000
0000
,
0000
0000
0000
0000
,
0000
0000
0000
0000
,
1001
0000
0000
0000
,
0011
0000
0000
0000
0000
0000
0010
0000
0000
1000
0000
0000
0010
0000
0000
0000
0000
0000
0100
0000
0010
0000
1000
0000
,
0010
0000
0000
0000
0000
0000
0100
0000
0000
1000
0000
0000
0001
0000
0000
0000
0000
0000
0001
0000
0100
0000
1000
0000
,
0100
0000
0000
0000
0000
0000
1000
0000
0000
0001
0000
0000
0010
0000
0000
0000
0000
0000
1000
0000
0010
0000
0100
0000
,
0001
0000
0000
0000
0000
0000
0100
0000
0000
1000
0000
0000
0010
0000
0000
0000
0000
0000
0100
0000
1000
0000
0001
0000
,
0010
0000
0001
0001
0000
1000
0001
0000
,
0100
0000
0001
0001
0000
1001
1000
0000
,
0001
1000
0100
0000
0010
1000
0001
0000
,
0110
0000
1000
0010
0000
0001
0001
0000
,
0010
0100
0001
1000
1000
1000
0010
0000
,
0010
1000
0001
0100
0001
0010
1000
0000
,
1001
0000
0000
1000
1100
0000
0000
0000
,
0110
0000
0010
1000
0000
0001
1000
0000
,
0100
0001
1000
0010
0100
0001
1000
0000
,
0010
1000
0001
0100
0010
1000
0001
0000
,
0100
1000
0010
0100
0001
1000
0010
0000
,
1000
0100
0001
0100
1000
0010
0100
0000
,
1001
0000
1000
1000
0000
1000
0001
0000
,
0110
0000
0010
0010
0000
1000
1001
0000
,
0011
0000
0001
0100
0000
0100
0001
0000
,
0011
0000
0010
0010
0000
0001
0010
0000
,
0010
0000
0001
1000
0000
0001
0010
0000
,
1010
0000
0001
0010
0000
1000
0010
0000
,
0011
0000
1000
0001
0000
1000
1001
0000
,
0110
0000
0100
0010
0000
0100
0110
0000
,
1010
0000
0001
0100
0000
0001
0101
0000
,
0001
0000
0000
0000
0000
0000
0100
0000
0000
0001
0000
0000
0000
0000
0000
0100
0000
0000
1000
0000
0100
0000
1000
0000
,
0100
0000
0100
0100
0000
0010
0010
0000
,
0100
0000
0001
0010
0000
0001
1000
0000
,
0100
0010
0000
0100
0001
0000
1000
0001
,
0010
1000
0100
0000
1000
0100
1000
1000
,
0100
0100
0001
0010
1000
0010
0100
1000
,
0010
1000
0001
0010
1000
0100
1000
0000
,
1000
0100
1000
0100
0001
0000
0010
0001
,
0001
0010
0010
0010
0100
1000
0001
0001
,
1000
0000
1000
0000
0001
1000
1000
0100
,
1000
1000
0100
0001
0000
0000
1000
0100
,
0100
0000
0000
1000
0000
0000
0000
0000
0000
0001
0000
0000
0010
0000
0000
0000
,
0100
0000
0000
0100
0000
0000
0001
0000
0000
0100
0000
0000
0010
0000
1000
0000
,
0010
0000
0000
0100
0000
0000
0100
0000
0000
0001
0000
0000
0001
0000
0100
0000
,
0010
0000
0000
0001
0000
0000
0001
0000
0000
0100
0000
0000
0010
0000
0010
0000
,
1000
0000
0000
0100
0000
0000
0100
0000
0000
1000
0000
0000
0001
0000
0100
0000
,
0100
0000
0000
0010
0000
0000
0001
0000
0000
1000
0000
0000
0100
0000
0100
0000
,
0010
0000
0000
0001
0000
0000
0100
0000
0000
0100
0000
0000
0001
0000
0100
0000
,
1000
0000
0001
0010
1000
0001
0100
0010
,
1000
0100
1000
1000
0100
1000
0100
0010
,
0001
0010
0100
0100
0010
1000
0010
1000
,
0100
0010
0100
0100
0010
0100
0001
0010
,
0100
0010
0001
0100
0100
1000
0001
0010
,
0100
0100
0100
0001
0001
1000
0100
0010
,
1000
0001
0010
0001
1000
0010
0010
0001
,
0001
0000
0010
0001
0001
0100
0001
0010
,
0000
0100
0001
0000
1000
0010
1000
0100
,
2100
0000
0000
0000
,
3000
0001
0010
0100
0010
0100
0010
0001
,
0010
0100
1000
0100
0010
0010
0100
1000
,
0100
1000
0001
0100
0010
0100
0100
0010
,
0010
0000
0010
0010
0000
0100
0010
0001
,
0010
0100
1000
0010
0001
1000
0010
0010
,
1000
0100
0000
0010
1000
0010
0010
0000
,
0010
0000
0100
0010
0000
1000
0010
0010
,
1000
0100
0000
0010
1000
0010
0010
0010
,
0100
0100
0000
0001
0001
0000
0100
0100
,
0001
0000
0000
1000
0000
0000
1000
0000
0000
0001
0000
0000
0001
0000
0000
0000
0000
0000
0100
0000
0010
0000
0100
0000
,
0010
0000
0000
0001
0010
0000
0100
1000
,
0010
0010
0100
0100
1000
1000
0001
0001
,
0010
0010
0100
0100
1000
0000
0001
0100
,
1000
0010
0010
1000
0100
0010
0001
0001
,
0000
0010
1000
0010
0001
0100
0001
0100
,
0100
0100
0001
0000
0110
0000
1001
0000
,
0100
0100
0100
0000
2000
0000
3001
0000
,
1000
0100
0001
0000
0010
0100
0010
0000
,
1000
0010
0001
0010
2000
0000
3001
0000
,
0001
0001
1000
0000
0010
0010
0100
0000
,
0001
0010
1000
0100
0002
0000
0103
0000
,
1000
1000
1000
0000
0001
0001
0001
0000
,
0100
0001
1000
0100
0200
0000
0310
0000
,
0100
0100
0100
0000
0001
0001
0001
0000
,
1000
0100
1000
0010
0200
0000
0301
0000
,
0010
0010
0010
0000
0100
1000
1000
0000
,
0010
0010
0001
1000
0002
0000
1003
0000
,
0100
0100
0010
0001
1000
0001
0100
0001
,
0001
0000
1000
0010
0200
0000
0310
0000
,
0010
0001
1000
0010
1000
0100
0010
0001
,
0010
0100
1000
0100
0020
0000
1030
0000
,
0010
1000
0100
0001
0010
1000
0001
0010
,
0100
1000
0100
0001
0010
1000
0001
1000
,
0000
0010
0010
1000
1000
0001
0100
0001
,
0010
1000
0100
0010
1000
0001
0001
0000
,
1000
1000
0100
0100
0010
0100
0001
0001
,
0010
1000
0100
0010
0002
0000
0003
0000
,
0100
0010
0001
0100
0010
0001
1000
0010
,
0001
1000
0100
0010
0002
0000
0003
0000
,
0100
1000
0100
0010
1000
0001
0100
1000
,
0100
0001
0010
1000
0200
0000
0300
0000
,
1000
0100
0010
0010
1000
0001
0100
0100
,
0010
0001
0010
1000
0020
0000
0030
0000
,
0100
0001
0010
0010
1000
0100
0010
0010
,
1000
1000
0100
0010
0020
0000
0030
0000
,
0001
1000
0001
0001
0010
1000
1000
1000
,
0001
0100
0010
1000
0200
0000
0300
0000
,
1000
0100
0001
0000
0100
0100
0100
0000
,
0001
1000
0100
0010
0020
0000
1030
0000
,
1001
0000
0100
0001
0100
0000
0001
0010
,
0010
0100
0001
0000
1000
0010
0001
1000
,
0010
0000
0000
0100
0000
0010
0001
0000
,
1000
0000
0000
0100
0000
0000
0010
0000
0000
0000
1000
0000
0010
0000
0000
0000
,
0001
0000
0000
0100
0000
0000
0100
0000
0000
0000
0010
0000
0001
0000
0010
0000
,
1000
0000
0000
1000
0000
0000
0100
0000
0010
0000
1000
0000
0010
0000
0000
0000
,
2002
0000
0000
0000
,
3003
0000
0000
0000
;

//---------------dance-single - ----------------
#NOTES:
     dance-single:
     :
     Easy:
     5:
     0.407,0.448,0.147,0.108,0.048,458.000,26.000,19.000,0.000,0.000:
0000
0000
0000
0000
,
0000
0000
0000
0000
,
0000
0000
0000
0000
,
1001
0000
0000
0000
,
0011
0000
0010
1000
0010
0000
0100
0000
,
0010
0000
0100
1000
0001
0000
0001
0000
,
0100
0000
1000
0001
0010
0000
1000
0000
,
0001
0000
0100
1000
0010
0000
0100
0000
,
0010
0000
0001
0001
0000
1000
0001
0000
,
0100
0000
0001
0001
0000
0001
1000
0000
,
0001
1000
0100
0000
0010
0000
0001
0000
,
0110
0000
1000
0010
0000
0001
0001
0000
,
0010
0100
0010
0000
1000
0000
0010
0000
,
0010
0001
0001
1000
,
1001
0000
0000
1000
0100
0000
0000
0000
,
0110
0000
0010
1000
0000
0001
1000
0000
,
0100
1000
0100
1000
,
0010
0001
0010
0001
,
0100
0010
0001
0010
,
1100
0001
1000
0100
,
1001
0000
1000
1000
0000
1000
0001
0000
,
0110
0000
0010
0010
0000
1000
0001
0000
,
0011
0000
0001
0100
0000
0100
0001
0000
,
0011
0000
0010
0010
0000
0001
0010
0000
,
0010
0000
0001
1000
0000
0001
0010
0000
,
1010
0000
0001
0010
0000
1000
0010
0000
,
0011
0000
1000
0001
0000
1000
0001
0000
,
0110
0000
0100
0010
0000
0010
0100
0000
,
1010
0000
0001
0100
0000
0100
0001
0000
,
0001
0000
0100
0001
0000
0100
1000
0000
,
0101
0000
0100
0100
0000
0010
0010
0000
,
0110
0000
0001
0010
0000
0001
1000
0000
,
0100
0000
0000
0100
0000
0000
1000
0000
,
0010
0100
1000
1000
,
0100
0001
1000
0100
,
0010
0001
1000
0100
,
0010
0001
0001
0010
,
0001
0010
0100
0001
,
1001
1000
0001
1000
,
1000
0100
0000
1000
,
0100
0000
0000
1000
0000
0000
0000
0000
0000
0001
0000
0000
0010
0000
0000
0000
,
0100
0000
0000
0100
0000
0000
0001
0000
0000
0100
0000
0000
0010
0000
0000
0000
,
0010
0000
0000
0100
0000
0000
0100
0000
0000
0001
0000
0000
0001
0000
0100
0000
,
0010
0000
0000
0001
0000
0000
0001
0000
0000
0100
0000
0000
0010
0000
0000
0000
,
1000
0000
0000
0100
0000
0000
0100
0000
0000
1000
0000
0000
0001
0000
0000
0000
,
0100
0000
0000
0010
0000
0000
0001
0000
0000
1000
0000
0000
0100
0000
0000
0000
,
0010
0000
0000
0001
0000
0000
0100
0000
0000
0100
0000
0000
0001
0000
0000
0000
,
1000
0001
1000
0100
,
1000
1000
0100
0100
,
0001
0100
0010
1000
,
0100
1000
0010
0001
,
0100
1000
0100
0001
,
0100
0010
0001
0001
,
1000
0010
1000
0100
,
0001
0000
0010
0000
1000
0000
0001
0010
,
0000
0100
0001
0000
1000
0000
0010
0000
,
2020
0000
0000
0000
,
3030
0100
0001
0010
,
0100
1000
0010
0100
,
1000
0001
0010
0100
,
0001
0000
0010
0000
0000
0100
0000
0000
,
0010
1000
0001
0010
,
0001
0000
0000
0010
0000
0010
0000
0000
,
0010
0000
0100
0010
0000
1000
0010
0000
,
1000
0100
0000
0010
1000
0000
0010
0000
,
0100
0100
0000
0001
0001
0000
0100
0100
,
0000
1000
1000
0001
0001
0000
0100
0000
,
0010
0000
0010
0100
,
0010
0100
1000
0001
,
0010
0100
1000
0001
,
1000
0010
0100
0001
,
0000
1000
0001
1000
,
1010
0101
0110
1001
,
0100
0100
2000
3001
,
1000
0000
0001
0000
0010
0100
0010
0000
,
1000
0000
1000
0001
2000
0000
3001
0000
,
0010
1000
0010
0100
,
0001
1000
0002
0103
,
1000
0100
0001
0010
,
0100
1000
0200
0310
,
0100
0100
0001
0001
,
1000
1000
0200
0301
,
0010
0010
0100
1000
,
0010
0000
0001
1000
0002
0000
1003
0000
,
0100
0010
1000
0100
,
0001
1000
0200
0310
,
0010
1000
1000
0010
,
0001
0010
0200
0301
,
0010
0100
0010
0001
,
0100
1000
0010
0001
,
0000
0100
1000
0100
,
0010
0100
1000
0001
,
1000
0100
0010
1010
,
0010
0100
0002
0003
,
0100
0001
0010
1000
,
0101
0100
0002
0003
,
0100
0100
1000
0100
,
0010
0001
0200
0300
,
1000
0010
0100
0100
,
1000
0100
0020
0030
,
0100
0010
1000
0010
,
1000
0100
0020
0030
,
0001
0100
0010
1000
,
0001
0010
0020
0030
,
1000
0001
0100
1000
,
0001
1000
0020
1030
,
1001
0000
0100
0000
0010
0000
0001
0010
,
0001
0010
1000
0100
,
0010
0000
0000
0100
0000
0010
0001
0000
,
1000
0000
0000
0100
0000
0000
0010
0000
0000
0000
1000
0000
0010
0000
0000
0000
,
0001
0000
0000
1000
0000
0000
0100
0000
0000
0000
0010
0000
0001
0000
0010
0000
,
1000
0000
0000
0001
0000
0000
0100
0000
0010
0000
0000
0000
0000
0000
0000
0000
,
2002
0000
0000
0000
,
3003
0000
0000
0000
;

//---------------dance-single - ----------------
#NOTES:
     dance-single:
     :
     Beginner:
     2:
     0.165,0.222,0.006,0.000,0.000,203.000,1.000,0.000,0.000,0.000:
0000
0000
0000
0000
,
0000
0000
0000
0000
,
0000
0000
0000
0000
,
0001
0000
0000
0000
,
0001
0000
0010
0000
,
0010
0000
0001
0000
,
0100
0000
0010
0000
,
0001
0100
0000
1000
,
0010
0000
0000
0000
,
0100
0000
0000
1000
,
0001
0000
0010
0000
,
0010
0000
0000
0000
,
0010
0000
1000
0000
,
0010
0000
0001
0000
,
0001
0000
0100
0000
,
0010
0000
0000
1000
,
0100
0000
0100
0000
,
0010
0000
0010
0000
,
0100
0000
1000
0000
,
0100
0000
1000
0000
,
0001
1000
0000
0000
,
0010
0000
0000
0001
,
0001
0001
0000
0000
,
0001
0000
0000
0010
,
0010
0000
0000
0000
,
0010
0000
0000
0000
,
0001
0000
0000
0000
,
0010
0100
0000
0100
,
0010
0000
0000
0001
,
0001
0000
0000
1000
,
0001
0000
0000
0010
,
0010
0000
0000
1000
,
0100
0000
0000
1000
,
0010
0000
0000
1000
,
0100
0000
0000
0100
,
0010
0000
0000
0010
,
0100
0000
0000
0010
,
0001
0000
0100
0001
,
0000
1000
0000
1000
,
1000
0000
0000
1000
,
0000
0000
0000
0010
,
0100
0000
0000
0010
,
0010
0000
0000
0001
,
0010
0000
0000
0010
,
1000
0000
0000
0001
,
0100
0000
0000
0100
,
0010
0000
0000
0000
,
1000
0000
0000
0000
,
1000
0000
0100
0000
,
0001
0000
0010
0000
,
0100
0000
0010
0000
,
0100
0000
0100
0000
,
0100
0000
0001
0000
,
1000
0000
0001
0000
,
0001
0000
1000
0001
,
0000
0001
0000
0000
,
0010
0000
0000
0000
,
0000
0100
0000
0000
,
0100
0000
0010
0000
,
1000
0000
0000
0100
,
0001
0000
0000
0000
,
0010
0000
0001
0000
,
0000
0000
0000
0000
,
0000
0100
0000
0010
,
1000
0000
0000
0010
,
0100
0000
0000
0100
,
0000
0000
0000
0100
,
0010
0000
0010
0000
,
1000
0000
1000
0000
,
0010
0000
1000
0000
,
0100
0000
0100
0000
,
0000
1000
0000
0000
,
0010
0000
0000
0001
,
0100
0000
0000
0000
,
1000
0001
0000
0100
,
1000
0000
1000
0001
,
0000
0000
0010
0100
,
0000
0000
0000
0100
,
1000
0000
0001
0000
,
0100
0000
0001
0000
,
0100
0000
0001
0000
,
1000
0000
0100
0000
,
0010
0000
0100
0000
,
0010
0000
0001
0000
,
0100
0000
1000
0000
,
0001
0000
0100
0000
,
0010
0000
1000
0000
,
0001
0000
0100
0000
,
0010
0000
1000
0000
,
0001
0000
0010
0000
,
0000
0100
0000
0100
,
0010
0000
1000
0000
,
0100
0000
0010
0000
,
0010
0000
0000
0000
,
0100
0000
0010
0000
,
0001
0000
0100
0000
,
0100
0000
1000
0000
,
0010
0000
0100
0000
,
1000
0000
0100
0000
,
1000
0100
0010
0000
,
0100
0000
1000
0000
,
0001
0000
0010
0000
,
0001
0000
0010
0000
,
0001
0000
0010
0000
,
1000
0000
0100
0001
,
0001
0000
0010
1000
,
0001
0000
0010
0000
,
0100
0000
1000
0000
,
0000
0000
0000
0000
,
1000
0000
0000
0010
,
0001
0000
0000
0000
,
0000
0000
0000
0000
,
1001
0000
0000
0000
;

//---------------dance-double - ----------------
#NOTES:
     dance-double:
     :
     Hard:
     10:
     0.731,0.736,0.074,0.102,0.600,872.000,13.000,18.000,0.000,0.000:
00000000
00000000
00000000
00000000
,
00000000
00000000
00000000
00000000
,
00000000
00000000
00000000
00000000
,
10010000
00000000
00000000
00000000
,
00110000
00000000
00000000
00000000
00000000
00000000
00000000
00000000
00000000
00000000
00000000
00000000
00001000
00000000
00000000
00010000
00000000
00000000
00001000
00000000
00000000
00010000
00000000
00000000
00001000
00000000
00000000
00000000
00000000
00000000
00000000
00000000
00000000
00000000
00000000
00000000
00010000
00000000
00000000
00000000
00001000
00000000
00000000
00000000
00000100
00000000
00000000
00000000
,
00000010
00000000
00000000
00000000
00000000
00000000
00000000
00000000
00000000
00000000
00000000
00000000
00000100
00000000
00000000
00001000
00000000
00000000
00010000
00000000
00000000
00001000
00000000
00000000
00010000
00000000
00000000
00000000
00000000
00000000
00000000
00000000
00000000
00000000
00000000
00000000
10000000
00000000
00000000
00000000
00010000
00000000
00000000
00000000
00100000
00000000
00000000
00000000
,
00010000
00000000
00000000
00000000
00000000
00000000
00000000
00000000
00000000
00000000
00000000
00000000
00010000
00000000
00000000
00000100
00000000
00000000
00001000
00000000
00000000
00010000
00000000
00000000
00100000
00000000
00000000
00000000
00000000
00000000
00000000
00000000
00000000
00000000
00000000
00000000
00010000
00000000
00000000
00000000
00001000
00000000
00000000
00000000
00000010
00000000
00000000
00000000
,
00000001
00000000
00000000
00000000
00000000
00000000
00000000
00000000
00000000
00000000
00000000
00000000
00010000
00000000
00000000
01000000
00000000
00000000
00010000
00000000
00000000
00000000
00000000
00000000
00001000
00000000
00000000
00000000
00000000
00000000
00000000
00000000
00000000
00000000
00000000
00000000
01000000
00000000
00000000
00000000
10000000
00000000
00000000
00000000
00010000
00000000
00000000
00000000
,
00100000
01000000
00000000
10000000
00010000
00000000
00010000
00100000
00000000
01000000
10000000
00000000
00010000
00000000
00000000
00000000
,
01000000
00100000
00000000
10000000
00010000
00000000
00001000
00010000
00000000
00001000
00000100
00000000
00000001
00000000
00000000
00000000
,
00000010
00000100
00001000
00000000
00000100
00000001
00000000
00000010
00000100
00000000
00001000
00000000
00011000
00000000
00000000
00000000
,
01000000
00010000
00000000
00010000
10000000
00000000
00100000
01000000
00000000
10000000
00010000
00000000
00010000
00000000
00000000
00000000
,
00001000
00000000
00000100
00000000
00001000
00000000
00000100
00000010
00000001
00000100
00001000
00000000
00001000
00000000
00000100
00000000
,
00000010
00000000
00000000
00001000
00000000
00000000
00000001
00000000
00000000
00000100
00000000
00000000
00000001
00000000
00000000
00000010
00000000
00000000
00001000
00000000
00010000
00000000
00100000
00000000
,
00010000
00000000
00010000
00100000
00000000
00100000
10000000
00000000
01000000
00010000
00000000
00000000
00000000
00001000
00000000
00000000
,
00000100
00001000
00000000
00000001
00000010
00000000
00000100
00000001
00000000
00000001
00000010
00000000
00001000
00000000
00000000
00000000
,
00000001
00000010
00001000
00000100
00000010
00000001
00001000
00000000
,
00000100
00000001
00001000
00000010
00000100
00001000
00001000
00000000
,
00000001
00001000
00010000
00100000
01000000
10000000
00100000
00000000
,
10000000
01000000
00010000
01000000
10000000
00100000
01100000
00000000
,
01000000
00010000
00000000
00010000
10000000
00000000
10000000
00100000
00000000
00100000
10000000
00000000
00010000
00000000
00000000
00000000
,
00100000
10000000
00000000
10000000
00100000
00000000
00100000
01000000
00000000
01000000
10000000
00000000
10010000
00000000
00000000
00000000
,
00001000
00000100
00000000
00000100
00000010
00000000
00000100
00000010
00000000
00000010
00000100
00000000
00001000
00000000
00000000
00000000
,
00000001
00001000
00000000
00000100
00000010
00000000
00000010
00000100
00000000
00000100
00001000
00000000
00010000
00000000
00000000
00000000
,
00100000
10000000
00000000
10000000
00010000
00000000
00010000
01000000
00000000
01000000
00010000
00000000
00001000
00000000
00000000
00000000
,
00000100
00000010
00000000
00001000
00000001
00000000
00000001
00000010
00000000
00000001
00001000
00000000
00000010
00000000
00000000
00000000
,
00000100
00001000
00000000
00000100
00001000
00000000
00000100
00001000
00000000
00000100
00001000
00000000
00011000
00000000
00000000
00000000
,
00010000
01000000
00000000
00100000
01000000
00000000
00100000
01000000
00000000
00100000
01000000
00000000
01100000
00000000
00000000
00000000
,
01000000
00010000
00000000
01000000
00010000
00000000
01000000
00010000
00000000
01000000
00010000
00000000
01010000
00000000
00000000
00000000
,
00001000
00000000
00000000
00000100
00000000
00000000
00000000
00000000
00000000
00000100
00000000
00000000
00000010
00000000
00000000
00000001
00000000
00000000
00000010
00000000
00000000
00000001
00000000
00000000
00000000
00000000
00000000
00000010
00000000
00000000
00000100
00000000
00000000
00000000
00000000
00000000
00001000
00000000
00000000
00000000
00000100
00000000
00000000
00000000
00001000
00000000
00000000
00000000
,
00010000
00100000
00000000
00100000
01000000
00000000
01000000
00010000
00000000
10000000
00100000
00000000
00100000
00000000
00000000
00000000
,
01000000
00010000
00000000
10000000
00010000
00000000
00100000
10000000
00000000
01000000
00010000
00000000
10000000
00000000
00000000
00000000
,
01000000
00000000
00100000
10000000
00000000
10000000
01000000
00000000
00010000
10000000
00000000
00000000
10000000
00000000
00010000
00000000
,
00001000
00000000
00000100
00000000
00001000
00000010
00000000
00000010
00000001
00000000
00000010
00000000
00000100
00000000
00000100
00000000
,
00000010
00000010
00000001
00000010
00000100
00000010
00000100
00000100
,
00000010
00000000
00001000
00000000
00010000
00000000
00100000
00000000
01000000
00000000
10000000
00000000
10000000
00100000
00000000
00100000
,
10000000
00000000
01000000
00000000
10000000
00000000
01000000
00000000
00010000
10000000
00000000
00000000
00100000
00000000
00010000
01000000
,
00010000
00100000
00100000
00100000
01000000
10000000
00010000
00010000
,
10000000
00010000
00000000
00000000
10000000
00100000
00000000
01000000
00010000
00000000
10000000
00000000
10000000
00000000
01000000
00000000
,
10000000
00000000
10000000
00000000
01000000
00000000
00010000
10000000
00000000
01000000
00000000
00000000
10000000
00000000
01000000
10000000
,
01000000
10000000
00000000
10100000
00000000
00000000
00000000
00000000
00000000
00011000
00000000
00000000
00001100
00000000
00000000
00000000
,
00000100
00000000
00000000
00000001
00000000
00000000
00000010
00000000
00000000
00000010
00000000
00000000
00000100
00000000
00000010
00000000
,
00000001
00000000
00000000
00000001
00000000
00000000
00001000
00000000
00000000
00000010
00000000
00000000
00000100
00000000
00000001
00000010
,
00000100
00000000
00000000
00001000
00000000
00000000
00000001
00000000
00000000
00000010
00000000
00000000
00000100
00000010
00000100
00000000
,
00000001
00000000
00000000
00000010
00000000
00000000
00000001
00000000
00000000
00000100
00000000
00000000
00000001
00000010
00000100
00000000
,
00000100
00000000
00000000
00000010
00000000
00000000
00000001
00000000
00000000
00000100
00000000
00000000
00000010
00000100
00000010
00000000
,
00000001
00000000
00000000
00000010
00000000
00000000
00000100
00000000
00000000
00000100
00000000
00000000
00000001
00001000
00000100
00000000
,
00001000
00000100
00000000
00000100
00001000
00000000
00010000
00100000
01000000
00000000
00010000
00000000
01000000
00000000
00100000
00000000
,
10000000
01000000
10000000
10000000
01000000
10000000
01000000
00100000
,
00010000
00001000
00000010
00000010
00000100
00000001
00000100
00000001
,
00000010
00000100
00001000
00010000
00100000
01000000
00010000
00100000
,
01000000
00100000
00010000
01000000
01000000
10000000
00010000
00100000
,
01000000
01000000
01000000
00010000
00001000
00000001
00000010
00000100
,
00000001
00001000
00000100
00001000
00000001
00000100
00000100
00001000
,
00001000
00000001
00000000
00000010
00000100
00000000
00001000
00000100
00001000
00000000
00000010
00000000
00001000
00000000
00000100
00000010
,
00000000
00000001
00000010
00000000
00001000
00000100
00000000
00000000
00000001
00000000
00000100
00000000
00000001
00000000
00000010
00000000
,
00000012
00000000
00000000
00000000
,
00000003
00000010
00000100
00001000
00010000
00100000
01000000
10000000
,
01000000
00100000
10000000
01000000
00100000
00100000
01000000
10000000
,
01000000
10000000
00010000
01000000
00100000
01000000
01000000
00100000
,
00100000
10000000
00000000
01000000
00100000
00000000
00100000
01000000
00000000
10000000
01000000
00000000
00100000
00000000
00010000
00000000
,
00001000
00000100
00000001
00000100
00001000
00000001
00000100
00000100
,
00000001
00000000
00000010
00000100
00000000
00001000
00000100
00000000
00000001
00000000
00000100
00000000
00000100
00001000
00000000
00000000
,
00000100
00000010
00000000
00000001
00000010
00000000
00000100
00001000
00000000
00000010
00000001
00000000
00000100
00000000
00000100
00000000
,
00000001
00000000
00000010
00000100
00000000
00001000
00000100
00000000
00000001
00000010
00000100
00000000
00000100
00001000
00000100
00000000
,
00000010
00000000
00000010
00000100
00000000
00000100
00001000
00000000
00001000
00000001
00000000
00000000
00000010
00000000
00000010
00000000
,
00001000
00000000
00000000
00000000
00000000
00000000
00000001
00000000
00000000
00000000
00000000
00000000
00000001
00000000
00000000
00000000
00000000
00000000
00001000
00000000
00000000
00000001
00000000
00000000
00001000
00000000
00000000
00000000
00000000
00000000
00000000
00000000
00000000
00000000
00000000
00000000
00000100
00000000
00000000
00000000
00001000
00000000
00000000
00000000
00010000
00000000
00000000
00000000
,
00100000
00000000
00000000
00000000
00000000
10000000
00010000
00000000
00100000
00000000
00000000
00000000
01000000
00000000
10000000
00000000
,
00100000
00100000
01000000
01000000
10000000
10000000
00010000
00010000
,
00001000
00000000
00001000
00000000
00000100
00000000
00000100
00000000
00000010
00000000
00000010
00000000
00001000
00000100
00000010
00000000
,
00000001
00000010
00000100
00000000
00000100
00000010
00000001
00000000
00000010
00001000
00000100
00000000
00001000
00000001
00001000
00000000
,
00000000
00000000
00000100
00000000
00000001
00000010
00000100
00000000
00001000
00000001
00000010
00000000
00001000
00000000
00000010
00000000
,
00000010
00000000
00000010
00000000
00001000
00000100
00000000
00000000
00000010
00000000
00000001
00000000
00001000
00000001
00000000
00000000
,
00000010
00000010
00000010
00001000
00000002
00000000
00001003
00000000
,
00010000
00000000
01000000
00000000
00010000
10000000
00000000
00000000
00100000
00000000
01000000
00000000
00100000
01000000
00000000
00000000
,
10000000
00100000
00010000
01000000
20000000
00000000
30010000
00000000
,
00010000
00000000
00010000
00000000
10000000
00010000
00000000
00000000
00100000
00000000
00100000
00000000
01000000
10000000
00000000
00000000
,
00010000
00100000
10000000
01000000
00020000
00000000
01030000
00000000
,
10000000
00000000
10000000
00000000
10000000
00010000
00000000
00000000
00010000
00000000
00010000
00000000
00010000
01000000
00000000
00000000
,
01000000
00010000
10000000
01000000
02000000
00000000
03100000
00000000
,
00010000
00000000
00001000
00000000
00000100
00001000
00000000
00000000
00001000
00000000
00001000
00000000
00001000
00000010
00000000
00000000
,
00000001
00000010
00000001
00000100
00000020
00000000
00000031
00000000
,
00000100
00000000
00000100
00000000
00000100
00001000
00000000
00000000
00000010
00000000
00000001
00000000
00000001
00000010
00000000
00000000
,
00000100
00000100
00001000
00010000
00020000
00000000
10030000
00000000
,
01000000
00000000
01000000
00000000
00100000
00010000
00100000
00000000
10000000
00000000
10000000
00000000
01000000
00100000
00010000
00000000
,
00010000
00010000
10000000
00100000
02000000
00000000
13000000
00000000
,
00100000
00000000
00010000
00000000
10000000
01000000
00100000
00000000
10000000
00000000
01000000
00000000
00100000
00010000
00100000
00000000
,
01000000
10000000
01000000
00100000
00020000
00000000
00031000
00000000
,
00000100
00000000
00000001
00000000
00000010
00000001
00001000
00000000
00000100
00000000
00000001
00000010
00001000
00000000
00000100
00000000
,
00000010
00000100
00000001
00000000
00000010
00000000
00001000
00000000
00000100
00000000
00000001
00000010
00001000
00000000
00000001
00000010
,
00000000
00000000
00000100
00001000
00000100
00000000
00000001
00000010
00000001
00000000
00001000
00000000
00000010
00000000
00001000
00000000
,
00000100
00000000
00001000
00000000
00010000
00000000
00100000
00000000
10000000
00000000
00010000
00100000
00010000
00000000
00000000
00000000
,
10000000
00000000
10000000
00000000
01000000
00010000
01000000
00000000
00100000
00000000
01000000
00000000
00010000
10000000
00010000
00000000
,
00100000
10000000
01000000
00100000
00020000
00000000
00030000
00000000
,
01000000
00000000
00100000
00000000
00010000
10000000
01000000
00000000
00100000
00000000
00010000
00000000
10000000
01000000
00100000
00000000
,
00010000
10000000
01000000
00100000
00020000
00000000
00030000
00000000
,
00001000
00000000
00000001
00000000
00000010
00000001
00000100
00000000
00000001
00000000
00001000
00000000
00000010
00000100
00000001
00000000
,
00000010
00001000
00000100
00000001
00000020
00000000
00000030
00000000
,
00000001
00000000
00000010
00000000
00000100
00001000
00000100
00000000
00000001
00000000
00001000
00000000
00000010
00000001
00000010
00000000
,
00000100
00001000
00000100
00000001
00000200
00000000
00000300
00000000
,
00001000
00000000
00001000
00000000
00010000
00100000
01000000
00000000
10000000
00000000
01000000
00000000
00100000
01000000
00100000
00000000
,
10000000
10000000
01000000
00100000
00200000
00000000
00300000
00000000
,
00010000
00000000
10000000
00000000
00010000
01000000
00010000
00000000
00100000
00000000
10000000
00000000
10000000
00100000
10000000
00000000
,
00010000
01000000
00100000
10000000
02000000
00000000
03000000
00000000
,
00010000
00000000
00001000
00000000
00001000
00000100
00000000
00000000
00000010
00000000
00000010
00000000
00000010
00000100
00000000
00000000
,
00001000
00000001
00000010
00000100
00000200
00000000
00001300
00000000
,
00010000
01000000
00000000
00000000
01000000
00000000
00010000
00000000
01000000
00000000
00000000
00000000
00010000
00000000
00100000
00000000
,
00100000
00000000
01000000
00000000
00010000
00100000
00000000
01000000
10000000
00000000
00100000
00000000
00010000
00000000
10000000
00000000
,
00100000
00000000
00000000
10000000
00000000
00000000
01000000
00000000
00000000
00000000
00100000
00000000
00010000
00000000
00000000
00000000
,
10000000
00000000
00000000
01000000
00000000
00000000
00100000
00000000
00000000
00000000
10000000
00000000
00100000
00000000
00000000
00000000
,
00001000
00000000
00000000
00010000
00000000
00000000
00001000
00000000
00000000
00000000
00000100
00000000
00001000
00000000
00010000
00000000
,
00100000
00000000
00000000
10000000
00000000
00000000
01000000
00000000
00100000
00000000
00010000
00001000
00000010
00000000
00000000
00000000
,
00020020
00000000
00000000
00000000
,
00030030
00000000
00000000
00000000
;

//---------------dance-double - ----------------
#NOTES:
     dance-double:
     :
     Medium:
     7:
     0.571,0.544,0.074,0.102,0.057,675.000,13.000,18.000,0.000,0.000:
00000000
00000000
00000000
00000000
,
00000000
00000000
00000000
00000000
,
00000000
00000000
00000000
00000000
,
10010000
00000000
00000000
00000000
,
00110000
00000000
00010000
00001000
00010000
00000000
00010000
00000000
,
00001000
00000000
00000100
00001000
00010000
00000000
10000000
00000000
,
00010000
00000000
00010000
00001000
00100000
00000000
00010000
00000000
,
00000100
00000000
00010000
00001000
00010000
00000000
01000000
00000000
,
00100000
00000000
00010000
00010000
00000000
10000000
00010000
00000000
,
01000000
00000000
00010000
00001000
00000000
00000100
00000001
00000000
,
00000010
00001000
00000100
00000000
00000100
00001000
00011000
00000000
,
01000000
00000000
10000000
00100000
00000000
00100000
00010000
00000000
,
00001000
00000100
00001000
00000100
00000001
00001000
00001000
00000100
,
00000010
00001000
00000001
00000100
00000001
00000010
00001000
00000000
,
00010000
00000000
00010000
00000000
00000000
00000000
10000000
00000000
01000000
00000000
00000000
00000000
00000000
00001000
00000000
00000000
,
00000100
00000000
00000010
00000100
00000000
00000010
00001000
00000000
,
00000001
00000010
00001000
00000100
00000010
00000001
00001000
00000000
,
00000100
00000001
00001000
00000010
00000100
00001000
00001000
00000000
,
00000001
00001000
00010000
00100000
01000000
10000000
00100000
00000000
,
10000000
01000000
00010000
01000000
10000000
00100000
01100000
00000000
,
01000000
00000000
10000000
10000000
00000000
10000000
00010000
00000000
,
00100000
00000000
00100000
00100000
00000000
10000000
10010000
00000000
,
00001000
00000000
00000010
00000100
00000000
00000100
00001000
00000000
,
00000001
00000000
00000010
00000010
00000000
00001000
00010000
00000000
,
00100000
00000000
00010000
00010000
00000000
00010000
00001000
00000000
,
00000100
00000000
00000001
00000001
00000000
00001000
00000010
00000000
,
00000100
00000000
00001000
00000100
00000000
00001000
00011000
00000000
,
00010000
00000000
01000000
00100000
00000000
01000000
01100000
00000000
,
01000000
00000000
00010000
01000000
00000000
00010000
01010000
00000000
,
00001000
00000000
00000010
00000010
00000000
00000100
00001000
00000000
,
00010000
00000000
01000000
01000000
00000000
00100000
00100000
00000000
,
01000000
00000000
00010000
00100000
00000000
00010000
10000000
00000000
,
01000000
00100000
00000000
01000000
00010000
00000000
10000000
00010000
,
00001000
00000100
00001000
00000000
00000001
00000010
00000100
00000100
,
00000010
00000010
00000001
00000010
00000100
00000010
00000100
00000100
,
00000010
00001000
00010000
00100000
01000000
10000000
10000000
00000000
,
10000000
01000000
10000000
01000000
00010000
00000000
00100000
00010000
,
00010000
00100000
00100000
00100000
01000000
10000000
00010000
00010000
,
10000000
00000000
10000000
00000000
00010000
10000000
10000000
01000000
,
10000000
00000000
10000000
00000000
01000000
00000000
00010000
00000000
00000000
01000000
00000000
00000000
10000000
00000000
01000000
00000000
,
01000000
00000000
00000000
10100000
00000000
00000000
00000000
00000000
00000000
00011000
00000000
00000000
00001100
00000000
00000000
00000000
,
00000100
00000000
00000000
00000001
00000000
00000000
00000010
00000000
00000000
00000010
00000000
00000000
00000100
00000000
00000010
00000000
,
00000001
00000000
00000000
00000001
00000000
00000000
00001000
00000000
00000000
00000010
00000000
00000000
00000100
00000000
00000001
00000000
,
00000100
00000000
00000000
00001000
00000000
00000000
00000001
00000000
00000000
00000010
00000000
00000000
00000100
00000000
00000100
00000000
,
00000001
00000000
00000000
00000010
00000000
00000000
00000001
00000000
00000000
00000100
00000000
00000000
00000001
00000000
00000100
00000000
,
00000100
00000000
00000000
00000010
00000000
00000000
00000001
00000000
00000000
00000100
00000000
00000000
00000010
00000000
00000010
00000000
,
00000001
00000000
00000000
00000010
00000000
00000000
00000100
00000000
00000000
00000100
00000000
00000000
00000001
00000000
00000100
00000000
,
00001000
00000000
00001000
00010000
01000000
00010000
01000000
00100000
,
10000000
01000000
10000000
10000000
01000000
10000000
01000000
00100000
,
00010000
00001000
00000010
00000010
00000100
00000001
00000100
00000001
,
00000010
00000100
00001000
00010000
00100000
01000000
00010000
00100000
,
01000000
00100000
00010000
01000000
01000000
10000000
00010000
00100000
,
01000000
01000000
01000000
00010000
00001000
00000001
00000010
00000100
,
00000001
00001000
00000100
00001000
00000001
00000100
00000100
00001000
,
00001000
00000000
00000100
00001000
00001000
00000010
00001000
00000100
,
00000000
00000010
00001000
00000000
00000001
00000100
00000001
00000010
,
00000012
00000000
00000000
00000000
,
00000003
00000010
00000100
00001000
00010000
00100000
01000000
10000000
,
01000000
00100000
10000000
01000000
00100000
00100000
01000000
10000000
,
01000000
10000000
00010000
01000000
00100000
01000000
01000000
00100000
,
00100000
00000000
00100000
00100000
00000000
01000000
00100000
00010000
,
00001000
00000100
00000001
00000100
00001000
00000001
00000100
00000100
,
00000001
00000010
00000000
00000100
00000001
00000100
00000100
00000000
,
00000100
00000000
00000010
00000100
00000000
00000001
00000100
00000100
,
00000001
00000010
00000000
00000100
00000001
00000100
00000100
00000100
,
00000010
00000010
00000000
00001000
00001000
00000000
00000010
00000010
,
00001000
00000001
00000001
00001000
00001000
00000000
00000100
00000000
,
00100000
00000000
00000000
00010000
00100000
00000000
01000000
10000000
,
00100000
00100000
01000000
01000000
10000000
10000000
00010000
00010000
,
00001000
00001000
00000100
00000100
00000010
00000010
00001000
00000010
,
00000001
00000100
00000100
00000001
00000010
00000100
00001000
00001000
,
00000000
00000100
00000001
00000100
00001000
00000010
00001000
00000010
,
00000010
00000010
00001000
00000000
00000010
00000001
00001000
00000000
,
00000010
00000010
00000010
00001000
00000002
00000000
00001003
00000000
,
00010000
01000000
00010000
00000000
00100000
01000000
00100000
00000000
,
10000000
00100000
00010000
01000000
20000000
00000000
30010000
00000000
,
00010000
00010000
10000000
00000000
00100000
00100000
01000000
00000000
,
00010000
00100000
10000000
01000000
00020000
00000000
01030000
00000000
,
10000000
10000000
10000000
00000000
00010000
00010000
00010000
00000000
,
01000000
00010000
10000000
01000000
02000000
00000000
03100000
00000000
,
00010000
00001000
00000100
00000000
00001000
00001000
00001000
00000000
,
00000001
00000010
00000001
00000100
00000020
00000000
00000031
00000000
,
00000100
00000100
00000100
00000000
00000010
00000001
00000001
00000000
,
00000100
00000100
00001000
00010000
00020000
00000000
10030000
00000000
,
01000000
01000000
00100000
00000000
10000000
10000000
01000000
00000000
,
00010000
00010000
10000000
00100000
02000000
00000000
13000000
00000000
,
00100000
00010000
10000000
00000000
10000000
01000000
00100000
00000000
,
01000000
10000000
01000000
00100000
00020000
00000000
00031000
00000000
,
00000100
00000001
00000010
00000000
00000100
00000001
00001000
00000100
,
00000010
00000001
00000010
00001000
00000100
00000001
00001000
00000001
,
00000000
00000100
00000100
00000001
00000001
00001000
00000010
00001000
,
00000100
00001000
00010000
00100000
10000000
00010000
00010000
00000000
,
10000000
10000000
01000000
01000000
00100000
01000000
00010000
00010000
,
00100000
10000000
01000000
00100000
00020000
00000000
00030000
00000000
,
01000000
00100000
00010000
01000000
00100000
00010000
10000000
00100000
,
00010000
10000000
01000000
00100000
00020000
00000000
00030000
00000000
,
00001000
00000001
00000010
00000100
00000001
00001000
00000010
00000001
,
00000010
00001000
00000100
00000001
00000020
00000000
00000030
00000000
,
00000001
00000010
00000100
00000100
00000001
00001000
00000010
00000010
,
00000100
00001000
00000100
00000001
00000200
00000000
00000300
00000000
,
00001000
00001000
00010000
01000000
10000000
01000000
00100000
00100000
,
10000000
10000000
01000000
00100000
00200000
00000000
00300000
00000000
,
00010000
10000000
00010000
00010000
00100000
10000000
10000000
10000000
,
00010000
01000000
00100000
10000000
02000000
00000000
03000000
00000000
,
00010000
00001000
00001000
00000000
00000010
00000010
00000010
00000000
,
00001000
00000001
00000010
00000100
00000200
00000000
00001300
00000000
,
00010000
00000000
01000000
00010000
01000000
00000000
00010000
00100000
,
00100000
01000000
00010000
00000000
10000000
00100000
00010000
10000000
,
00100000
00000000
00000000
10000000
00000000
00000000
01000000
00000000
00000000
00000000
00100000
00000000
00010000
00000000
00000000
00000000
,
10000000
00000000
00000000
01000000
00000000
00000000
00100000
00000000
00000000
00000000
10000000
00000000
00100000
00000000
00000000
00000000
,
00001000
00000000
00000000
00010000
00000000
00000000
00001000
00000000
00000000
00000000
00000100
00000000
00001000
00000000
00010000
00000000
,
00100000
00000000
00000000
10000000
00000000
00000000
01000000
00000000
00100000
00000000
00010000
00000000
00000100
00000000
00000000
00000000
,
00022000
00000000
00000000
00000000
,
00033000
00000000
00000000
00000000
;

//---------------dance-double - ----------------
#NOTES:
     dance-double:
     :
     Easy:
     4:
     0.351,0.416,0.068,0.102,0.057,404.000,12.000,18.000,0.000,0.000:
00000000
00000000
00000000
00000000
,
00000000
00000000
00000000
00000000
,
00000000
00000000
00000000
00000000
,
10010000
00000000
00000000
00000000
,
00110000
00010000
00010000
00010000
,
00001000
00000100
00010000
10000000
,
00010000
00010000
00100000
00010000
,
00000100
00010000
00010000
01000000
,
00100000
00010000
00000000
00010000
,
01000000
00010000
00000000
00001000
,
00000010
00000100
00000100
00001000
,
00010000
00100000
00000000
00010000
,
00001000
00001000
00000001
00001000
,
00000010
00000001
00000001
00001000
,
00010000
00000000
00000000
00000000
00000000
00000000
00000000
00000000
00010000
00000000
00000000
00000000
00000000
00001000
00000000
00000000
,
00000100
00000010
00000000
00001000
,
00000001
00001000
00000010
00001000
,
00000100
00001000
00000100
00001000
,
00001000
00010000
01000000
00100000
,
10000000
00010000
10000000
01100000
,
01000000
10000000
00000000
00010000
,
00100000
00100000
00000000
10010000
,
00001000
00000010
00000000
00001000
,
00000001
00000010
00000000
00001000
,
00010000
00010000
00000000
00001000
,
00000100
00000001
00000000
00000010
,
00000100
00001000
00000000
00011000
,
00010000
01000000
00000000
01100000
,
01000000
00010000
00000000
01010000
,
00001000
00000010
00000000
00001000
,
00010000
01000000
00000000
00100000
,
01000000
00010000
00000000
10000000
,
01000000
00000000
00010000
10000000
,
00001000
00001000
00000001
00000100
,
00000010
00000001
00000100
00000100
,
00000010
00001000
00010000
10000000
,
10000000
10000000
00010000
00100000
,
00010000
00100000
01000000
00010000
,
10000000
10000000
00010000
10000000
,
10000000
00000000
00000000
00000000
01000000
00000000
00000000
00000000
00000000
01000000
00000000
00000000
10000000
00000000
00000000
00000000
,
01000000
00000000
00000000
10100000
00000000
00000000
00000000
00000000
00000000
00010000
00000000
00000000
00001100
00000000
00000000
00000000
,
00000100
00000000
00000000
00000001
00000000
00000000
00000010
00000000
00000000
00000010
00000000
00000000
00000100
00000000
00000010
00000000
,
00000001
00000000
00000000
00000001
00000000
00000000
00001000
00000000
00000000
00000010
00000000
00000000
00000100
00000000
00000000
00000000
,
00000100
00000000
00000000
00001000
00000000
00000000
00000001
00000000
00000000
00000010
00000000
00000000
00000100
00000000
00000000
00000000
,
00000001
00000000
00000000
00000010
00000000
00000000
00000001
00000000
00000000
00000100
00000000
00000000
00000001
00000000
00000000
00000000
,
00000100
00000000
00000000
00000010
00000000
00000000
00000001
00000000
00000000
00000100
00000000
00000000
00000010
00000000
00000000
00000000
,
00000001
00000000
00000000
00000010
00000000
00000000
00000100
00000000
00000000
00000100
00000000
00000000
00000001
00000000
00000000
00000000
,
00001000
00001000
00010000
00010000
,
10000000
10000000
01000000
01000000
,
00010000
00001000
00000100
00000100
,
00000010
00001000
00010000
00010000
,
01000000
00010000
01000000
00010000
,
01000000
01000000
00010000
00000010
,
00000001
00000100
00000001
00000100
,
00001000
00000100
00001000
00001000
,
00000000
00001000
00000001
00000001
,
00000012
00000000
00000000
00000000
,
00000003
00000100
00001000
00010000
,
01000000
10000000
00100000
01000000
,
01000000
00010000
00100000
01000000
,
00100000
00100000
00000000
00100000
,
00011000
00000001
00001000
00000100
,
00000001
00000000
00000001
00000100
,
00000100
00000010
00000000
00000100
,
00000001
00000000
00000001
00000100
,
00000010
00000000
00001000
00000010
,
00001000
00000001
00001000
00010000
,
00100000
00000000
00100000
01000000
,
00100000
01000000
10000000
00010000
,
00001000
00000100
00000010
00001000
,
00000001
00000100
00000010
00001000
,
00000000
00000001
00001000
00001000
,
00000010
00001000
00000010
00001000
,
00000010
00000010
00000002
00001003
,
00010000
00010000
00100000
00100000
,
10000000
00010000
20000000
30010000
,
00010000
10000000
00100000
01000000
,
00010000
10000000
00020000
01030000
,
10000000
10000000
00010000
00010000
,
01000000
10000000
02000000
03100000
,
00010000
00001000
00001000
00001000
,
00000001
00000001
00000020
00000031
,
00000100
00000100
00000010
00000001
,
00000100
00001000
00020000
10030000
,
01000000
00100000
10000000
01000000
,
00010000
10000000
02000000
13000000
,
00100000
10000000
10000000
00100000
,
01000000
01000000
00020000
00031000
,
00000100
00000010
00000100
00001000
,
00000010
00000010
00000100
00001000
,
00000000
00000100
00000001
00000010
,
00001000
00010000
10000000
00010000
,
10000000
01000000
00100000
00010000
,
00100000
01000000
00020000
00030000
,
01000000
00010000
00100000
10000000
,
00010000
01000000
00020000
00030000
,
00001000
00000010
00000001
00000010
,
00000010
00000100
00000020
00000030
,
00000001
00000100
00000001
00000010
,
00000100
00000100
00000200
00000300
,
00001000
00010000
10000000
00100000
,
10000000
01000000
00200000
00300000
,
00010000
00010000
00100000
10000000
,
00010000
00100000
02000000
03000000
,
00010000
00001000
00000010
00000010
,
00001000
00000010
00000200
00001300
,
00010000
01000000
01000000
00010000
,
00100000
00010000
10000000
00010000
,
00100000
00000000
00000000
10000000
00000000
00000000
01000000
00000000
00000000
00000000
00000000
00000000
00010000
00000000
00000000
00000000
,
10000000
00000000
00000000
01000000
00000000
00000000
00100000
00000000
00000000
00000000
00000000
00000000
00010000
00000000
00000000
00000000
,
00001000
00000000
00000000
00010000
00000000
00000000
00001000
00000000
00000000
00000000
00000000
00000000
00001000
00000000
00000000
00000000
,
00010000
00000000
00000000
10000000
00000000
00000000
00000000
00000000
00100000
00000000
00000000
00000000
00010000
00000000
00000000
00000000
,
00022000
00000000
00000000
00000000
,
00033000
00000000
00000000
00000000
;
