#TITLE:Boss Machine;
#SUBTITLE:;
#ARTIST:DM Ashura;
#TITLETRANSLIT:;
#SUBTITLETRANSLIT:;
#ARTISTTRANSLIT:;
#CREDIT:;
#BANNER:Boss Machine.png;
#BACKGROUND:Boss Machine~bg.png;
#LYRICSPATH:;
#CDTITLE:Roast's SMX Logo.png;
#MUSIC:Boss Machine.mp3;
#OFFSET:0.000;
#SAMPLESTART:46.000;
#SAMPLELENGTH:12.000;
#SELECTABLE:YES;
#BPMS:0.000=160.000;
#STOPS:;
#BGCHANGES:;
// cache tags:
#FIRSTBEAT:8.000;
#LASTBEAT:340.000;
#SONGFILENAME:Songs/StepMix 2/Boss Machine/Boss Machine.sm;
#HASMUSIC:1;
#HASBANNER:1;
#MUSICLENGTH:129.705;
// end cache tags

//---------------dance-single - Blank----------------
#NOTES:
     dance-single:
     Blank:
     Edit:
     1:
     0.000,0.000,0.000,0.000,0.000,0.000,0.000,0.000,0.000,0.000:

;

//---------------dance-single - Read "Read Me"----------------
#NOTES:
     dance-single:
     Read "Read Me":
     Beginner:
     3:
     0.242,0.328,0.439,0.015,0.000,161.000,57.000,2.000,0.000,0.000:































0000
0000
0000
0000
,
0000
0000
0000
0000
,
0000
0000
0000
0000
,
0000
0000
0000
0000
,
1000
0000
0000
0000
,
1000
0000
0000
0000
,
1000
0000
0000
0000
,
1000
0000
0000
0000
,
0001
0000
0000
0000
,
0001
0000
0000
0000
,
0001
0000
0000
0000
,
0001
0000
0000
0000
,
1000
0000
0100
0000
,
0100
0000
0010
0000
,
0010
0000
0001
0000
,
0001
0000
1000
0000
,
1000
0000
0100
0000
,
0100
0000
1000
0000
,
1001
0000
1100
0000
,
0110
0000
0011
0000
,
1000
0000
1001
0000
,
0100
0000
0110
0000
,
0010
0000
0011
0000
,
0010
0000
0110
0000
,
0001
0000
1100
0000
,
1000
0000
0011
0000
,
0100
0000
0011
0000
,
0010
0000
1100
0000
,
1000
0000
0001
0000
,
1001
0000
0100
0000
,
0010
0000
0110
0000
,
1001
0000
0110
0000
,
1000
0000
0100
0000
,
0010
0000
0001
0000
,
0011
0000
1100
0000
,
0101
0000
1010
0000
,
1000
0000
1000
0000
,
1000
0000
0001
0000
,
0001
0000
0001
0000
,
0100
0000
0100
0000
,
0100
0000
0010
0000
,
0010
0000
0010
0000
,
0100
0000
0100
0000
,
0001
0000
1000
0000
,
1100
0000
0100
0000
,
0010
0000
0001
0000
,
0101
0000
0100
0000
,
0010
0000
1000
0000
,
1001
0000
0001
0000
,
1000
0000
0010
0000
,
0110
0000
0100
0000
,
0001
0000
1000
0000
,
1100
0000
0110
0000
,
0011
0000
0101
0000
,
0110
0000
1010
0000
,
1100
0000
0110
0000
,
0011
0000
1001
0000
,
0101
0000
1001
0000
,
1010
0000
1001
0000
,
1100
0000
1001
0000
,
1000
0000
0100
0000
,
0010
0000
0001
0000
,
1000
0000
0100
0000
,
1000
0000
0010
0000
,
1000
0000
0100
0000
,
0010
0000
0100
0000
,
1001
0000
0110
0000
,
1001
0000
1100
0000
,
1000
0000
0100
0000
,
0010
0001
0010
0000
,
0100
0000
1000
0000
,
0100
0010
0100
0000
,
1100
0000
1100
0000
,
1000
0100
1000
0000
,
0011
0000
0011
0000
,
0001
0010
0001
0000
,
1100
0000
0011
0000
,
1000
0001
1000
0000
,
1001
0000
0110
0000
,
0001
0100
0001
0000
,
0110
0000
1100
0000
,
1000
0100
0010
0000
,
0011
0000
0110
0000
,
0100
0010
0001
0000
,
2002
0000
0000
0000
,
3003
0000
0000
0000
;

//---------------dance-single - Read "Read Me"----------------
#NOTES:
     dance-single:
     Read "Read Me":
     Easy:
     5:
     0.540,0.590,0.732,0.601,0.000,317.000,95.000,78.000,0.000,0.000:
































0000
0000
0000
0000
,
0000
0000
0000
0000
,
0000
0000
0000
0000
,
0000
0000
0000
0000
,
1000
0100
0010
0001
,
0011
0011
0011
0011
,
0100
1000
0100
1000
,
1100
1100
1100
1100
,
0010
0001
0100
0010
,
1010
1010
1010
1010
,
0100
0010
0100
1000
,
1100
1100
1100
1100
,
1000
1000
0100
0010
,
0100
1000
0100
0000
1000
0000
0000
0000
,
0001
1000
0010
1000
,
0100
1000
0100
0000
1000
0000
0000
0000
,
1000
0100
0010
0001
,
0100
0001
0100
0000
0010
0000
0000
0000
,
2200
3300
0220
0330
,
0022
0033
2002
3003
,
2000
3200
0320
0032
,
1003
0001
1000
0000
0000
0000
1100
0000
,
0020
0230
0302
2003
,
3100
1000
0100
0000
2200
0000
3300
0000
,
2000
3020
2030
3200
,
0310
0100
0010
0000
0000
0000
0110
0000
,
0200
2300
3200
0320
,
0031
0010
0001
0000
0022
0000
0033
0000
,
0002
0023
0032
2003
,
3001
1000
0001
0000
0000
0000
1001
0000
,
2000
3002
2003
3200
,
1300
0100
1000
0000
2200
0000
3300
0000
,
2000
3200
0320
0032
,
0103
0010
0100
0000
2000
0000
3200
0000
,
0320
0230
2300
3200
,
0310
0001
0010
0000
0022
0000
0033
0000
,
1000
1100
0100
0110
,
0010
0011
0100
0101
,
0100
0110
0010
0110
,
1000
1010
0001
1001
,
1000
1001
0010
1010
,
0100
0110
0001
0101
,
1000
1001
0100
1100
,
0010
0110
0001
0011
,
0001
0010
0100
1000
,
0100
1000
0100
0010
,
0001
0100
0010
1000
,
0010
1000
0010
0100
,
0001
0010
0100
0010
,
0001
0010
0100
0010
,
2002
3003
0202
0303
,
0022
0033
0220
0330
,
1001
1010
0110
0101
,
0011
0110
1100
1001
,
1010
1001
1100
1001
,
0101
0011
0110
1100
,
1001
0110
1001
1100
,
0011
0110
1100
0110
,
0011
0110
1100
0101
,
1100
1010
0202
0303
,
1000
0100
0010
0100
,
1000
0100
0010
0001
,
0100
0010
0100
0001
,
1000
0010
1000
0100
,
1000
1100
0100
0110
,
0010
0011
0010
0110
,
0220
0330
2200
3300
,
2002
3003
0202
0303
,
0001
0100
0010
1000
,
0100
1000
0100
0000
2000
0000
3100
0000
,
0010
0001
0100
0010
,
1000
0001
1000
0000
0002
0000
1003
0000
,
0001
0100
0010
0100
,
0001
0100
0001
0000
0200
0000
0301
0000
,
1000
0100
0010
0100
,
1000
0010
1000
0000
0020
0000
1030
0000
,
1100
0110
0011
0110
,
1000
0100
1000
0000
0200
0000
1300
0000
,
1001
0110
1001
1100
,
0010
0001
0010
0000
0002
0000
0013
0000
,
0100
1000
0010
0100
,
0001
1000
0001
0000
2000
0000
3001
0000
,
0100
0010
0100
0001
,
1000
0100
1000
0000
0200
0000
1300
0000
,
2002
0000
0000
0000
,
3003
0000
0000
0000
;

//---------------dance-single - Read "Read Me"----------------
#NOTES:
     dance-single:
     Read "Read Me":
     Medium:
     7:
     0.675,0.754,0.039,0.848,0.247,498.000,5.000,110.000,37.000,0.000:





0000
0000
0000
0000
,
0000
0000
0000
0000
,
0000
0000
0000
0000
,
0000
0000
0000
0000
,
1000
1000
0100
0100
0010
0010
0001
0001
,
0010
0001
0010
0001
,
0010
0010
0100
0100
1000
1000
0100
0100
,
0010
0100
0010
0100
,
0010
0100
1000
0100
0010
0100
1000
0100
,
1000
0100
1000
0100
,
1000
0100
0001
0100
1000
0100
0001
0100
,
1000
0001
1000
0001
,
1000
0100
0010
0001
0010
0100
1000
0100
,
0020
0032
0203
0320
,
1030
0100
1000
0010
1000
0100
1000
0010
,
2000
3002
2003
3002
,
0103
0000
1000
0000
0100
0000
0001
0000
0010
0000
1000
0000
0020
0000
M002
0M00
,
M000
0M00
M000
0M00
M000
0M00
M000
0M00
M000
0M00
M000
0M00
M000
0M00
M033
0000
,
0001
0010
0100
1000
0100
0010
0001
0010
,
0100
1000
0100
0010
0100
1000
0100
0000
,
2000
3200
0320
0032
,
1003
0001
1000
0100
0000
1000
0100
0000
,
0020
0032
0203
2300
,
3010
1000
0100
0001
2000
0000
3000
0000
,
2000
3200
0302
0203
,
1300
0010
1000
0100
0000
1000
0001
0000
,
0020
0230
2300
3200
,
0310
0001
0100
0010
2000
0000
3000
0000
,
0200
0320
0032
0203
,
0310
0100
0001
0010
0000
0100
1000
0000
,
2000
3200
0320
0032
,
0103
0010
1000
0100
2000
0000
3000
0000
,
2000
3200
0302
2003
,
3100
0001
1000
0010
0000
0100
0001
0000
,
0020
0230
0320
0032
,
0013
0100
1000
0100
0020
0000
0030
0000
,
0100
0000
0000
0000
1000
0010
0000
0000
0100
0000
0000
0000
0001
0100
0000
0000
,
0010
0000
0000
0000
1000
0100
0000
0000
0100
0000
0000
0000
0010
0001
0000
0000
,
1000
0000
0000
0000
0010
0100
0000
0000
0100
0000
0000
0000
0001
1000
0000
0000
,
0001
0000
0000
0000
0100
0010
0000
0000
0100
0000
0000
0000
0001
1000
0000
0000
,
0001
0000
0000
0000
1000
0010
0000
0000
0100
0000
0000
0000
0010
0001
0000
0000
,
1000
0000
0000
0000
0001
0100
0000
0000
0001
0000
0000
0000
1000
0100
0000
0000
,
1000
0000
0000
0000
1000
0010
0000
0000
0010
0000
0000
0000
0100
0010
0000
0000
,
0100
0000
0000
0000
0100
0001
0000
0000
1000
0000
0000
0000
1000
0100
0000
0000
,
1000
0100
0010
0001
0010
0100
1000
0100
,
0010
0100
1000
0100
0010
0001
0100
0010
,
1000
0001
0100
0010
1000
0100
0010
0001
,
0100
0010
0100
0001
0010
0100
1000
0100
,
0010
0001
0010
0100
1000
0100
0010
0100
,
0001
0100
1000
0100
1000
0010
1000
0010
,
0001
0010
1000
0010
0001
0010
1000
0100
,
0001
0100
1000
0100
0010
0001
0100
0010
,
1000
0000
0100
0000
0010
0000
0000
0001
0000
0000
0100
0000
0000
0010
0000
0000
,
1000
0000
0100
0000
0010
0000
0000
0100
0000
0000
1000
0000
0000
0100
0000
0000
,
0001
0000
0100
0000
1000
0000
0000
0010
0000
0000
0100
0000
0000
0001
0000
0000
,
1000
0000
0001
0000
0010
0000
0000
0100
0000
0000
1000
0000
0000
0100
0000
0000
,
0010
0000
1000
0000
0001
0000
0000
0100
0000
0000
1000
0000
0000
0010
0000
0000
,
0100
0000
0001
0000
0100
0000
0000
0001
0000
0000
0010
0000
0000
0001
0000
0000
,
1000
0000
0100
0000
1000
0000
0000
0100
0000
0000
0010
0000
0000
0001
0000
0000
,
0010
0000
0001
0000
0010
0000
0000
0100
0000
0000
1000
0000
0000
0100
0000
0000
,
1000
0100
0010
0001
0100
0010
1000
0100
,
0010
1000
0010
0100
1000
0001
0010
0100
,
0001
0100
0010
0001
1000
0001
1000
0100
,
0001
0100
0010
1000
0010
0001
0100
1000
,
0100
0010
0001
0010
1000
0100
0010
0001
,
0100
0010
0100
0001
0010
0100
1000
0001
,
1000
0001
1000
0000
0000
0000
0000
0000
0100
0010
0100
0000
0000
0000
0000
0000
,
0010
0001
0010
0000
0000
0000
0000
0000
0001
0100
0001
0000
0000
0000
0000
0000
,
0100
0000
0010
0000
1000
0000
0001
0000
1001
0000
0000
0000
0000
0000
0000
0002
,
2003
3000
0200
0300
0200
0300
2000
3000
2000
3000
0200
0300
0200
0300
0000
0000
,
1000
0000
0100
0000
1000
0000
0100
0000
0101
0000
0000
0000
0000
0000
0000
0020
,
0032
0003
0200
0300
0200
0300
2000
3000
2000
3000
0002
0003
0002
0003
0000
0000
,
0100
0000
0010
0000
1000
0000
0001
0000
1001
0000
0000
0000
0000
0000
0000
2000
,
3200
0300
2000
3000
2000
3000
0020
0030
0020
0030
0200
0300
0200
0300
0000
0000
,
0010
0000
0001
0000
0100
0000
0010
0000
1010
0000
0000
0000
0000
0000
0000
0200
,
0302
0003
0200
0300
0200
0300
2000
3000
2000
3000
0020
0030
0020
0030
0000
0000
,
0100
0001
0000
0000
0001
0010
0000
0000
0010
0100
0000
0000
0000
0000
0000
0200
,
2300
3000
0200
0300
0200
0300
0020
0030
0020
0030
0002
0003
0002
0003
0000
0000
,
0100
0010
0000
0000
0010
0001
0000
0000
0001
0010
0000
0000
0000
0000
0000
0020
,
0230
0300
2000
3000
2000
3000
0200
0300
0200
0300
0020
0030
0020
0030
0000
0000
,
0100
0000
0100
0000
1000
0000
1000
0000
0001
0000
0001
0000
0000
0000
0000
2000
,
3002
0003
0200
0300
0200
0300
0020
0030
0020
0030
2000
3000
2000
3000
0000
0000
,
0100
0000
0100
0000
0010
0000
0010
0000
0001
0000
0001
0000
0000
0000
0000
0200
,
2300
3000
0200
0300
0200
0300
0002
0003
0002
0003
0000
0000
0000
0000
0000
0000
,
2MM2
0000
0MM0
0000
0MM0
0000
0MM0
0MM0
0MM0
0MM0
0MM0
0MM0
,
3MM3
0000
0000
0000
;

//---------------dance-single - Read "Read Me"----------------
#NOTES:
     dance-single:
     Read "Read Me":
     Hard:
     10:
     0.915,1.000,0.555,0.424,0.956,686.000,72.000,55.000,199.000,4.000:



0000
0000
0000
0000
,
0000
0000
0000
0000
,
1000
0110
0110
0001
0101
0101
0010
1010
,
1010
1000
1100
0100
0110
0010
0011
0100
,
0010
0000
0100
0010
0100
0000
0010
0000
1000
0010
1000
0000
0100
0000
0010
0100
,
0010
0000
0001
0010
0001
0000
0010
0100
0010
0000
0001
0010
0001
0000
1000
0000
,
0010
1000
0010
0000
0100
0000
0001
0100
0001
0000
1000
0000
0001
1000
0001
0000
,
0100
0000
0010
0100
0010
0000
1000
0010
1000
0000
0100
1000
0100
0000
0110
0000
,
0010
0001
0010
0000
1001
0000
1000
0001
1000
0000
1100
0000
0010
0100
0010
0000
,
0001
0010
0001
0000
0100
0001
0100
0000
0010
0100
0010
0000
1000
0010
1000
0000
,
1100
0000
0010
0100
0010
0000
1100
0000
1000
0001
1000
0000
1010
0000
1000
0010
,
1000
0000
0010
0001
0010
0000
1000
0010
1000
0000
1000
0100
1000
0000
1001
0000
,
1100
1000
1001
0001
0101
0100
0110
0010
,
1000
0100
1000
0000
M200
0000
0000
0000
M020
0000
0000
0000
M002
0000
0333
0000
,
0110
0010
0011
0001
0101
0100
0110
0010
,
1000
0001
1000
0000
002M
0000
0000
0000
020M
0000
0000
0000
200M
0000
3330
0000
,
1100
0110
1100
0110
0011
0110
1100
0110
,
M040
0000
0000
0M04
M000
0000
0M00
0000
M000
0000
0000
0000
0M00
0000
M000
0000
0M00
0000
M000
0000
0000
0M00
0000
0000
MM00
0000
0000
M000
0000
0000
MM00
0000
0M00
0000
M000
0000
0M00
0000
0000
0033
0000
0000
0000
0000
0000
0000
0000
0000
,
1000
0100
0010
0000
0001
0000
0010
0100
1000
0000
0010
0000
0100
0001
0010
0000
,
0001
0000
1000
0100
0010
0001
0100
0010
1000
0100
0010
0100
1000
0001
1000
0000
,
2MMM
0000
0000
0000
3M2M
0000
0000
0000
M23M
0000
0000
0000
M3M2
0000
0000
0M00
,
10M3
0000
0000
0000
0000
0000
0100
0000
0000
M000
0000
0000
00M1
0000
0000
0000
0000
0000
1M00
0000
0000
0000
0000
0000
00MM
0000
0000
M000
0000
0000
0100
0000
0000
0000
0000
0000
10MM
0000
0000
0000
0M00
0000
0000
0000
0000
0000
0000
0000
,
MM2M
M23M
M3M2
MM23
,
M13M
0000
0000
0010
0000
0000
1M0M
0000
0000
0010
0000
0000
M20M
0000
0000
0000
M0M0
0000
000M
0000
M0M0
0300
000M
0000
,
2MMM
0000
0000
0000
32MM
0000
0000
0000
M32M
0000
0000
0000
MM32
0000
0000
00M0
,
M103
0000
0010
000M
M100
0000
00M1
0000
MM00
000M
0010
0000
M10M
00M0
0000
0000
,
2MMM
0000
0000
3M2M
0000
0000
MM32
0000
0000
M2M3
0000
00M0
,
M301
0000
0000
0010
0M00
0000
100M
0000
00M0
0100
0000
0000
002M
0000
0M00
M000
0000
0000
0M0M
0000
0000
M03M
0000
0000
,
M20M
00M0
0000
0000
23MM
0000
0000
0000
3M2M
0000
0000
0000
M23M
0000
0000
0000
,
M3M1
0000
0000
0100
00M0
0000
M001
0000
0000
0M10
0000
0000
M00M
0000
0000
01M0
0000
0000
100M
00M0
0000
0M00
0000
0000
,
MM2M
0000
0000
M23M
0000
0000
M3M2
0000
0000
2MM3
0000
00M0
,
310M
0000
0000
0000
0000
0000
0010
0000
0000
0000
0000
0000
MM01
0000
0000
0000
0000
0000
M010
0000
0000
0000
0000
0000
M20M
0000
0000
0000
00M0
0000
0000
0000
0000
0000
0000
0000
M0MM
0000
0000
0000
M0MM
0000
030M
0000
0000
00MM
0000
0000
,
21MM
00MM
320M
030M
022M
M00M
M030
M000
M322
M000
MM03
M000
M232
M000
0300
00M0
,
10M3
0000
0000
00M0
0000
0000
0100
0000
0000
M00M
0000
0000
M01M
0000
0000
M00M
0000
0000
0100
0000
M00M
00MM
0000
0000
00MM
0000
0000
0M0M
0000
0000
1MM0
0000
0000
0MM0
0000
0000
0MM1
0000
0000
MMM0
0000
0000
MMM0
0000
0000
0000
0000
0000
,
1000
0100
0010
0000
0100
0000
0010
0100
1000
0000
1000
0000
0100
0010
0001
0000
,
0100
0000
0010
1000
0100
0000
0010
0000
0100
1000
0100
0010
0001
0100
0010
1000
,
0100
0000
0000
0000
1000
0010
0100
0000
0100
0001
0000
0000
0010
0001
0100
0000
,
0100
0010
0000
0000
1000
0001
0100
0000
0100
0010
0000
0000
0100
0001
0010
0000
,
0010
0100
0000
0000
0001
0100
1000
0000
1000
0010
0000
0000
0001
0010
1000
0000
,
1000
0100
0000
0000
0010
0001
0100
0000
0100
0001
0000
0000
0010
0100
1000
0000
,
1000
0100
0000
0000
0010
0100
0010
0000
0010
0100
0000
0000
1000
0100
0010
0000
,
0010
1000
0000
0000
0100
1000
0100
0000
0100
1000
0000
0000
0100
0001
0100
0000
,
0100
0010
0000
0000
0001
0100
0001
0000
0001
0100
0000
0000
0001
0010
0100
0000
,
0100
1000
0000
0000
1000
0010
0100
0000
0100
0001
0000
0000
0010
0100
1000
0000
,
1000
0000
0000
0000
0000
0000
0100
0000
0000
0000
0000
0000
0010
0000
0000
0000
0001
0000
0000
0000
0100
0000
0000
0000
0010
0000
0000
0000
1000
0000
0000
0000
0100
0000
0000
0000
0010
0000
0000
0001
0000
0000
0100
0000
0000
0010
0000
0000
,
1000
0000
0000
0100
0000
0000
0010
0000
0000
0001
0000
0000
1000
0000
0000
0000
0100
0000
0000
0000
0010
0000
0000
0000
0001
0000
0000
0000
0000
0000
0100
0000
0000
0000
0000
0000
0010
0000
0000
0000
0000
0000
1000
0000
0000
0000
0000
0000
,
0100
0000
0000
0000
0000
0000
0010
0000
0000
0000
0000
0000
0001
0000
0000
0000
1000
0000
0000
0000
0100
0000
0000
0000
0010
0000
0000
0000
0001
0000
0000
0000
1000
0000
0000
0000
0100
0000
0000
0010
0000
0000
0001
0000
0000
1000
0000
0000
,
0100
0000
0000
0010
0000
0000
0001
0000
0000
1000
0000
0000
0100
0000
0000
0000
0010
0000
0000
0000
0001
0000
0000
0000
1000
0000
0000
0000
0000
0000
0100
0000
0000
0000
0000
0000
0010
0000
0000
0000
0000
0000
0001
0000
0000
0000
0000
0000
,
0001
0000
0000
0000
0000
0000
0100
0000
0000
0000
0000
0000
0010
0000
0000
0000
1000
0000
0000
0000
0001
0000
0000
0000
0100
0000
0000
0000
0010
0000
0000
0000
1000
0000
0000
0000
0001
0000
0000
0100
0000
0000
0010
0000
0000
1000
0000
0000
,
0001
0000
0000
0100
0000
0000
0010
0000
0000
1000
0000
0000
0001
0000
0000
0000
0100
0000
0000
0000
0010
0000
0000
0000
1000
0000
0000
0000
0000
0000
0001
0000
0000
0000
0000
0000
0100
0000
0000
0000
0000
0000
0010
0000
0000
0000
0000
0000
,
1000
0000
0000
0000
0000
0000
0001
0000
0000
0000
0000
0000
0010
0000
0000
0000
0100
0000
0000
0000
1000
0000
0000
0000
0001
0000
0000
0000
0010
0000
0000
0000
0100
0000
0000
0000
1000
0000
0000
0001
0000
0000
0010
0000
0000
0100
0000
0000
,
1000
0000
0000
0001
0000
0000
0010
0000
0000
0100
0000
0000
1000
0000
0000
0000
0001
0000
0000
0000
0010
0000
0000
0000
0100
0000
0000
0000
0000
0000
1000
0000
0000
0000
0000
0000
0001
0000
0000
0000
0000
0000
0010
0000
0000
0000
0000
0000
,
0100
0000
0000
1000
0100
0000
0100
1000
0000
1000
0001
0000
0001
0100
0000
0000
,
0100
1000
0000
1000
0100
0000
0100
0001
0000
0001
0010
0000
0010
0100
0000
0000
,
1000
0001
0000
0001
1000
0000
1000
0010
0000
0010
1000
0000
1000
0100
0000
0000
,
1000
0001
0000
0001
0010
0000
0010
0001
0000
0001
0100
0000
0100
0001
0000
0000
,
1000
0100
0000
0010
0100
0000
1000
0100
0000
1000
0001
0000
0010
0100
0000
0000
,
1000
0100
0000
0010
0001
0000
1000
0001
0000
0100
0010
0000
1000
0100
0000
0000
,
1000
0100
0000
0100
1000
0000
0100
0010
0000
0010
0001
0000
1000
0001
0000
0000
,
0001
0010
0000
0010
0100
0000
1000
0100
0000
0100
0010
0000
0001
0100
0000
0000
,
0010
1000
0100
0000
0010
1000
0100
0000
1000
0100
0010
0000
1000
0100
0010
0000
,
0001
0100
0010
0000
0001
0100
0010
0000
0100
0010
1000
0000
0100
0010
1000
0000
,
0010
1000
0100
0000
0010
1000
0100
0000
0010
0100
1000
0000
0010
0100
1000
0000
,
0010
0001
0100
0000
0010
0001
0100
0000
0001
0010
0100
0000
0001
0010
0100
0000
,
2200
0300
3000
0000
0220
0030
0300
0000
0022
0000
0000
0000
0033
0000
0000
0000
0202
0000
0000
0000
0303
0000
0000
0000
2002
0000
0000
0000
3003
0000
0000
0000
,
1000
0100
0000
0000
1000
0100
0000
0000
0010
0001
0000
0000
0002
0200
0000
0000
0000
0003
0300
0000
0100
0010
0000
0000
0010
0100
0000
0000
0000
0000
0000
0000
,
1000
0100
0001
0000
0100
0000
1000
0010
0001
0000
0010
0000
1000
0100
0010
0000
,
0100
0000
0010
0100
1000
0000
0100
0000
0010
0001
0100
0010
1000
0100
0010
0001
,
1000
1000
1001
0001
0101
0100
0110
0010
,
0100
0010
0100
0000
0004
0000
0000
0000
0043
0000
0000
0000
0430
0000
0000
0000
,
1300
1000
1010
0010
0110
0100
0101
0001
,
1000
0001
1000
0000
0400
0000
0000
0000
4300
0000
0000
0000
3040
0000
0000
0000
,
0130
1000
0011
1000
0110
0001
0110
1000
,
0100
1000
0100
0000
4000
0000
0000
0000
3040
0000
0000
0000
0430
0000
0000
0000
,
1300
0010
1100
0010
0011
0100
1001
0010
,
0100
0001
0100
0000
0004
0000
0000
0000
4003
0000
0000
0000
3040
0000
0000
0000
,
0130
0001
0000
0001
1000
0000
1000
0010
0000
0010
0100
0000
,
0001
0010
0001
0000
0040
0000
0000
0000
0430
0000
0000
0000
0304
0000
0000
0000
,
0013
0100
0000
0100
1000
0000
1000
0100
0000
0100
0001
0000
,
0100
0010
0100
0000
0040
0000
0000
0000
4030
0000
0000
0000
3040
0000
0000
0000
,
0031
0101
0101
0010
1010
1010
1000
1001
,
1000
0010
1000
0000
0400
0000
0000
0000
0304
0000
0000
0000
0403
0000
0000
0000
,
0310
0110
0110
0100
1100
1100
0100
0101
,
0001
0100
0001
0000
0400
0000
0000
0000
0340
0000
0000
0000
4030
0000
3000
0000
,
2002
0000
0000
0000
,
3003
0000
0000
0000
;

//---------------dance-single - Read "Read Me"----------------
#NOTES:
     dance-single:
     Read "Read Me":
     Challenge:
     12:
     1.000,1.000,0.347,0.879,0.964,770.000,45.000,114.000,76.000,133.000:

0000
0000
0000
0000
,
0000
0000
0000
0000
,
2200
0020
3301
0030
0202
2000
0313
0000
,
0100
0001
0010
0100
0001
0100
3010
0000
,
1000
0000
0000
0000
1000
0100
0000
0000
1000
0100
0000
0000
0010
0000
0000
0000
0010
0100
0000
0000
0010
0100
0000
0000
0010
0000
0100
0000
1000
0000
0100
0000
,
0010
MM1M
MM1M
MM1M
,
0010
0000
0000
0000
0100
0010
0000
0000
0001
0010
0000
0000
0100
0000
0000
0000
0010
0100
0000
0000
0001
0010
0000
0000
0100
0000
0010
0000
0001
0000
1000
0000
,
0100
M1MM
M1MM
M1MM
,
0100
0000
0000
0000
0100
0010
0000
0000
0010
0100
0000
0000
1000
0000
0000
0000
0010
1000
0000
0000
1000
0010
0000
0000
1000
0000
0001
0000
0010
0000
0100
0000
,
1000
1MMM
1MMM
1MMM
,
1000
0000
0000
0000
0100
0010
0000
0000
0010
0001
0000
0000
1000
0000
0000
0000
0010
0100
0000
0000
0100
0010
0000
0000
1000
0000
0010
0000
1000
0000
0100
0000
,
0001
MMM1
MMM1
MMM1
,
0002
0000
0000
0000
0203
0000
0000
0000
2000
0000
0000
0000
0022
0000
3000
0300
,
4000
0400
0030
3000
0320
0000
0000
0000
2200
0000
0003
0000
0002
0000
3333
0000
,
2000
0000
0002
0000
0020
3000
2000
3003
,
4000
0004
0030
0000
3020
0003
0000
0000
2000
0000
0000
0000
0002
0000
3033
0000
,
2200
0000
0020
3300
0202
0030
2000
0000
,
0020
0000
0000
0000
0000
0000
0000
3333
,
0001
0100
0001
0000
0010
0000
0100
1000
0100
0000
1000
0000
0001
0010
0001
0000
,
0100
0000
0010
1000
0001
0100
0001
1000
0100
1000
0010
0100
0001
1000
0100
0010
,
0001
0001
2200
0000
3322
0030
M223
0330
,
001M
1M00
0001
M1M0
000M
0M10
0001
0000
,
0010
1001
2200
0000
3002
0000
M323
0000
,
013M
0000
0010
0000
0100
0000
10M0
0000
0202
0000
0000
0303
M2M2
0000
0000
0303
,
0010
1100
2020
0M00
3002
0030
M200
00M3
,
1300
001M
1000
01M0
0000
MM1M
MM1M
0000
,
1000
0101
2020
3000
2230
0000
3322
0003
,
0031
0000
0010
0000
0100
0000
1000
0000
01M0
1000
010M
1000
01M0
1000
010M
0000
,
10M0
0000
0100
0000
0010
M001
0010
0000
0001
0000
0100
0000
0001
10M0
0001
0000
,
1000
0000
0100
0000
0001
01M0
0001
0000
0100
0000
1000
0000
0010
1M00
0010
0000
,
0001
0000
0010
0000
0100
M001
0100
0000
0010
0000
1000
0000
0100
001M
0100
0000
,
0010
0000
0001
0000
0100
0010
1000
0100
0010
0100
1000
0001
0010
0000
MMMM
0000
,
2000
0000
3200
0000
0320
0000
0030
0000
2002
0MM0
0000
0000
3223
0000
0000
0000
,
1331
0110
1100
0011
0000
1100
1010
0000
,
1000
0100
0010
0000
0001
0000
0001
1000
0001
0000
0010
0000
0010
0100
1000
0000
,
0010
0000
0010
0100
0001
1000
0100
1000
0001
0100
0001
0010
0100
1000
0100
0010
,
0001
0000
0000
0000
1000
0100
1000
0000
0100
0010
0001
0000
0010
0001
0010
0000
,
0100
1000
0010
0000
0100
0010
0100
0000
0001
0010
0100
0000
1000
0100
1000
0000
,
0010
0100
0001
0000
0010
0001
0010
0000
0001
0010
0100
0000
0010
0100
0010
0000
,
0100
1000
0001
0000
0100
0001
0100
0000
0001
1000
0010
0000
1000
0010
1000
0000
,
0010
0100
0001
0000
0010
0001
0010
0000
0100
1000
0001
0000
1000
0001
1000
0000
,
0100
0010
0001
0000
0010
0100
0010
0000
0001
0010
0100
0000
0100
0001
0100
0000
,
0100
0010
1000
0000
0100
1000
0100
0000
1000
0010
0100
0000
0010
0100
0010
0000
,
0100
0001
0010
0000
0001
0100
0001
0000
1000
0010
0100
0000
0001
0100
0001
0000
,
1000
0100
0010
0001
1000
0001
0100
0010
1000
0001
0100
1000
0100
1000
0001
0100
,
0001
0010
0100
1000
0100
0010
0100
1000
0001
1000
0010
0100
0001
1000
0010
1000
,
0100
0010
0001
0010
0001
1000
0001
0100
0001
1000
0010
1000
0001
0010
0001
0010
,
0100
0010
0100
1000
0100
1000
0100
0010
0001
0100
0010
1000
0100
0010
0100
1000
,
0100
1000
0001
0010
0001
1000
0001
1000
0010
0100
0001
1000
0100
0010
0001
0100
,
0010
1000
0100
0010
0100
0010
0001
1000
0001
1000
0001
1000
0001
0100
0001
0100
,
0001
0100
0010
0100
0010
0100
0010
0100
0010
1000
0010
1000
0010
1000
0100
1000
,
0100
1000
0100
1000
0100
0010
0001
1000
0100
0010
0001
0010
0100
1000
0010
0100
,
0002
0000
0000
0000
0000
0000
0200
0000
0000
0000
0000
0000
0010
0000
0000
1000
0000
0000
0000
0000
0000
1000
0000
0000
0010
0000
0000
0000
0000
0000
0010
0000
0000
1000
0000
0000
0000
0000
0000
1000
0300
0000
0010
0000
0000
0000
0000
0000
,
2003
0000
0000
0000
0000
0000
0200
0000
0000
0000
0000
0000
0010
0000
0000
0001
0000
0000
0000
0000
0000
0001
0000
0000
0010
0000
0000
0000
0000
0000
0010
0000
0000
0001
0000
0000
0000
0000
0000
0001
0300
0000
0010
0000
0000
0000
0000
0000
,
3200
0000
0000
0000
0000
0000
0020
0000
0000
0000
0000
0000
1000
0000
0000
0001
0000
0000
0000
0000
0000
0001
0000
0000
1000
0000
0000
0000
0000
0000
1000
0000
0000
0001
0000
0000
0000
0000
0000
0001
0300
0000
1000
0000
0000
0000
0000
0000
,
0230
0000
0000
0000
0000
0000
0002
0000
0000
0000
0000
0000
1000
0000
0000
0010
0000
0000
0000
0000
0000
0010
0000
0000
1000
0000
0000
0000
0000
0000
1000
0000
0000
0010
0000
0000
0000
0000
0000
0010
0003
0000
1000
0000
0000
0000
0000
0000
,
0302
0000
0000
0000
0000
0000
2000
0000
0000
0000
0000
0000
0010
0000
0000
0010
0000
0000
0000
0000
0000
0010
0000
0000
0010
0000
0000
0000
0000
0000
0010
0000
0000
0010
0000
0000
0000
0000
0000
0010
3000
0000
0010
0000
0000
0000
0000
0000
,
2003
0000
0000
0000
0000
0000
0200
0000
0000
0000
0000
0000
0010
0000
0000
0010
0000
0000
0000
0000
0000
0001
0000
0000
0001
0000
0000
0000
0000
0000
0010
0000
0000
0010
0000
0000
0000
0000
0000
0001
3000
0000
0001
0000
0000
0000
0000
0000
,
0320
0000
0000
0000
0000
0000
0200
0000
0000
0000
0000
0000
1000
0000
0000
1000
0000
0000
0000
0000
0000
1000
0000
0000
1000
0000
0000
0000
0000
0000
1000
0000
0000
1000
0000
0000
0000
0000
0000
1000
0030
0000
1000
0000
0000
0000
0000
0000
,
0302
0000
2000
0000
0010
0010
0000
0010
0010
0000
0010
0010
0000
0010
0010
0000
,
3003
0000
0000
0000
1000
0100
1000
0000
0100
0010
0100
0000
0001
0010
0001
0000
,
1000
0001
1000
0000
0100
0010
0100
0000
0001
0010
0001
0000
0010
0100
0010
0000
,
0100
1000
0001
0000
0100
0010
1000
0000
0100
0010
0001
0000
0010
0100
1000
0000
,
0100
0010
1000
0000
0010
0001
0100
0000
0010
1000
0100
0000
0010
0001
1000
0000
,
0010
0100
0001
1000
0100
0010
0001
0010
0001
0100
0010
1000
0100
0010
0100
1000
,
0010
0100
0001
1000
0010
0100
0001
0010
0001
1000
0010
1000
0100
0010
0001
1000
,
0100
0010
0001
1000
0001
0100
0001
0100
0010
0100
0010
1000
0010
1000
0010
0100
,
0010
0100
0001
0100
0001
0100
0001
1000
0001
1000
0100
0010
0001
0100
0010
1000
,
0202
0010
1000
2323
,
0001
0000
0000
0100
0000
0000
0001
0000
0000
0000
0000
0000
0200
0000
0000
0000
0000
0000
0000
0000
0000
0000
0000
0000
0302
0000
0000
0000
3030
0000
0003
0000
0000
0000
0000
0000
2200
0000
0000
0000
0000
0000
0000
0000
0000
0000
0000
0000
,
0011
0001
0010
3322
,
1000
0100
1000
0000
0200
0000
0000
0000
2000
0000
3333
0000
0202
0000
0000
0000
,
1010
0000
0000
1000
0000
0000
0010
0000
0000
2020
0303
0000
,
0001
0100
0001
0000
0200
0000
0000
0000
0002
0000
3333
0000
2200
0000
0000
0000
,
0011
0000
0000
0001
0000
0000
0010
0000
0000
0022
3300
0000
,
1000
0100
1000
0000
0200
0000
0000
0000
2000
0000
3333
0000
2002
0000
0000
0000
,
0010
0010
0000
0010
0010
0000
0010
0010
0000
0010
3023
0000
,
1000
0001
1000
0000
0002
0000
0000
0000
2000
0000
3033
0000
0220
0000
0000
0000
,
1000
0000
1000
0000
0000
0000
1000
0000
1000
0000
0000
0000
1000
0000
1000
0000
0000
0000
1000
0000
2000
0330
0000
0000
,
0010
0000
0000
0100
0000
0000
0010
0000
0000
0000
0000
0000
0200
0000
0000
0000
0000
0000
0000
0000
0000
0000
0000
0000
0020
0000
0000
0000
0000
0000
3330
0000
0000
0000
0000
0000
2002
0000
0000
0000
0000
0000
0000
0000
3000
0000
0000
0000
,
1003
0100
0100
0010
0001
0001
0100
1000
,
1000
0100
1000
0000
0010
0000
0010
0000
0100
0000
0001
0000
1001
0000
0000
0000
,
1000
0010
0010
0001
1000
1000
0100
0001
,
0001
1000
0001
0000
0100
0000
0100
0000
0001
0000
1000
0000
1000
0000
0010
0000
,
2002
0000
0000
0000
,
3003
0000
0000
0000
;
