#TITLE:Card Captor Sakura;
#SUBTITLE:- Honey;
#ARTIST:Chihiro;
#TITLETRANSLIT:;
#SUBTITLETRANSLIT:;
#ARTISTTRANSLIT:;
#CREDIT:Anime Toshokan;
#BANNER:Card Captor Sakura - Honey.png;
#BACKGROUND:Card Captor Sakura - Honey bg.png;
#LYRICSPATH:;
#CDTITLE:dejiko.png;
#MUSIC:Card Captor Sakura - Honey.mp3;
#OFFSET:-0.889;
#SAMPLESTART:24.850;
#SAMPLELENGTH:16.000;
#SELECTABLE:YES;
#DISPLAYBPM:120.000;
#BPMS:0.000=119.980,207.000=144.500,208.000=119.980;
#STOPS:;
#BGCHANGES:;
// cache tags:
#FIRSTBEAT:12.000;
#LASTBEAT:228.000;
#SONGFILENAME:Songs/DDR Anime 2nd Mix/Card Captor Sakura - Honey/Card Captor Sakura - Honey.sm;
#HASMUSIC:1;
#HASBANNER:1;
#MUSICLENGTH:119.327;
// end cache tags

//---------------dance-single - BASIC----------------
#NOTES:
     dance-single:
     BASIC:
     Easy:
     1:
     0.123,0.143,0.042,0.017,0.000,96.000,5.000,2.000,0.000,0.000:
0000
0000
0000
0000
,
0000
0000
0000
0000
,
0000
0000
0000
0000
,
1000
0000
0001
0000
,
1000
0000
0001
0000
,
0010
0000
0100
0000
,
0010
0000
0100
0000
,
1000
0000
0001
0000
,
0100
0000
0010
0000
,
0001
0000
1000
0000
,
0010
0000
0100
0000
,
1000
0000
0100
0000
,
0010
0000
0001
0000
,
1000
0000
0010
0000
,
0100
0000
0001
0000
,
0010
0000
0100
0000
,
1000
0000
0100
0000
,
0010
0000
0001
0000
,
0010
0000
0100
0000
,
1000
0000
0001
0000
,
0010
0000
1000
0000
,
0100
0000
0001
0000
,
0010
0000
1000
0000
,
0100
0000
0001
0000
,
0001
0000
0010
0000
,
0100
0000
1000
0000
,
0001
0000
0010
0000
,
0001
0000
0001
0000
,
1001
0000
0000
0000
,
0000
0000
0000
0000
,
1001
0000
0000
0000
,
0000
0000
1000
0000
,
0001
0000
0010
0000
,
0100
0000
1000
0000
,
0100
0000
0010
0000
,
0001
0000
1000
0000
,
1001
0000
0000
0000
,
0000
0000
0000
0000
,
1001
0000
0000
0000
,
0000
0000
1000
0000
,
0001
0000
0010
0000
,
0100
0000
0001
0000
,
1000
0000
0001
0000
,
0010
0000
0100
0000
,
0010
0000
0100
0000
,
1000
0000
1000
0000
,
0001
0000
0001
0000
,
0010
0000
0010
0000
,
0100
0000
0100
0000
,
0001
0000
0010
0000
,
1000
0000
0100
0000
,
0001
0000
0010
0000
,
0100
0000
1000
0000
,
0010
0000
0001
0000
,
0100
0000
1000
0000
,
0001
0000
2002
0000
,
0000
0000
0000
0000
0000
0000
0000
3003
;

//---------------dance-single - ANOTHER----------------
#NOTES:
     dance-single:
     ANOTHER:
     Medium:
     4:
     0.273,0.287,0.109,0.067,0.000,207.000,13.000,8.000,0.000,0.000:
0000
0000
0000
0000
,
0000
0000
0000
0000
,
0000
0000
0000
0000
,
1000
1000
0001
0001
,
0010
0010
0100
0100
,
1000
0001
0010
0100
,
0010
0001
1000
0100
,
0010
1000
0001
0010
,
0100
1000
0100
0010
,
0001
0010
0100
1000
,
0100
0010
0001
1000
,
0010
0100
0001
1000
,
0100
0010
0100
1000
,
0001
0010
0100
0001
,
1000
0010
0001
1000
,
0100
0010
0001
1000
,
0001
0010
0100
1000
,
0001
1000
0010
0100
,
0010
0100
1000
0001
,
1000
0001
1000
0010
,
0200
0001
0001
0300
,
1000
0001
0010
1000
,
2000
0010
0010
3000
,
0010
0001
0100
1000
,
0010
0100
0010
0001
,
1000
0100
0010
0001
,
1000
0010
0100
0010
,
1000
0010
0100
0010
,
2001
0010
0100
0010
,
0100
3000
0001
0000
0010
0000
1000
0000
,
0120
1000
0001
1000
,
0001
0030
0000
0000
1000
0000
0010
0000
,
0001
0100
0010
1000
,
0001
0100
1000
1000
,
0100
0100
0001
0001
,
0010
0010
1000
0001
,
1002
0010
0100
0010
,
0100
0003
0010
0000
0100
0000
0100
0000
,
0210
0001
1000
0001
,
1000
0300
0000
0000
1000
0000
0100
0000
,
0001
0010
1000
0100
,
0001
0010
1000
0100
,
0001
0010
0010
0100
,
0100
0110
1001
1000
,
1000
0001
0001
0010
,
0010
0100
0100
1000
,
0001
0010
0100
0010
,
0100
0001
0010
1000
,
0001
0100
0010
0001
,
1000
0100
0010
0100
,
1000
0001
0100
1000
,
0100
0001
0100
1000
,
0010
0001
0010
1000
,
0110
1001
1000
0001
,
0010
1000
1001
0110
,
1001
0000
0110
0000
0000
2002
0000
0000
,
0000
0000
0000
0000
,
3003
0000
0000
0000
;

//---------------dance-single - MANIAC----------------
#NOTES:
     dance-single:
     MANIAC:
     Hard:
     7:
     0.298,0.358,0.176,0.142,0.000,211.000,21.000,17.000,0.000,0.000:
0000
0000
0000
0000
,
0000
0000
0000
0000
,
0000
0000
0000
0000
,
0010
1000
0001
1000
,
0010
0000
0100
0000
1000
0001
1000
0001
,
0000
1000
0100
0000
0010
0001
0000
0000
,
0001
0100
0010
1000
0010
0001
0100
1000
,
0000
1000
0001
0100
0010
1000
0000
0010
,
0000
0001
0100
0000
0000
0000
0000
1001
,
0000
0100
0001
0000
0000
0000
0000
0110
,
0000
0001
1000
0000
0000
1000
0100
0010
,
0001
1000
0100
0010
0001
0000
0000
0000
,
0001
0100
0010
1000
0100
0010
0001
1000
,
0000
1000
0100
0001
0100
1000
0000
0000
,
1000
0010
0001
0010
1000
0100
0001
0100
,
0000
0010
1000
0100
1000
0010
0000
0110
,
0000
1001
1001
0000
0000
0000
1001
0110
,
0000
0110
0000
0000
0000
0000
1100
0101
,
0000
1100
0000
0000
0000
0000
0000
0000
,
1100
0000
0011
0000
,
0220
0000
0000
0000
0000
0330
0000
0000
,
0010
0000
0010
0010
0000
0010
0000
0020
,
0000
0000
0000
0000
0000
0030
0000
0000
,
0001
0000
0001
0001
0000
0001
0000
0001
,
0000
0001
1000
0001
0000
0000
0000
0000
,
0000
0000
0000
1000
0100
0010
0000
0001
,
0000
0010
1000
0100
0000
0000
0000
0000
,
0000
0000
1000
0000
0100
0000
0001
0201
,
0000
0000
0001
0000
0001
0000
0001
0002
,
0300
0000
0010
0000
0010
0000
0010
0020
,
0003
0000
1000
0000
1000
0000
1000
2000
,
0030
0000
0000
0000
0000
3000
0100
0000
,
0100
0000
0100
0000
0100
0000
0001
1000
,
0000
0001
0000
0000
0001
0000
1000
0000
,
0010
0000
0001
0000
0001
0000
1000
0100
,
0000
0010
0001
0000
1000
0000
1000
2000
,
0000
0000
0100
0100
,
0200
3000
0010
0000
0010
0000
0010
0020
,
0300
0000
0001
0000
0001
0000
0001
0002
,
0030
0000
0000
0000
0000
0003
1000
0000
,
0010
0000
0001
0000
0100
0000
0010
1000
,
0000
0010
0000
0000
1000
0000
0010
0000
,
0001
0000
0100
0000
0010
0000
1000
0001
,
0000
0000
2020
3030
,
0202
0000
0000
0303
0001
0100
0001
0100
,
0000
0000
0001
0000
0010
1000
0100
0010
,
0000
0000
0000
0001
0000
0000
0000
0000
,
0000
0000
0001
0010
,
1000
0000
0100
0000
1000
0100
0010
0001
,
0000
0000
0001
0000
0100
1000
0010
1000
,
0000
0000
0000
1001
0000
0000
0000
0000
,
0110
0000
1001
0000
,
0100
0001
0000
0010
1000
0100
0000
0001
,
1000
0000
0001
0000
0010
1000
0100
0001
,
0010
1000
0000
0100
0010
0001
0000
0010
,
1000
0000
0001
0000
0000
2002
0000
0000
,
0000
0000
0000
0000
,
3003
0000
0000
0000
;

//---------------dance-single - BEGINNER----------------
#NOTES:
     dance-single:
     BEGINNER:
     Beginner:
     1:
     0.063,0.092,0.034,0.000,0.000,49.000,4.000,0.000,0.000,0.000:
0000
0000
0000
0000
,
0000
0000
0000
0000
,
0000
0000
0000
0000
,
1000
0000
0000
0000
,
1000
0000
0000
0000
,
0010
0000
0000
0000
,
0010
0000
0000
0000
,
1000
0000
0000
0000
,
0100
0000
0000
0000
,
0001
0000
0000
0000
,
0010
0000
0000
0000
,
1000
0000
0000
0000
,
0010
0000
0000
0000
,
1000
0000
0000
0000
,
0100
0000
0000
0000
,
0010
0000
0000
0000
,
1000
0000
0000
0000
,
0010
0000
0000
0000
,
0010
0000
0000
0000
,
1000
0000
0000
0000
,
0010
0000
0000
0000
,
0100
0000
0000
0000
,
0010
0000
0000
0000
,
0100
0000
0000
0000
,
0001
0000
0000
0000
,
0100
0000
0000
0000
,
0001
0000
0000
0000
,
0001
0000
0000
0000
,
1001
0000
0000
0000
,
0000
0000
0000
0000
,
1001
0000
0000
0000
,
0000
0000
0000
0000
,
0001
0000
0000
0000
,
0100
0000
0000
0000
,
0100
0000
0000
0000
,
0001
0000
0000
0000
,
1001
0000
0000
0000
,
0000
0000
0000
0000
,
1001
0000
0000
0000
,
0000
0000
0000
0000
,
0001
0000
0000
0000
,
0100
0000
0000
0000
,
1000
0000
0000
0000
,
0010
0000
0000
0000
,
0010
0000
0000
0000
,
1000
0000
0000
0000
,
0001
0000
0000
0000
,
0010
0000
0000
0000
,
0100
0000
0000
0000
,
0001
0000
0000
0000
,
1000
0000
0000
0000
,
0001
0000
0000
0000
,
0100
0000
0000
0000
,
0010
0000
0000
0000
,
0100
0000
0000
0000
,
0001
0000
0000
0000
;
