#TITLE:Ramua;
#SUBTITLE:;
#ARTIST:Onoken;
#TITLETRANSLIT:;
#SUBTITLETRANSLIT:;
#ARTISTTRANSLIT:;
#CREDIT:;
#BANNER:Ramua-BN.png;
#BACKGROUND:Ramua-BG.png;
#LYRICSPATH:;
#CDTITLE:!CaT[Q].png;
#MUSIC:Ramua (Cut).mp3;
#OFFSET:-2.646;
#SAMPLESTART:26.850;
#SAMPLELENGTH:12.000;
#SELECTABLE:YES;
#BPMS:0.000=155.000;
#STOPS:;
#BGCHANGES:;
// cache tags:
#FIRSTBEAT:0.000;
#LASTBEAT:344.000;
#SONGFILENAME:Songs/StepMix 1.0/Ramua/Ramua.sm;
#HASMUSIC:1;
#HASBANNER:1;
#MUSICLENGTH:139.572;
// end cache tags

//---------------dance-single - ----------------
#NOTES:
     dance-single:
     :
     Challenge:
     10:
     0.882,1.000,0.967,0.007,0.426,726.000,135.000,1.000,0.000,0.000:
1010
0000
0000
0010
0000
0000
1010
0000
,
0000
0000
0000
0000
0000
0000
0000
0001
,
0010
0100
0000
0000
0000
0000
0000
0000
,
0000
0000
0000
0000
0000
1000
0001
0010
,
1010
0000
0000
0100
0000
0000
1010
0000
,
0000
0000
0000
0000
0000
0000
0000
0001
,
0000
1000
0010
0100
0000
0000
0000
0000
,
0000
0001
0000
0010
0100
1000
0001
0010
,
1001
0000
0000
0010
0000
0000
1001
0000
,
0000
0000
0000
0000
0000
1000
0010
0001
,
0100
1000
0000
0010
0001
0100
0000
0000
,
0000
0000
0000
0000
0000
1000
0100
0010
,
1001
0000
0000
0100
0000
0000
1001
0000
,
0000
0000
0000
0000
,
1001
0000
0101
0000
0000
1010
0000
0000
,
1001
0000
0000
0000
0000
0010
0100
0001
,
1001
0100
0011
1100
0100
0011
1010
0001
,
0100
0010
1000
0001
1010
0001
0100
0010
,
1001
0100
0010
1000
0101
0010
1000
0010
,
1010
0100
0001
1000
1001
1100
0101
1001
,
0101
1000
0101
1001
0100
1010
1001
0010
,
0101
1000
0010
0100
0101
1010
0110
1100
,
0101
0000
0000
0001
0010
0100
1000
0000
0000
0100
0000
0000
0110
0000
0000
1000
0000
0000
0010
0000
0000
0100
0000
0000
,
1001
0000
0010
0000
1000
0001
0100
0000
1001
0000
0101
0000
1010
0000
0110
0000
,
1001
0010
1001
0110
0001
0110
1001
0010
,
0101
1000
0010
0101
1001
0010
1000
0010
,
1001
0010
0100
0001
1010
0100
0001
0100
,
1010
0100
0001
1001
0101
0110
1000
0110
,
1001
1000
0110
1001
0010
1001
0110
1000
,
0101
0000
0010
0000
1000
0000
0010
0000
0101
0000
1000
0000
0001
0100
0010
1000
,
0001
0100
0010
0000
1001
0000
0001
0100
0010
1000
0100
0010
0001
0100
0010
1000
,
0001
1000
0001
0000
0100
0000
0010
0000
1000
0000
0100
0000
0010
0000
0001
0000
0100
0000
0010
0000
1000
0000
0001
0000
0010
0000
0100
0000
1000
0000
0010
0000
,
1001
0010
1010
0101
0010
0101
1010
0100
,
0001
0100
0010
0000
1000
0000
0000
0000
1001
0000
0000
0000
0001
0000
0100
0000
0010
0000
0100
0000
0010
0000
0000
0000
1010
0000
0000
0000
0101
0000
0000
0000
,
1001
0000
0010
0000
0101
0000
1000
0001
0100
0001
0100
0000
1001
0000
1010
0000
,
0001
1000
0100
0000
0010
0000
1000
0000
0010
0000
0100
0000
0001
0000
0010
0000
0100
0000
1000
0000
0001
0000
0010
0000
0100
0000
1000
0000
0001
0000
1000
0000
,
0101
0000
1010
0000
1001
0000
1000
0001
1000
0001
0100
0010
0100
0000
0101
0000
,
0010
0000
1010
0000
1010
0000
1001
0000
0001
0100
0010
0100
0001
0000
0010
0000
,
1001
0000
1010
0000
0101
0000
1000
0001
1000
0001
0100
0000
0101
0000
0010
0000
,
1000
0100
0001
0000
0100
0000
0010
0000
1000
0000
0001
0000
1000
0000
0100
0000
0010
0000
0001
0000
1000
0000
0100
0000
0010
0000
0001
0000
1000
0000
0001
0000
,
1010
0001
1001
0110
1000
0110
1001
0010
,
1001
0000
0100
0000
0010
0000
1000
0000
0001
0010
0100
1000
0001
0100
0010
1000
,
0001
0010
0100
1000
0001
0010
0100
1000
0001
0010
0100
1000
0001
0010
0100
1000
,
0001
0100
0001
0010
0001
0100
0001
0010
0001
0100
0001
0100
0010
1000
0100
0010
,
1001
0100
1010
0101
0010
0101
1010
0010
,
1001
0100
0010
1000
0101
0010
1000
0100
,
0001
0100
0010
1000
0100
0010
0001
0100
0010
1000
0100
0010
0001
1000
0100
0010
,
0001
1000
0001
1000
0001
1000
0001
1000
0010
0100
0010
0100
0010
0100
0010
0100
,
0001
0100
0010
1000
0100
0010
0001
0100
,
0010
1000
0100
0001
0100
1000
0010
0100
,
0001
0010
0100
1000
0001
0100
0010
1000
,
0100
0010
0001
0100
0010
1000
0010
0100
,
0010
1000
0010
0100
0001
0010
0100
1000
,
0010
0100
0001
1000
0100
0010
0001
0100
,
1000
0100
0001
0010
0100
1000
0010
0100
,
0001
0100
0001
1000
0010
0100
0001
1000
,
0001
1000
0010
0100
0001
0010
0100
1000
,
0010
0100
0001
1000
0100
0010
0001
0100
,
0010
1000
0001
0010
0100
1000
0001
0100
,
0010
1000
0010
0100
0001
1000
0100
0010
,
0001
0100
0010
0001
0100
0010
1000
0010
,
0100
1000
0100
0010
0001
0100
0010
0100
,
1001
0010
0101
1000
0001
1010
0100
0010
,
1001
0100
0001
0010
0100
1000
0010
0100
,
1001
0100
0010
0100
0001
0100
0010
0000
0101
0000
1000
0000
0010
0000
0100
0000
,
0011
1000
0001
0010
1001
0100
0010
1000
,
1010
0100
1000
0100
0010
0100
0010
0000
1001
0000
0100
0000
0001
0000
1000
0000
,
0110
1000
0001
0010
0101
0010
1000
0001
,
1001
0010
1000
0010
0100
0010
1000
0000
0101
0000
1000
0000
0010
0000
0100
0000
,
0101
0010
1000
0001
0110
1000
0001
0100
,
1001
0010
1000
0010
0100
0010
0100
0000
1010
0000
0100
0000
0001
0000
0010
0000
,
1001
0100
0001
1000
0110
0001
0010
0100
,
1001
0010
0100
0010
1000
0001
0010
0000
1010
0000
0100
0000
0001
0000
0010
0000
,
0101
0010
1000
0001
1010
0001
0100
0010
,
1001
0100
0010
0100
1000
0001
0010
0000
0101
0000
0010
0000
1000
0000
0001
0000
,
1010
0100
0001
1000
0101
0010
1000
0001
,
1001
0010
1000
0010
0100
0001
1000
0000
0110
0000
1000
0000
0001
0000
0010
0000
,
1010
0100
0001
1000
0011
1000
0010
0100
,
0110
1000
0001
1000
0010
0100
0001
0000
0101
0000
0010
0000
1000
0000
0001
0000
,
0010
1000
0010
1000
0010
1000
0010
1000
0001
0100
0001
0100
0001
0100
0001
0100
,
0002
0100
0010
0100
1000
0100
0010
0100
,
0013
0001
1000
0010
0100
0001
0010
0100
,
1000
0010
0100
0001
0100
1000
0100
0001
,
0100
1000
0010
0100
0001
0010
0100
1000
,
0001
0010
1000
0010
0100
0001
1000
0010
,
1000
0100
0010
1000
0100
0001
0010
1000
,
0001
0000
0000
0000
;

//---------------dance-single - ----------------
#NOTES:
     dance-single:
     :
     Hard:
     8:
     0.666,0.958,0.057,0.007,0.319,642.000,8.000,1.000,0.000,0.000:
1000
0000
0000
0010
0000
0000
0100
0000
,
0000
0000
0000
0000
0000
0000
0000
0001
,
0010
0100
0000
0000
0000
0000
0000
0000
,
0000
0000
0000
0000
0000
1000
0001
0010
,
1000
0000
0000
0100
0000
0000
0010
0000
,
0000
0000
0000
0000
0000
0000
0000
0001
,
0000
1000
0010
0100
0000
0000
0000
0000
,
0000
0001
0000
0010
0100
1000
0001
0010
,
0001
0000
0000
0010
0000
0000
0001
0000
,
0000
0000
0000
0000
0000
1000
0010
0001
,
0010
0100
0000
0010
0001
0100
0000
0000
,
0000
0000
0000
0000
0000
1000
0100
0010
,
0001
0000
0000
0100
0000
0000
0001
0000
,
0000
0000
0000
0000
,
1001
0000
0101
0000
0000
1010
0000
0000
,
1001
0000
0000
0000
0000
0010
0100
0001
,
1000
0100
0001
0100
1000
0001
0010
0001
,
0100
0010
1000
0001
1000
0001
0100
0010
,
1000
0100
0010
0001
0100
0010
1000
0010
,
1000
0010
0001
0100
1000
0010
0100
0001
,
0010
0100
1000
0010
0100
0010
1000
0010
,
0001
0100
1000
0010
0001
0010
1000
0010
,
0001
0010
0100
1000
0001
1000
0010
0100
,
1000
0000
0010
0000
1000
0001
0100
0000
0001
0000
0100
0000
0010
0000
0100
0000
,
1000
0010
0001
0100
1000
0010
0100
0001
,
0010
1000
0010
0001
0100
0010
1000
0010
,
0100
0001
0100
0010
0001
0010
0100
0010
,
1000
0100
0001
0100
1000
0010
1000
0001
,
0100
0010
1000
0001
0010
1000
0100
0001
,
0010
0000
0100
0000
1000
0000
0010
0000
0001
0000
0100
0000
0001
0100
0010
1000
,
0001
0100
0010
0000
1000
0000
0001
0100
0010
1000
0100
0010
0001
0100
0010
1000
,
0001
0010
0100
1000
0001
0010
0100
1000
0010
0100
0001
0010
0100
1000
0001
0010
,
0001
0010
0100
0001
0100
0010
1000
0100
,
0010
0001
0100
0000
0001
0000
0001
0100
0010
0100
0010
0000
1000
0000
0001
0000
,
1000
0000
0010
0000
0001
0000
1000
0001
0100
0001
0100
0000
0001
0000
0010
0000
,
0001
0100
0010
1000
0010
0100
0001
0010
0100
1000
0001
0010
0100
1000
0001
1000
,
0001
0000
0010
0000
0001
0000
1000
0001
1000
0001
0100
0010
0100
0000
0001
0000
,
1000
0000
0001
0000
1000
0000
0001
0000
0010
0100
0010
0100
0001
0000
0010
0000
,
0001
0000
1000
0000
0001
0000
1000
0001
1000
0001
0100
0000
0010
0000
0001
0000
,
1000
0001
0100
0010
1000
0001
1000
0100
0010
0001
1000
0100
0010
0001
1000
0001
,
1000
0001
1000
0010
1000
0010
0001
0010
,
1000
0000
0100
0000
0010
0000
1000
0000
0001
0010
0100
1000
0001
0100
0010
1000
,
0001
0010
0100
1000
0001
0010
0100
1000
0001
0010
0100
1000
0001
0010
0100
1000
,
0001
0100
0001
0010
0001
0100
0001
0010
0001
0100
0001
0100
0010
1000
0100
0010
,
0001
0100
0010
1000
0010
0100
0001
0010
,
0001
0100
0010
1000
0001
0010
0100
1000
,
0001
0100
0010
1000
0100
0010
0001
0100
0010
1000
0100
0010
0001
1000
0100
0010
,
0001
1000
0001
1000
0001
1000
0001
1000
0010
0100
0010
0100
0010
0100
0010
0100
,
0001
0100
0010
1000
0100
0010
0001
0100
,
0010
1000
0100
0001
0100
1000
0010
0100
,
0001
0010
0100
1000
0001
0100
0010
1000
,
0100
0010
0001
0100
0010
1000
0010
0100
,
0010
1000
0010
0100
0001
0010
0100
1000
,
0010
0100
0001
1000
0100
0010
0001
0100
,
1000
0100
0001
0010
0100
1000
0010
0100
,
0001
0100
0001
1000
0010
0100
0001
1000
,
0001
1000
0010
0100
0001
0010
0100
1000
,
0010
0100
0001
1000
0100
0010
0001
0100
,
0010
1000
0001
0010
0100
1000
0001
0100
,
0010
1000
0010
0100
0001
1000
0100
0010
,
0001
0100
0010
0001
0100
0010
1000
0010
,
0100
1000
0100
0010
0001
0100
0010
0100
,
1001
0000
0101
0000
0000
1010
0000
0000
,
1001
0000
0001
0010
0100
1000
0010
0100
,
0001
0100
0001
0010
0100
1000
0010
0100
,
0001
1000
0001
0010
0100
1000
0001
0010
,
1000
0010
0100
0001
0010
0100
1000
0001
,
0010
1000
0010
0001
0100
0010
1000
0001
,
1000
0010
0100
0001
0010
0100
1000
0010
,
0100
0001
1000
0001
0010
0100
1000
0001
,
1000
0010
0100
0001
1000
0010
0100
0010
,
1000
0010
0100
0001
0010
0001
0010
0100
,
1000
0001
1000
0010
1000
0100
0001
0010
,
0100
0010
0001
0100
0010
1000
0100
0010
,
0001
0100
0001
0010
0001
0010
0100
0001
,
1000
0100
0001
0100
1000
0010
1000
0100
,
0010
0001
0100
0010
1000
0001
0010
0100
,
1000
0010
0100
0001
0010
0100
1000
0010
,
0100
0001
0010
1000
0010
0001
0010
0100
,
0010
1000
0010
1000
0010
1000
0010
1000
0001
0100
0001
0100
0001
0100
0001
0100
,
0002
0000
0000
0000
,
0003
0000
0000
0000
;

//---------------dance-single - ----------------
#NOTES:
     dance-single:
     :
     Medium:
     6:
     0.567,0.493,0.000,0.007,0.000,553.000,0.000,1.000,0.000,0.000:
1000
0000
0000
0010
0000
0000
0100
0000
,
0000
0000
0000
0000
0000
0000
0000
0001
,
0010
0100
0000
0000
0000
0000
0000
0000
,
0000
0000
0000
0000
0000
1000
0001
0010
,
1000
0000
0000
0100
0000
0000
0010
0000
,
0000
0000
0000
0000
0000
0000
0000
0001
,
0000
1000
0010
0100
0000
0000
0000
0000
,
0000
0001
0000
0010
0100
1000
0001
0010
,
0001
0000
0000
0010
0000
0000
0001
0000
,
0000
0000
0000
0000
0000
1000
0010
0001
,
0010
0100
0000
0010
0001
0100
0000
0000
,
0000
0000
0000
0000
0000
1000
0100
0010
,
0001
0000
0000
0100
0000
0000
0001
0000
,
0000
0000
0000
0000
,
1000
0000
0100
0000
0000
0001
0000
0000
,
1000
0000
0000
0000
0000
0010
0100
0001
,
1000
0100
0001
0100
1000
0001
0010
0001
,
0100
0010
1000
0001
1000
0001
0100
0010
,
1000
0100
0010
0001
0100
0010
1000
0010
,
1000
0010
0001
0100
1000
0010
0100
0001
,
0010
0100
1000
0010
0100
0010
1000
0010
,
0001
0100
1000
0010
0001
0010
1000
0010
,
0001
0010
0100
1000
0001
1000
0010
0100
,
1000
0010
1000
0100
0001
0100
0010
0100
,
1000
0010
0001
0100
1000
0010
0100
0001
,
0010
1000
0010
0001
0100
0010
1000
0010
,
0100
0001
0100
0010
0001
0010
0100
0010
,
1000
0100
0001
0100
1000
0010
1000
0001
,
0100
0010
1000
0001
0010
1000
0100
0001
,
0010
0100
1000
0010
0001
0100
0001
0010
,
0001
0100
1000
0100
0001
0100
0010
1000
,
0010
0100
0001
0010
0100
1000
0010
0100
,
0001
0100
0010
1000
0100
0010
0001
0100
,
1000
0100
0001
0100
0010
1000
0001
0010
,
0100
1000
0010
0100
0001
1000
0100
0010
,
0001
0100
0010
1000
0001
0100
0010
0100
,
0001
0100
0010
1000
0100
0010
0001
0100
,
0010
1000
0100
0010
0001
0100
0010
1000
,
0010
0100
0010
1000
0010
0100
0001
0010
,
0100
1000
0100
0001
0100
1000
0010
0100
,
0001
0100
1000
0100
0001
0010
0001
0010
,
1000
0010
0001
1000
0001
0100
0010
1000
,
0010
1000
0010
0100
0010
0100
0001
0100
,
0010
1000
0010
0100
0001
0010
0100
1000
,
0010
0100
0010
1000
0010
0100
0001
0010
,
0001
0100
0010
1000
0001
0010
0100
1000
,
0001
0100
0010
1000
0100
0010
0001
0100
,
0010
1000
0010
0100
0001
0010
0100
1000
,
0010
0100
0010
1000
0100
0010
0001
0100
,
0010
1000
0100
0001
0100
1000
0010
0100
,
0001
0010
0100
1000
0001
0100
0010
1000
,
0100
0010
0001
0100
0010
1000
0010
0100
,
0010
1000
0010
0100
0001
0010
0100
1000
,
0010
0100
0001
1000
0100
0010
0001
0100
,
1000
0100
0001
0010
0100
1000
0010
0100
,
0001
0100
0001
1000
0010
0100
0001
1000
,
0001
1000
0010
0100
0001
0010
0100
1000
,
0010
0100
0001
1000
0100
0010
0001
0100
,
0010
1000
0001
0010
0100
1000
0001
0100
,
0010
1000
0010
0100
0001
1000
0100
0010
,
0001
0100
0010
0001
0100
0010
1000
0010
,
0100
1000
0100
0010
0001
0100
0010
0100
,
0001
0000
0100
0000
0000
1000
0000
0000
,
0001
0000
0001
0010
0100
1000
0010
0100
,
0001
0100
0001
0010
0100
1000
0010
0100
,
0001
1000
0001
0010
0100
1000
0001
0010
,
1000
0010
0100
0001
0010
0100
1000
0001
,
0010
1000
0010
0001
0100
0010
1000
0001
,
1000
0010
0100
0001
0010
0100
1000
0010
,
0100
0001
1000
0001
0010
0100
1000
0001
,
1000
0010
0100
0001
1000
0010
0100
0010
,
1000
0010
0100
0001
0010
0001
0010
0100
,
1000
0001
1000
0010
1000
0100
0001
0010
,
0100
0010
0001
0100
0010
1000
0100
0010
,
0001
0100
0001
0010
0001
0010
0100
0001
,
1000
0100
0001
0100
1000
0010
1000
0100
,
0010
0001
0100
0010
1000
0001
0010
0100
,
1000
0010
0100
0001
0010
0100
1000
0010
,
0100
0001
0010
1000
0010
0001
0010
0100
,
0010
1000
0010
0100
0001
0010
0100
1000
,
0002
0000
0000
0000
,
0003
0000
0000
0000
;

//---------------dance-single - ----------------
#NOTES:
     dance-single:
     :
     Easy:
     4:
     0.268,0.435,0.115,0.143,0.000,226.000,16.000,20.000,0.000,0.000:
1000
0000
0000
0010
0000
0000
0100
0000
,
0000
0000
0000
0000
0000
0000
0000
0001
,
0010
0100
0000
0000
0000
0000
0000
0000
,
0000
0000
0000
0000
0000
0000
0001
1000
,
0100
0000
0000
0100
0000
0000
0010
0000
,
0000
0000
0000
0000
0000
0000
0000
0001
,
0000
1000
0010
0100
0000
0000
0000
0000
,
0000
0001
0000
0010
0100
1000
0001
0010
,
0001
0000
0000
0010
0000
0000
0001
0000
,
0000
0000
0000
0000
0000
1000
0010
0100
,
0001
1000
0000
0000
0001
0100
0000
0000
,
0000
0000
0000
0000
0000
1000
0100
0010
,
0001
0000
0000
0100
0000
0000
0001
0000
,
0000
0000
0000
0000
,
1000
0000
0100
0000
0000
0001
0000
0000
,
1000
0000
0000
0000
0000
0010
0100
0001
,
1000
0000
0001
0100
0000
0100
0001
0000
,
0000
0000
0000
0000
0000
0000
0000
1000
,
0001
0000
0000
0000
,
0000
0000
0000
0000
0000
1000
0010
0100
,
0001
0000
1000
0010
0000
0010
1000
0000
,
0000
0000
0000
0000
1000
0010
1000
0010
,
0200
1300
0000
0000
0000
0000
0000
0000
,
0000
0000
0000
0000
0000
1000
0010
0100
,
0001
0000
1000
0001
0000
0001
1000
0000
,
0000
0000
0000
1010
0000
0000
0001
0000
,
0001
0000
0000
0100
0000
0000
0000
0000
,
0000
0000
0000
1000
0000
0001
0100
0010
,
0100
0000
0100
0010
0000
0010
0100
0000
,
0000
0000
0000
1000
0000
0000
1000
0000
,
0001
0100
0010
1000
,
0100
0000
0010
0000
0001
1000
0100
0010
,
0001
0000
0001
1000
0000
1000
0002
0000
,
0000
0000
0000
0003
,
1001
0000
0000
0010
0000
0000
0000
0000
,
2000
0000
0000
0000
0000
0000
0100
0010
,
3001
0000
1000
0010
0000
0010
1000
0000
,
0000
0000
0000
0100
0000
0000
0010
0000
,
0000
0000
0000
0002
,
0000
0000
0000
0000
0000
0100
0013
1000
,
0001
0000
0010
0001
0000
0001
0010
0000
,
0001
0100
0010
1000
0100
0010
0001
0100
,
0010
0100
0001
0010
0100
1000
0010
0100
,
0001
0000
1000
0000
0001
0010
1000
0010
,
0001
0000
0010
1000
0000
1000
0010
0000
,
0000
0000
0000
0001
0000
0000
0000
0000
,
0002
0000
0000
0000
,
2003
0000
0000
0000
,
3002
0000
0000
0000
,
0000
0000
0000
0000
,
0000
0000
0020
0003
0000
0000
0000
0030
,
0200
0000
0000
0000
0300
2000
0000
0000
,
3000
0002
0000
0000
0000
0000
0000
0003
,
0020
0000
0000
0000
,
0030
2000
0000
0000
0000
0000
0000
3000
,
0020
0000
0000
0000
,
0000
0000
0000
0000
0000
0000
0000
0030
,
0200
0000
0000
0000
,
0300
0002
0000
0000
0000
0000
0000
0003
,
2000
0000
0000
0000
3000
0020
0000
0030
,
2000
0000
0000
0000
,
0000
0000
0000
0000
,
0001
0000
0100
0000
0000
0001
0000
3000
,
0001
0000
0000
0000
,
1000
0000
0101
0000
,
1000
0010
1000
0000
0001
0000
0000
0000
,
0001
0000
0101
0000
,
0010
1000
0010
0000
1001
0000
0000
0000
,
0010
0000
0110
0000
,
1000
0010
1000
0000
0101
0000
0000
0000
,
0010
0000
1100
0000
,
0001
0010
0001
0000
0101
0000
0000
0000
,
1000
0000
0101
0000
,
0010
1000
0010
0000
0101
0000
0000
0000
,
0001
0000
1001
0000
,
0100
0001
0100
0000
1010
0000
0000
0000
,
1000
0010
0100
0000
1001
0000
0000
0000
,
0100
0000
0101
0000
,
0010
0100
0010
0000
1001
0000
0000
0000
,
1000
0100
0010
0001
0100
0010
1000
0001
,
2000
0000
0000
0000
,
3000
0000
0000
0000
;
