#TITLE:.Hack/Sign;
#SUBTITLE:- Obsession;
#ARTIST:See-Saw;
#TITLETRANSLIT:;
#SUBTITLETRANSLIT:;
#ARTISTTRANSLIT:;
#CREDIT:Anime Toshokan;
#BANNER:Hack Sign - Obsession.png;
#BACKGROUND:Hack Sign - Obsession bg.png;
#LYRICSPATH:;
#CDTITLE:dejiko.png;
#MUSIC:Hack Sign - Obsession.mp3;
#OFFSET:-0.371;
#SAMPLESTART:60.710;
#SAMPLELENGTH:14.400;
#SELECTABLE:YES;
#DISPLAYBPM:133.000;
#BPMS:0.000=133.120,44.000=133.000;
#STOPS:;
#BGCHANGES:;
// cache tags:
#FIRSTBEAT:4.000;
#LASTBEAT:201.000;
#SONGFILENAME:Songs/DDR Anime 5th Mix/Hack Sign - Obsession/Hack Sign - Obsession.sm;
#HASMUSIC:1;
#HASBANNER:1;
#MUSICLENGTH:97.619;
// end cache tags

//---------------dance-single - BASIC----------------
#NOTES:
     dance-single:
     BASIC:
     Easy:
     4:
     0.351,0.384,0.379,0.389,0.000,165.000,37.000,38.000,0.000,0.000:
0000
0000
0000
0000
,
0010
0010
0100
0100
,
0002
0000
0003
0000
,
1000
1000
0100
0100
,
0020
0000
0030
0000
,
1001
1001
0110
0110
,
2002
0000
3003
0000
,
1000
0100
0010
0101
,
0010
0000
1100
0000
0010
0100
0020
0000
,
0000
0130
1000
0100
,
0010
0001
0010
0100
,
2000
3100
0010
0001
,
0010
0100
0010
0001
,
0200
0310
0100
0010
,
1000
0100
0010
0100
,
0001
0100
0010
0011
,
0100
1100
0010
0101
,
0010
1200
1000
1000
,
1300
2000
0010
0010
,
3010
0020
0100
0100
,
0130
0200
0001
0001
,
0301
0101
0102
1003
,
2100
3001
2002
0000
,
3003
0000
2000
3200
,
0320
0032
2003
0000
,
3001
0010
0110
0100
,
0101
1000
1100
0100
,
0110
0010
0011
0001
,
1001
0010
0220
0000
,
0000
0330
0110
1000
,
0001
1000
0001
0000
0100
0000
0010
0000
,
0100
0010
0100
0000
0010
0000
1000
0000
,
0100
0010
0001
0100
,
0110
1001
2000
3020
,
0230
0302
2003
0000
,
3001
1010
0110
0101
,
0110
1010
2002
0000
,
3003
0000
0000
0000
1000
0001
0100
0000
,
0001
0100
0010
0000
0200
0000
0000
0000
,
0300
0000
0010
1000
0100
0000
0010
0000
,
0001
0100
0020
0000
,
0200
0330
1010
0011
,
0101
1100
2002
0000
,
3003
0000
1000
0100
,
0001
0100
2000
0000
,
3000
0000
0001
0010
,
1000
0010
0002
0000
,
0003
0000
0010
0100
0010
0000
0100
0000
,
1000
0001
2002
0000
,
0000
0000
0000
0000
,
3003
0000
0000
0000
;

//---------------dance-single - ANOTHER----------------
#NOTES:
     dance-single:
     ANOTHER:
     Medium:
     6:
     0.414,0.384,0.440,0.359,0.005,205.000,43.000,35.000,0.000,0.000:
0000
0000
0000
0000
,
1100
1001
0101
1001
,
0220
0000
0330
1000
,
0101
0000
0001
0000
1100
0000
1000
0001
,
2000
0000
0000
3000
,
0011
0110
1100
0110
,
2002
0000
3003
1000
,
0110
0001
0110
1000
,
0100
0000
0001
0000
0001
0100
1000
0000
,
1000
0100
0010
0000
0010
0000
0100
0000
,
0001
0000
1000
0000
1000
0100
0010
0000
,
0010
0100
1000
0000
1000
0000
0100
0000
,
0010
0000
0001
0000
0001
1000
0100
0000
,
1000
0001
0100
0000
0010
0000
0100
0000
,
0001
0000
1000
0000
0010
0100
0010
0000
,
1000
0001
1000
0000
0100
0000
0010
0000
,
0001
0000
0010
0000
0100
0010
0001
0000
,
0010
0100
1000
0000
1000
0000
1100
0000
,
0100
1100
0010
0011
,
0001
0011
0100
1001
,
0010
1001
1000
0110
,
0001
0110
2000
3200
,
0302
0203
2300
0000
,
3000
0000
0100
0010
0002
0000
0203
0000
,
2300
3200
0302
0000
,
0003
0000
1000
0000
0101
0000
1000
0100
,
0010
0000
0010
0100
1000
0000
1000
0100
,
0010
0000
0110
0000
1001
0000
1000
0001
,
1000
0000
0001
1000
0001
0000
1000
0001
,
1000
0000
0110
0000
0101
0000
0001
0100
,
0010
0000
0100
0010
1000
0000
0010
1000
,
0100
0000
0110
0000
0011
0000
0010
0001
,
0010
0000
0100
1000
0100
0000
0010
0001
,
0020
0000
0130
0100
0200
0000
2300
0000
,
3020
0230
0302
0000
,
0103
0000
0001
0100
0020
0000
2030
0000
,
3200
0302
0203
0000
,
0300
0000
1010
1001
,
0011
0000
0001
0010
0200
0000
0000
0000
,
0300
0000
1000
0100
1000
0000
1100
0000
,
0001
0101
1000
2000
,
0020
3030
1010
1100
,
0011
0101
2002
0000
,
3003
0000
0010
0100
0001
0000
0101
0000
,
1000
0000
0000
1000
0000
0000
1000
0000
0200
0000
0000
0000
1000
0000
0000
0000
,
1300
0000
1100
0000
0001
0100
0010
0000
,
0100
0010
1000
0000
0120
0000
0100
0000
,
0130
0000
0100
0010
1000
0000
0010
0100
,
0001
0100
2002
0000
,
0000
0000
0000
0000
,
3003
0000
0000
0000
;

//---------------dance-single - MANIAC----------------
#NOTES:
     dance-single:
     MANIAC:
     Hard:
     9:
     0.487,0.463,0.184,0.287,0.297,287.000,18.000,28.000,0.000,0.000:
0000
0000
0000
0000
,
2100
3002
0203
0320
,
2030
0000
0000
0000
3000
0000
1000
0100
,
0010
0000
0000
0000
0001
0000
0000
0000
0010
0000
0000
0010
0000
0000
0100
0000
,
1000
0000
1100
0000
0001
1000
0100
0000
,
0010
0001
0000
0000
0010
0001
0000
0000
1000
0100
0000
0000
1000
0100
0000
0000
,
0220
0000
0000
0000
0330
0000
0010
0100
,
2000
0001
0100
3001
,
0100
0000
0110
0000
0010
1000
0001
0000
,
0100
0001
0100
0001
1000
0000
1000
0000
1000
0000
0000
0100
0000
0000
0010
0000
,
0100
0000
0001
0100
0001
0000
1000
0000
0010
0000
0000
0001
0000
0000
0100
0000
,
1000
0000
0100
0000
1000
0000
0010
0100
0001
0000
0000
0100
0000
0000
0001
0000
,
0100
0010
1000
0100
0010
0001
0010
0100
,
1000
0000
0000
0000
0101
0000
0000
0000
0001
0000
0000
0100
0000
0000
0010
0000
,
1000
0000
0100
1000
0100
0000
0000
0000
0010
0000
0000
0001
0000
0000
0010
0000
,
1000
0000
0010
0000
0001
0000
0100
0000
1000
0000
0000
0100
0000
0000
0001
0000
,
0100
0000
0010
0100
0010
0000
0000
0000
0100
0000
0000
0000
0010
0000
0000
0000
,
1000
0010
0001
0010
0100
0000
0100
0000
,
0110
0000
0000
0010
0100
0000
0000
0000
1000
0000
0001
0000
0100
0000
0001
0000
,
1000
0100
0000
0000
1000
0000
0000
0000
0010
0000
0100
0000
0001
0000
0100
0000
,
1000
0100
0000
0000
0001
0000
0000
0000
0001
0000
0010
0000
0100
0000
0010
0000
,
1000
0010
0000
0000
0001
0000
0000
0000
0001
0100
0000
0000
0100
0010
0000
0000
,
0010
1000
0000
0000
1000
0100
0000
0000
0220
0000
0000
0000
0000
0000
0000
0000
,
0330
0000
0010
0001
0011
0000
1100
0000
,
0010
0000
0000
0001
0000
0000
0100
0000
2000
0000
0000
0000
0000
0000
0010
0000
,
3010
0000
0000
0000
0100
0000
0100
0000
0100
0000
0000
0010
0000
0000
1000
0000
,
0100
0000
0000
0001
0000
0000
0100
0000
0010
0000
0000
0001
0000
0000
0100
0000
,
0010
0000
0000
1000
0000
0000
0010
0000
0100
0000
0000
0010
0000
0000
1000
0000
,
0100
0000
0000
0010
0000
0000
0001
0000
0100
0000
0000
0010
0000
0000
0100
0000
,
0001
0000
0000
0010
0000
0000
1000
0000
0010
0000
0000
0001
0000
0000
0100
0000
,
1000
0000
0000
0010
0000
0000
1000
0000
0100
0000
0000
0001
0000
0000
0010
0000
,
0100
0000
0000
1000
0000
0000
0010
0000
0100
0000
0000
0001
0000
0000
0100
0000
,
0020
0100
0230
0310
,
0010
1000
0001
1000
0010
0000
0110
0000
0010
0100
0000
0000
0001
0010
0000
0000
,
1000
0010
0000
0000
0001
0100
0000
0000
2020
0000
0000
0000
0000
0000
0000
0000
,
3030
0000
0100
0001
2000
0000
3200
0000
,
0310
0000
0000
0011
0000
0000
0011
0000
0200
0000
0000
0000
1000
0000
0000
0000
,
0010
0000
0000
0000
0301
0000
0000
0000
0001
0100
0000
0000
0100
1000
0000
0000
,
1000
0010
0000
0000
0010
0001
0000
0000
2002
0000
0000
0000
0000
0000
0000
0000
,
3003
0000
0000
0000
0010
0000
0100
0000
0001
0000
0100
0001
0100
0000
0000
0000
,
0010
0000
1000
0010
1000
0000
0000
0000
0200
0000
0000
0000
0000
0000
0010
0000
,
0310
0100
1001
0000
1010
0100
0001
1000
,
0100
0010
0001
0010
2000
0000
0000
0000
,
3000
0000
0100
1000
0100
0000
0010
0000
0001
0000
0100
0000
0010
0000
0100
0010
,
0100
0001
0010
1000
0020
0000
0000
0000
,
0000
0000
0000
0000
0030
0000
1000
0100
0001
0000
0100
0000
1000
0000
0010
0001
,
0010
1000
0100
1000
0020
0000
0000
0000
,
0000
0000
0000
0000
0030
0000
1000
0000
0100
0010
0100
0000
1000
0000
1000
0000
,
0010
0100
0010
0000
0001
0000
0001
0000
0220
0000
0000
0000
0330
0000
0000
0000
,
2002
0000
0000
0000
,
0000
3003
0000
0000
;

//---------------dance-single - BEGINNER----------------
#NOTES:
     dance-single:
     BEGINNER:
     Beginner:
     2:
     0.198,0.256,0.205,0.297,0.000,86.000,20.000,29.000,0.000,0.000:
0000
0000
0000
0000
,
0010
0000
0100
0000
,
0002
0000
0003
0000
,
1000
0000
0100
0000
,
0020
0000
0030
0000
,
1001
0000
0110
0000
,
2002
0000
3003
0000
,
1000
0000
0010
0000
,
0010
0000
0010
0000
,
0000
0100
1000
0000
,
0010
0000
0010
0000
,
2000
3000
0010
0000
,
0010
0000
0010
0000
,
0200
0300
0100
0000
,
1000
0000
0010
0000
,
0001
0000
0010
0000
,
0100
0000
0010
0000
,
0010
0000
1000
0000
,
1000
0000
0010
0000
,
0010
0000
0100
0000
,
0100
0000
0001
0000
,
0001
0000
0002
0003
,
2000
3000
2002
0000
,
3003
0000
2000
3000
,
0020
0030
2000
3000
,
0001
0000
0110
0000
,
0101
0000
1100
0000
,
0110
0000
0011
0000
,
1001
0000
0220
0000
,
0000
0330
0110
0000
,
0001
0000
0100
0000
,
0100
0000
0010
0000
,
0100
0000
0001
0000
,
0110
0000
2000
3000
,
0200
0300
2000
3000
,
0001
0000
0110
0000
,
0110
0000
2002
0000
,
3003
0000
1000
0000
,
0001
0000
0200
0000
,
0300
0000
0100
0000
,
0001
0000
0020
0030
,
0200
0300
1010
0000
,
0101
0000
2002
0000
,
3003
0000
1000
0000
,
0001
0000
2000
0000
,
3000
0000
0001
0000
,
1000
0000
0002
0000
,
0003
0000
0010
0000
,
1000
0000
2002
0000
,
0000
0000
0000
0000
,
3003
0000
0000
0000
;
