#TITLE:My name is Jankenpopp;
#SUBTITLE:;
#ARTIST:Jankenpopp;
#TITLETRANSLIT:;
#SUBTITLETRANSLIT:;
#ARTISTTRANSLIT:;
#CREDIT:Jankenpopp;
#BANNER:jankenpoppbanner.png;
#BACKGROUND:jankenpoppbg.png;
#LYRICSPATH:;
#CDTITLE:ryancreationbanner.png;
#MUSIC:My name is Jankenpopp.mp3;
#OFFSET:0.000;
#SAMPLESTART:36.140;
#SAMPLELENGTH:12.000;
#SELECTABLE:YES;
#BPMS:0.000=166.020,336.000=83.010;
#STOPS:;
#BGCHANGES:0.000=jankenpoppbg.png=1.000=0=0=1,
99999=-nosongbg-=1.000=0=0=0 // don't automatically add -songbackground-
;
// cache tags:
#FIRSTBEAT:0.000;
#LASTBEAT:208.000;
#SONGFILENAME:Songs/StepMix 1.0/My name is Jankenpopp/01 - My name is Jankenpopp.sm;
#HASMUSIC:1;
#HASBANNER:1;
#MUSICLENGTH:81.031;
// end cache tags

//---------------dance-single - ----------------
#NOTES:
     dance-single:
     :
     Easy:
     5:
     0.467,0.578,1.000,0.000,0.000,176.000,89.000,0.000,0.000,0.000:
1001
0000
0110
0000
,
1001
0000
0110
0000
,
1001
0000
0110
0000
,
1001
1001
1001
0000
,
0110
0110
0110
0000
,
0001
1000
0010
0100
,
0001
0010
0100
1000
,
1000
0100
0010
0001
,
0001
0001
1000
1000
,
0010
0010
0100
0100
,
0001
0001
1000
1000
,
0010
0010
0100
0100
,
1001
0110
1001
0000
,
1001
0110
1001
0000
,
0110
1001
0110
0000
,
0011
1100
0011
0000
,
0010
1000
0001
0000
,
0001
1000
0010
0000
,
0001
0100
0010
0000
,
1000
0010
0100
0000
,
1001
1001
1001
0000
,
0110
0110
0110
0000
,
0001
1000
0010
0100
,
0001
0001
0001
0001
,
1001
1001
1001
0000
,
0110
0110
0110
0000
,
1100
1100
1100
0000
,
0011
0011
0011
0000
,
0001
1000
0010
0100
,
0001
1000
0010
0000
,
0100
0000
0001
0000
,
1000
0000
0010
0000
,
1001
1001
0110
0110
,
1001
1001
1001
1001
,
1010
1010
0110
0011
,
0110
1100
1001
0011
,
0110
0110
1001
1001
,
0110
1001
0110
1001
,
0001
0001
1000
1000
,
0010
0010
0100
0100
,
0001
1000
0010
0100
,
0001
1000
0100
0010
,
0001
1000
0100
0010
,
0001
0001
0010
0100
,
1000
0000
1001
0000
,
0110
0110
1001
1001
,
0110
0110
1001
1001
,
1100
0011
0011
0110
,
1010
0000
1001
0000
,
1001
1010
1000
0101
,
1000
0101
1000
0101
,
0000
1001
0110
0000
,
1001
0000
0000
0000
;

//---------------dance-single - ----------------
#NOTES:
     dance-single:
     :
     Medium:
     6:
     0.554,0.569,0.975,0.025,0.000,233.000,79.000,2.000,0.000,0.000:
1001
0000
1001
0000
,
1001
0000
1001
0000
,
1001
0000
1001
0000
,
0001
1000
0010
0000
0001
1000
0010
0000
,
0001
0001
1000
1000
,
0001
1000
0010
0000
0001
1000
0100
0000
,
1001
1001
0110
0110
,
0001
1000
0010
0000
1001
0000
1001
0000
,
0010
1000
0001
0000
0001
0000
0001
0000
,
1000
1001
0001
1001
,
0001
1000
0010
1000
,
0001
0000
1010
0000
0000
0000
1000
0010
,
0002
1000
1000
1003
,
0001
0000
0010
0000
1000
0001
0100
0000
,
0010
1000
0001
0000
0001
1000
0010
0000
,
0001
1001
1001
0001
,
1000
0010
0100
0000
0001
1000
0010
0000
,
0001
0001
0001
0001
,
1000
0010
0100
0000
1001
0000
1001
0000
,
0001
1000
0010
0100
0001
1000
0010
0000
,
1001
1001
0110
0110
,
1001
0001
1001
0001
,
1001
1000
1001
1000
,
1001
0110
1001
0110
,
0011
0011
0110
0110
,
1010
1010
0011
0110
,
1010
0011
1010
0101
,
0110
1010
0001
0000
,
0001
0001
1000
1000
,
0010
0010
0100
0200
,
0000
0000
0301
0001
,
1000
1000
0001
0001
,
1000
0010
0100
0000
,
0010
0000
0001
0000
1000
0010
0100
0000
,
0001
1000
0010
0000
0100
0001
1000
0000
,
0010
0100
0001
1000
0001
1000
0001
0000
,
0001
1000
0001
1000
0001
1000
0001
1000
,
0001
1000
0001
1000
0001
1000
0001
1000
,
0010
0100
0010
0100
0010
0100
0010
0100
,
0001
0000
0001
0000
1000
0010
0100
0000
,
0001
0000
1000
0010
0100
0001
1000
0010
,
0100
0001
0001
0001
,
1000
1000
1000
1000
,
0110
1001
0110
0011
,
0110
1010
0110
0011
,
0110
1010
1010
0110
,
0011
0011
0110
1010
,
0110
0011
1010
0101
,
1010
1001
0110
1001
,
0011
0110
1010
1001
,
0110
1001
1001
1100
,
1001
1001
0000
0000
;

//---------------dance-single - Copied from----------------
#NOTES:
     dance-single:
     Copied from:
     Beginner:
     3:
     0.289,0.353,0.148,0.025,0.000,150.000,12.000,2.000,0.000,0.000:
1001
0000
0000
0000
,
0001
0000
0000
0000
,
1000
0000
0000
0000
,
0001
0000
0000
0000
,
0010
0000
0100
0000
,
0001
0000
1000
0000
,
0100
0000
0001
0000
,
1000
0000
0010
0000
,
0001
0001
0001
0001
,
0001
0001
0001
0001
,
1000
1000
1000
1000
,
1000
1000
1000
1000
,
0010
0010
0010
0010
,
0010
0010
0010
0010
,
0100
0100
0100
0100
,
0100
0100
0100
0100
,
1001
0000
1001
0000
,
1001
0000
1001
0000
,
1001
0000
1001
0000
,
1001
0000
1001
0000
,
1000
0010
0100
0001
,
0010
0100
1000
1000
,
0010
0001
0100
0000
,
0001
0010
0100
1000
,
0000
1000
0100
0010
,
0001
0000
1000
0100
,
0010
0001
0000
1000
,
0100
0010
0001
0000
,
0002
0000
0000
0000
,
0000
0000
0000
0000
,
0000
0000
0000
0000
,
0003
0000
0000
0000
,
0020
0000
0000
0000
,
0000
0000
0000
0000
,
0030
0000
0000
0000
,
0001
1000
0001
1000
,
0010
0010
0010
0010
,
0010
0010
0010
0010
,
0010
0100
0100
0100
,
0100
0100
0100
0100
,
0100
0001
0001
0001
,
0001
0001
0001
0001
,
0001
1000
1000
1000
,
1000
1000
1000
1000
,
1000
0001
0001
0001
,
0001
1000
1000
0001
,
0001
1000
1000
0010
,
0010
0100
0100
1001
,
1001
0001
0001
1000
,
1000
0001
0001
1000
,
1000
0001
0001
1000
,
1000
0010
0010
0100
,
1001
0000
0000
0000
;

//---------------dance-single - Copied from Copied f----------------
#NOTES:
     dance-single:
     Copied from Copied f:
     Hard:
     8:
     0.645,0.706,1.000,0.074,0.136,222.000,138.000,6.000,0.000,0.000:
1001
0001
0001
0001
,
1000
1000
1000
1000
,
0001
0000
0001
0000
0000
0001
0001
0000
,
1000
0000
1000
0000
0000
1000
1000
0000
,
0001
0000
0001
0000
0000
0001
0001
0000
,
1000
0000
1000
0000
0000
1000
1000
0000
,
0001
0000
0001
0000
0000
0001
0001
0000
,
1000
0000
1000
0000
0000
1000
1000
0000
,
0000
0000
0001
0000
1000
0010
0000
0000
0101
0000
0000
0000
0010
1000
0000
0000
,
0101
0000
0000
0000
0010
1000
0000
0000
0101
0000
0000
0000
0010
1000
0000
0000
,
0101
0000
0000
0000
0010
1000
0000
0000
0101
0000
0000
0000
0010
1000
0000
0000
,
0101
0000
0000
0000
0010
1000
0000
0000
0101
0000
0000
0000
0010
1000
0000
0000
,
0101
0000
0000
0000
0010
1000
0000
0000
0101
0000
0000
0000
0010
1000
0000
0000
,
0101
0000
0000
0000
0010
1000
0000
0000
0101
0000
0000
0000
0010
1000
0000
0000
,
0101
0000
0000
0000
0010
1000
0000
0000
0101
0000
0000
0000
0010
1000
0000
0000
,
0101
1001
1001
1001
,
0001
1000
0000
0000
0110
0000
0000
0000
0001
1000
0000
0000
0110
0000
0000
0000
,
0001
1000
0000
0000
0110
0000
0000
0000
0001
1000
0000
0000
0110
0000
0000
0000
,
0001
1000
0000
0000
0110
0000
0000
0000
0001
1000
0000
0000
0110
0000
0000
0000
,
0001
1000
0000
0000
0110
0000
0000
0000
0001
1000
0000
0000
0110
0000
0000
0000
,
1001
1001
1001
1001
,
0110
0110
0110
0110
,
0011
0110
1010
0110
,
0011
1010
0101
0011
,
0110
1010
0110
0011
,
1010
0101
0011
0110
,
1000
1000
1000
1000
,
0001
0001
0001
0001
,
2002
0000
0000
0000
,
0000
0000
0000
3003
,
1001
1001
0110
0110
,
1001
0110
1001
1100
,
0011
0110
0011
0110
,
1010
0110
0011
1010
,
0101
0011
0110
1010
,
0110
0011
0011
0011
,
1010
0101
0110
0011
,
1010
0101
0000
0011
0011
1100
1001
0000
,
1001
0110
1001
1010
,
0110
0011
0000
0000
1010
0110
0011
0000
,
0000
1001
0110
0000
1001
0110
2002
0000
,
0000
0000
0000
0000
,
3003
0000
1001
1001
,
0110
0110
1001
0110
,
1001
1100
0011
0110
,
0011
0110
1010
0110
,
0011
1010
0101
0011
,
0110
1010
0110
0011
,
0011
0011
1010
0101
,
0110
0000
0011
0000
1010
0101
0000
0011
,
0011
1100
1001
0000
1001
0000
0110
0000
,
1001
0000
2020
0000
0000
0000
0000
3030
,
1001
0000
0000
0000
;

//---------------pump-single - ----------------
#NOTES:
     pump-single:
     :
     Easy:
     1:
     0.522,0.578,1.000,0.000,0.000,205.000,91.000,0.000,0.000,0.000:
10001
00100
10001
00100
,
10001
00100
01010
00100
,
01010
10001
00100
10001
,
00000
00010
00010
00010
,
00010
00010
00010
00010
,
00010
01000
01000
01000
,
01000
01000
01000
01000
,
01000
00001
00001
00001
,
00001
00001
00001
00001
,
00001
10000
10000
10000
,
10000
10000
10000
10000
,
10000
01010
01010
01010
,
01010
01010
01010
01010
,
01010
10001
10001
10001
,
10001
10001
10001
10001
,
10001
10001
00100
10001
,
00100
10001
00100
01010
,
00100
01010
10001
00100
,
10001
00000
00010
00010
,
00010
00010
00010
00010
,
00010
00010
01000
01000
,
01000
01000
01000
01000
,
01000
01000
00001
00001
,
00001
00001
00001
00001
,
00001
00001
10000
10000
,
10000
10000
10000
10000
,
10000
10000
01010
01010
,
01010
01010
01010
01010
,
01010
01010
10001
10001
,
10001
10001
10001
10001
,
10001
10001
10001
00100
,
10001
00100
10001
00100
,
01010
00100
01010
10001
,
00100
10001
00000
00010
,
00010
00010
00010
00010
,
00010
00010
00010
01000
,
01000
01000
01000
01000
,
01000
01000
01000
00001
,
00001
00001
00001
00001
,
00001
00001
00001
10000
,
10000
10000
10000
10000
,
10000
10000
10000
01010
,
01010
01010
01010
01010
,
01010
01010
01010
10001
,
10001
10001
10001
10001
,
10001
10001
10001
00000
,
10010
10010
01001
01001
,
10010
10010
01001
01001
,
10010
10010
01001
01001
,
10010
10010
01001
01001
,
00100
10010
10010
01001
,
01001
10010
10010
00100
,
00100
00000
00000
00000
;
