#TITLE:.Hack/Dusk;
#SUBTITLE:- It's A New World;
#ARTIST:Round Table feat. Nino;
#TITLETRANSLIT:;
#SUBTITLETRANSLIT:;
#ARTISTTRANSLIT:;
#CREDIT:Anime Toshokan;
#BANNER:Hack Dusk - It's A New World.png;
#BACKGROUND:Hack Dusk - It's A New World bg.png;
#LYRICSPATH:;
#CDTITLE:dejiko.png;
#MUSIC:Hack Dusk - It's A New World.mp3;
#OFFSET:-1.970;
#SAMPLESTART:15.990;
#SAMPLELENGTH:14.400;
#SELECTABLE:YES;
#DISPLAYBPM:134.000;
#BPMS:0.000=133.920,72.000=134.100,128.000=133.750,156.000=134.060;
#STOPS:;
#BGCHANGES:;
// cache tags:
#FIRSTBEAT:3.000;
#LASTBEAT:193.000;
#SONGFILENAME:Songs/DDR Anime 4th Mix/Hack Dusk - It's A New World/Hack Dusk - It's A New World.sm;
#HASMUSIC:1;
#HASBANNER:1;
#MUSICLENGTH:89.423;
// end cache tags

//---------------dance-single - ANOTHER----------------
#NOTES:
     dance-single:
     ANOTHER:
     Medium:
     6:
     0.382,0.459,0.514,0.414,0.000,156.000,46.000,37.000,0.000,0.000:
0000
0000
0000
0000
0000
0000
1000
0020
,
0000
0000
0000
0000
0030
0000
1000
0020
,
0000
0000
0030
1000
,
0100
0010
0001
0010
,
0100
0000
1001
0000
0100
0000
0001
0200
,
0000
0000
0000
0000
0300
0000
0001
0200
,
0000
0000
0300
1000
,
0010
0000
0100
0000
0010
0001
0010
2002
,
0000
3003
0110
0000
0100
0010
0000
1001
,
0000
0010
0100
0010
0100
0001
0000
2000
,
0000
0000
0000
0000
3000
0000
0001
2000
,
0000
0000
0000
0000
3000
0000
0000
0220
,
0000
0330
1001
0000
0100
0010
0000
0100
,
0000
0000
1000
0000
0001
0101
0000
0202
,
0000
0000
0000
0000
0303
0000
1000
0200
,
0000
0000
0000
0300
,
0000
0000
0000
1000
0100
0001
0010
1000
,
0000
0100
0000
0010
0000
0200
0000
0000
,
0000
0300
1000
0000
0010
0000
1000
0100
,
0000
0100
1000
0000
0002
0000
0000
0000
,
1003
0000
0000
1000
0010
0001
0100
1000
,
0000
0100
0000
0010
0000
0100
0000
0001
,
0000
0000
0000
0000
0000
0001
0100
0001
,
0000
0100
0000
0001
0000
0100
0001
0100
,
0000
0202
0000
0303
2020
0000
3030
0101
,
0000
1010
0000
1100
0000
0012
0000
0000
,
0100
1000
0010
1000
,
0100
0000
1000
0003
0010
0010
0100
1001
,
0000
0000
0010
0001
0000
1000
0000
0020
,
0000
0000
1000
0000
0001
0000
0030
0100
,
1000
0100
0000
0010
0000
0001
0000
1100
,
0000
0000
0000
1001
0000
0010
0000
0000
,
0000
2020
0000
3030
0202
0000
0303
1010
,
0000
0101
0000
1100
0000
0022
0000
0000
,
0000
0000
0000
0000
0000
0000
0000
0033
,
0000
0000
0000
0000
0110
0110
1001
1001
,
0000
0000
1000
0100
0000
0010
0000
0001
,
0000
0000
1001
0000
1001
0000
0000
0010
,
1000
0001
0000
0010
0000
0010
0000
1001
,
0000
1001
0000
0110
0000
0110
0000
2002
,
0000
0000
0000
0000
0000
3003
0010
2002
,
0000
0000
0000
0000
0000
3003
0100
2002
,
0000
0000
0000
0000
0000
0000
0000
3003
,
0010
1000
0001
0100
,
1001
0000
0110
0000
0000
0000
1000
0220
,
0000
0000
0000
0000
0000
0330
0001
0220
,
0000
0000
0000
0330
,
1001
0000
0110
0000
1001
0000
1001
0010
,
0000
1001
1001
0000
0000
0000
0000
0000
;

//---------------dance-single - MANIAC----------------
#NOTES:
     dance-single:
     MANIAC:
     Hard:
     8:
     0.471,0.567,0.716,0.425,0.000,193.000,64.000,38.000,0.000,0.000:
0000
0000
0000
0000
0000
0000
1000
0022
,
0000
0000
0000
0000
0033
0000
1000
0022
,
0000
0000
0000
0000
0033
0000
1000
1000
,
0100
0100
0010
0010
0001
0001
0010
0010
,
0100
0100
1010
0000
0001
0000
0011
2200
,
0000
0000
0000
0000
3300
0000
0011
2200
,
0000
0000
0000
0000
3300
0000
1000
0100
,
0010
0001
0100
0010
0010
0001
0010
2002
,
0000
3003
0110
0000
0110
0110
0000
1001
,
0000
0010
0100
0010
0100
0001
0000
2000
,
0000
0100
0100
0000
3000
0000
0001
2000
,
0000
0010
0010
0000
3000
0000
0000
0220
,
0000
0330
1001
0000
0110
1010
0000
0100
,
0000
0000
1000
0000
0001
0101
0000
0102
,
0000
0100
0100
0000
0003
0000
1000
0200
,
0000
0010
0010
0000
0000
0000
0310
0000
,
0000
0000
0000
1000
0100
1000
0100
1000
,
0000
0100
0000
1000
0000
0200
0000
0000
,
0000
0300
0001
0000
0010
0000
0001
0010
,
0000
0100
1000
0000
0002
0000
0010
0000
,
1003
0000
0000
0100
0010
0100
0010
0110
,
0000
0100
0000
0010
0000
0100
0000
0001
,
0000
0000
0000
0000
0000
0001
0100
0101
,
0000
0100
0000
0001
0000
0100
0001
0101
,
0000
0010
0020
0030
0100
0200
0300
0101
,
0000
1010
0000
1100
0000
0012
0000
0000
,
0100
0100
1000
0100
0010
0000
0000
0000
,
0000
0000
0000
0003
0010
0010
0100
1001
,
0000
0000
0010
0011
0000
1000
0000
0220
,
0000
0000
0000
0000
0000
0000
0330
0100
,
1000
0100
0000
0010
0000
0001
0000
1100
,
0000
0000
0000
1001
0000
0010
0000
0000
,
0000
0100
2020
3030
0010
0202
0303
1010
,
0000
0101
0000
1100
0000
0012
0010
0010
,
0010
0010
0010
0010
0010
0010
0010
0013
,
0000
0000
0000
0000
1100
1100
0101
0101
,
0000
0000
1000
0100
0000
0010
0000
0001
,
0000
0000
1001
0110
1001
0000
0000
0010
,
1000
0001
0000
0011
0000
1010
0000
1100
,
0000
0110
0000
0011
0000
1001
0000
0220
,
0000
0000
0000
0000
0000
0330
0010
0202
,
0000
0000
0000
0000
0000
0303
0100
2020
,
0000
0000
0000
0000
0000
0000
0000
3030
,
0010
0010
1000
1000
0001
0001
0100
0010
,
1001
0000
0110
0000
0000
0000
1000
2200
,
0000
0000
0000
0000
0000
3300
0001
0022
,
0000
0000
0000
0033
,
1001
1100
0110
0011
1001
0000
1001
0010
,
0000
1001
1001
0000
0000
0000
0000
0000
;
