#TITLE:Messij;
#SUBTITLE:;
#ARTIST:Cold Comfort;
#TITLETRANSLIT:;
#SUBTITLETRANSLIT:;
#ARTISTTRANSLIT:;
#CREDIT:;
#BANNER:Messij-banner.PNG;
#BACKGROUND:Messij-bg.PNG;
#LYRICSPATH:;
#CDTITLE:;
#MUSIC:Messij.mp3;
#OFFSET:0.000;
#SAMPLESTART:34.340;
#SAMPLELENGTH:11.300;
#SELECTABLE:YES;
#BPMS:0.000=165.000,16.000=168.500;
#STOPS:;
#BGCHANGES:;
// cache tags:
#FIRSTBEAT:16.000;
#LASTBEAT:304.500;
#SONGFILENAME:Songs/StepMix 1.0/Messij/Messij.sm;
#HASMUSIC:1;
#HASBANNER:1;
#MUSICLENGTH:114.244;
// end cache tags

//---------------dance-single - ----------------
#NOTES:
     dance-single:
     :
     Easy:
     4:
     0.420,0.497,0.333,0.560,0.000,234.000,38.000,64.000,0.000,0.000:
0000
0000
0000
0000
,
0000
0000
0000
0000
,
0000
0000
0000
0000
,
0000
0000
0000
0000
,
2000
3001
0002
1003
,
2000
3001
0002
1003
,
0200
0310
0020
0130
,
0200
0310
0020
0130
,
0001
1000
1001
0000
,
0010
0100
0110
0000
,
1000
0001
0110
0000
,
0100
0010
1001
0000
,
2000
3000
0002
0003
,
0200
0300
0020
0030
,
1000
0001
0100
0010
,
0001
1000
0010
0100
,
2002
0000
0000
0000
,
0000
3003
0000
0000
,
1000
1000
1000
1000
,
0001
0001
0001
0001
,
0220
0000
0000
0000
,
0000
0330
0000
0000
,
0100
0100
0100
0100
,
0010
0010
0010
0010
,
0002
1000
1000
1000
,
1003
0001
1000
0001
,
2000
0001
0001
0001
,
3001
1000
0001
1000
,
0020
0100
0100
0100
,
0130
0010
0100
0010
,
0200
0010
0010
0010
,
0310
0100
0010
0100
,
0220
0000
0000
0000
,
0000
0330
0000
0000
,
2002
0000
0000
0000
,
0000
3003
0000
0000
,
2000
3100
0002
0103
,
2000
3100
0002
0103
,
2000
3010
0002
0013
,
2000
3010
0002
0013
,
0200
1300
0020
1030
,
0200
1300
0020
1030
,
0200
0301
0020
0031
,
0200
0301
0020
0031
,
2000
3001
0002
1003
,
1001
0110
1001
0110
,
0002
1003
2000
3001
,
1001
0110
1001
0110
,
0200
0310
0020
0130
,
0110
1001
0110
1001
,
0020
0130
0200
0310
,
0110
1001
0110
1001
,
1000
0100
0010
0001
,
0001
0010
0100
1000
,
1000
0001
0100
0010
,
0001
1000
0010
0100
,
1000
0100
1000
0010
,
0001
0100
0001
0010
,
1000
0100
0001
0010
,
0001
0100
1000
0010
,
0002
1000
1000
1003
,
2000
0001
0001
3001
,
0020
0100
0100
0130
,
0200
0010
0010
0310
,
2002
0000
0000
0000
,
0000
3003
0000
0000
,
0220
0000
0000
0000
,
0000
0330
0000
0000
,
1000
1001
0001
1001
,
0100
0110
0010
0110
,
1000
0100
2200
3300
,
0001
0100
0202
0303
,
0010
0110
0100
0110
,
0001
1001
1000
1001
,
0001
0010
0022
0033
,
1000
0010
2020
3030
;

//---------------dance-single - ----------------
#NOTES:
     dance-single:
     :
     Medium:
     6:
     0.505,0.565,0.385,0.595,0.000,292.000,44.000,68.000,0.000,0.000:
0000
0000
0000
0000
,
0000
0000
0000
0000
,
0000
0000
0000
0000
,
0000
0000
0000
0000
,
1000
0000
0001
0000
2002
0000
0000
3003
,
0000
0100
0000
0010
0000
0220
0330
0000
,
0001
0000
1000
0000
2002
0000
0000
3003
,
0000
0010
0000
0100
0000
0220
0330
0000
,
1000
0000
0100
0000
0010
0001
0000
0010
,
0000
0100
0000
1000
0000
0100
0010
0001
,
0001
0000
1000
0000
0010
0100
0000
1000
,
0000
0001
0000
0100
0000
0010
0001
1000
,
2001
0000
0001
0000
0001
3001
0000
1002
,
0000
1000
0000
1000
0000
1000
1003
0000
,
0210
0000
0010
0000
0010
0310
0000
0120
,
0000
0100
0000
0100
0000
0100
0130
0000
,
2000
0010
0001
3100
,
0002
0100
1000
0013
,
1000
1010
0001
0011
,
1000
1010
0001
0011
,
0200
0001
0010
1300
,
0020
1000
0100
0031
,
1000
1100
0001
0101
,
1000
1100
0001
0101
,
2000
3100
0002
0103
,
2000
3010
0002
0013
,
0200
1300
0020
1030
,
0200
0301
0020
0031
,
2000
3100
1100
1100
,
0002
0103
0101
0101
,
2000
3010
1010
1010
,
0002
0013
0011
0011
,
2000
0100
0001
3010
,
0002
0010
1000
0103
,
0200
1000
0010
0301
,
0020
0001
0100
1030
,
0001
0010
0100
1000
,
0001
0100
0010
1000
,
0100
0010
0001
1000
,
0010
0100
1000
0010
,
1000
0100
0001
0010
,
0001
0100
1000
0010
,
0001
0100
0001
0010
,
2000
0100
0002
3003
,
0200
0000
0310
1000
0001
0100
0010
2000
,
0000
0002
0000
0000
0000
0000
3003
0000
,
0020
0000
0130
0001
1000
0010
0100
0002
,
0000
2000
0000
3003
0000
0110
0000
1001
,
2000
0000
3001
0100
0010
1000
0001
0200
,
0000
0020
0000
0000
0000
0000
0330
0000
,
0002
0000
1003
0010
0100
0001
1000
0020
,
0000
0200
0000
0330
0000
1001
0000
0110
,
0110
0100
0110
0010
,
1001
1000
1001
0001
,
0110
0010
0110
0100
,
1001
0001
1001
1000
,
0100
1000
1100
1100
,
0010
0001
0011
0011
,
0100
0001
0101
0101
,
0010
1000
1010
1010
,
0002
0000
0000
0000
1003
0020
0000
0230
,
0000
0302
0000
2003
0000
3010
0100
0000
,
2000
0000
0000
0000
3001
0200
0000
0320
,
0000
2030
0000
3002
0000
0103
0010
0000
,
0200
0000
0000
0000
0310
2000
0000
3002
,
0000
0203
0000
0320
0000
1030
0001
0000
,
0020
0000
0000
0000
0130
0002
0000
2003
,
0000
3020
0000
0230
0000
0301
1000
0000
,
0001
0010
0100
1000
,
0001
0100
0010
1000
,
0100
0010
0001
1000
,
0010
0100
0001
0010
,
0001
0100
1000
0010
,
1000
0100
0001
0010
,
1000
0100
1000
0010
,
0002
0100
2000
0000
,
3003
0000
0000
0000
;

//---------------dance-single - ----------------
#NOTES:
     dance-single:
     :
     Hard:
     10:
     0.758,0.866,0.228,1.000,0.188,461.000,26.000,119.000,28.000,26.000:
0000
0000
0000
0000
,
0000
0000
0000
0000
,
0000
0000
0000
0000
,
0000
0000
0000
0000
,
1000
0100
0010
0001
0001
0010
0100
1000
,
1000
0100
0010
0001
0001
0010
0100
1000
,
1000
0001
0100
0010
0001
1000
0010
0100
,
1000
0001
0100
0010
0001
1000
0010
0100
,
2000
0000
3001
1000
0001
0000
1000
0000
2002
0000
3003
0000
0000
0000
0000
0000
,
0200
0000
0310
0100
0010
0000
0100
0000
0220
0000
0330
0000
0000
0000
0000
0000
,
0002
0000
1003
0001
1000
0000
0001
0000
2002
0000
3003
0000
0000
0000
0000
0000
,
0020
0000
0130
0010
0100
0000
0010
0000
0220
0000
0330
0000
0000
0000
0000
0000
,
0000
2000
0000
0200
3000
0002
0300
0020
,
0003
2000
0030
0200
3000
0002
0300
0020
,
0003
0002
0030
0200
0003
2000
0300
0020
,
3000
0002
0030
0200
0003
2000
0300
3010
,
2020
0100
0001
0100
,
0001
3030
MMMM
0000
0000
0000
0000
0000
,
2001
0000
0000
3000
2010
0000
0000
3000
1002
0000
0000
0003
0012
0000
0000
0003
,
2001
0000
0000
3000
2100
0000
0000
3000
1002
0000
0000
0003
0102
0000
0000
0003
,
0202
0010
1000
0010
,
1000
0303
MMMM
0000
0000
0000
0000
0000
,
0210
0000
0000
0300
0201
0000
0000
0300
0120
0000
0000
0030
1020
0000
0000
0030
,
0210
0000
0000
0300
1200
0000
0000
0300
0120
0000
0000
0030
0021
0000
0000
0030
,
1000
0000
0100
0000
0010
0000
0001
0010
0100
0000
1000
0000
0100
0010
0001
0010
,
0100
0000
1000
0000
0100
0000
0010
0001
0010
0000
0100
0000
1000
0100
0010
0001
,
1000
0000
0010
0000
0100
0000
0001
1000
0010
0000
0100
0000
0001
1000
0010
0100
,
0001
0000
0100
0000
0010
0000
1000
0001
0100
0000
0010
0000
1000
0001
0100
0010
,
1000
0000
0100
0000
1000
0000
0010
1000
0100
0000
1000
0000
0010
1000
0100
1000
,
0010
0000
0001
0000
0100
0000
0001
0010
0001
0000
0100
0000
0001
0010
0001
0100
,
0001
0000
0010
0000
1000
0000
0010
0001
0100
0000
1000
0000
0100
0001
0100
0010
,
0100
0000
1000
0000
0100
0000
0010
0001
0010
0000
0100
0000
0010
1000
0010
0100
,
0002
0000
0000
0003
0002
0000
0000
0003
0002
0000
0000
0003
0002
0000
0000
0000
,
2003
0000
0000
3000
2000
0000
0000
3000
2000
0000
0000
3000
2000
0000
0000
0000
,
3020
0000
0000
0030
0020
0000
0000
0030
0020
0000
0000
0030
0020
0000
0000
0000
,
0230
0000
0000
0300
0200
0000
0000
0300
0200
0000
0000
0300
0200
0000
0000
0000
,
0301
0010
1000
0010
0001
0010
1000
0020
,
0000
0200
0002
0000
2000
0330
3MM3
M00M
,
1000
0100
0001
0100
1000
0100
0001
0200
,
0000
0020
0000
2300
0000
0032
0000
3000
,
0100
1003
0100
0001
0100
1000
0100
0002
,
0000
2000
0020
0000
0200
3003
M33M
0MM0
,
0010
0001
0010
1000
0010
0001
0010
2000
,
0000
0002
0000
3200
0000
0023
0000
0300
,
1000
0130
0001
0100
1000
0100
0001
0200
,
0000
0020
2000
0000
0002
0330
3MM3
M00M
,
0001
0010
1000
0010
0001
0010
1000
0020
,
0000
0200
0000
0032
0000
2300
0000
0003
,
0010
3001
0010
1000
0010
0001
0010
2000
,
0000
0002
0200
0000
0020
3003
M33M
0MM0
,
0100
1000
0100
0001
0100
1000
0100
0002
,
0000
2000
0000
0023
0000
3200
0000
0030
,
0001
0310
0001
0100
0001
0010
0001
0100
,
1000
0100
0001
0100
1000
0100
0001
0100
,
1000
0100
1000
0010
1000
0100
1000
0010
,
0001
0010
1000
0010
0001
0010
1000
0010
,
0001
0100
1000
0010
0001
0100
1000
0010
,
0001
0100
1000
0010
0001
0100
1000
0010
,
1000
0100
0001
0010
1000
0100
0001
0010
,
1000
0100
0001
0010
1000
0100
0001
0010
,
1000
0100
0010
0000
0001
0010
0100
0000
,
0010
0100
1000
0000
0100
0010
0001
0000
,
1000
0001
0100
0000
0001
1000
0100
0000
,
1000
0001
0010
0000
0001
1000
0010
0000
,
2002
0000
0000
0003
0002
0000
0000
0003
0002
0000
0000
0003
0002
0000
0000
3003
,
2002
0000
0000
3000
2000
0000
0000
3000
2000
0000
0000
3000
2000
0000
0000
3003
,
0220
0000
0000
0030
0020
0000
0000
0030
0020
0000
0000
0030
0020
0000
0000
0330
,
0220
0000
0000
0300
0200
0000
0000
0300
0200
0000
0000
0300
0200
0000
0000
0330
,
1000
0100
0010
0001
0001
0010
0100
1000
,
1000
0001
0100
0010
0001
1000
0010
0100
,
0001
0010
0100
1000
1000
0100
0010
0001
,
0001
1000
0010
0100
1000
0001
0100
0010
,
1000
0100
0000
0000
0001
0100
0000
0000
0010
1000
0000
0000
0010
0001
0000
0000
,
0100
1000
0000
0000
0100
0001
0000
0000
1000
0010
0000
0000
0001
0010
0000
0000
,
1000
0100
0010
0001
1000
0010
0100
0001
0010
0100
1000
0001
0100
0010
1000
0000
,
0002
0020
0200
2000
,
3333
MMMM
0000
0000
0000
0000
0000
0000
;
