#TITLE:OVERLOAD;
#SUBTITLE:;
#ARTIST:J_D_K;
#TITLETRANSLIT:;
#SUBTITLETRANSLIT:;
#ARTISTTRANSLIT:;
#CREDIT:;
#BANNER:overload.png;
#BACKGROUND:overload-bg.png;
#LYRICSPATH:;
#CDTITLE:;
#MUSIC:overload.mp3;
#OFFSET:0.000;
#SAMPLESTART:47.138;
#SAMPLELENGTH:12.000;
#SELECTABLE:YES;
#BPMS:0.000=170.000;
#STOPS:0.000=0.040
;
#BGCHANGES:;
// cache tags:
#FIRSTBEAT:16.000;
#LASTBEAT:272.000;
#SONGFILENAME:Songs/StepMix 1.0/OVERLOAD/overload.sm;
#HASMUSIC:1;
#HASBANNER:1;
#MUSICLENGTH:96.037;
// end cache tags

//---------------dance-single - ----------------
#NOTES:
     dance-single:
     :
     Beginner:
     2:
     0.167,0.212,0.125,0.021,0.000,98.000,12.000,2.000,0.000,0.000:
0000
0000
0000
0000
,
0000
0000
0000
0000
,
0000
0000
0000
0000
,
0000
0000
0000
0000
,
1000
1000
1000
0000
,
0001
0000
1000
0000
,
0001
0000
0000
0000
,
0001
0000
0000
0000
,
0100
0000
0010
0000
,
0100
0000
0000
0000
,
0001
0000
0000
0000
,
1000
0000
0010
0000
,
0100
0000
0000
0000
,
0001
0000
0000
0000
,
1001
0000
0000
0000
,
1000
0000
0000
0000
,
1000
0000
0010
0000
,
0100
0000
0000
0000
,
0100
0000
0010
0000
,
0100
0000
0010
0000
,
1000
0000
0000
0000
,
0001
0000
0000
0000
,
0001
0000
0001
0000
,
1000
0000
1000
0000
,
0110
0000
0100
0000
,
0010
0000
0000
0000
,
0110
0000
0000
0000
,
1001
0000
0000
0000
,
1000
1000
1000
0000
,
0100
0000
0100
0000
,
0001
0001
0001
0000
,
0100
0000
0000
0000
,
1001
0000
0000
0000
,
1000
0000
0010
0000
,
0001
0000
0000
0000
,
0010
0000
0001
0000
,
1000
0000
0001
0000
,
1001
0000
0001
0000
,
1000
0000
0000
0000
,
1001
0000
0010
0000
,
0001
0000
0000
0000
,
0100
0000
0010
0000
,
1000
0000
0001
0000
,
0100
0000
0001
0000
,
0010
0000
0100
0000
,
0001
0000
0000
0000
,
0001
0000
0000
0000
,
1001
0000
0010
0000
,
0001
0000
0100
0000
,
0010
0000
0000
0000
,
1001
0000
0010
0000
,
1000
0000
0010
0000
,
0100
0000
0001
0000
,
1000
0000
0010
0000
,
0100
0000
0001
0000
,
1000
0000
0010
0000
,
1001
0000
0000
0000
,
1000
0000
0000
0000
,
0100
0000
0000
0000
,
0010
0000
0000
0000
,
0001
0000
0000
0000
,
1000
0000
0000
0000
,
0100
0000
0000
0000
,
0010
0000
0001
0000
,
0110
0000
0000
0000
,
0001
0000
0000
0000
,
0100
0000
0000
0000
,
2002
0000
0000
0000
0000
0000
0000
0000
0000
0000
3003
0000
;

//---------------dance-single - ----------------
#NOTES:
     dance-single:
     :
     Easy:
     5:
     0.382,0.424,0.396,0.271,0.000,193.000,38.000,26.000,0.000,0.000:
0000
0000
0000
0000
,
0000
0000
0000
0000
,
0000
0000
0000
0000
,
0000
0000
0000
0000
,
1000
0100
0010
0001
,
0001
0010
0100
1000
,
0200
0300
2000
3000
,
0001
0001
1000
1000
,
1001
0010
0001
0100
,
0110
0000
0110
0001
,
0011
0000
1100
0001
,
1100
0000
0100
0001
,
1010
0100
1000
0010
,
0101
0100
0001
0100
,
0002
0000
2000
3003
,
1000
0001
0010
1000
,
0100
0000
0100
0000
,
2000
0000
0001
3000
,
0200
0000
0010
0300
,
1000
0000
0000
0000
,
0100
1000
0010
0001
,
0010
0100
0001
1000
,
0010
0100
0001
0100
,
0110
1000
0110
0001
,
0110
0010
1000
0100
,
0020
0001
0030
0000
,
0011
0010
0100
0001
,
1010
0001
0100
1000
,
0101
0100
0010
1000
,
0002
0003
0010
0001
,
0010
1000
0100
0010
,
0001
1000
0010
0100
,
0101
0100
0001
1000
,
0020
0030
0001
0010
,
0001
0100
1000
0010
,
0200
0300
1000
0100
,
0001
0010
0001
1000
,
0200
0300
0001
0100
,
1000
0010
0100
0001
,
0020
0030
1000
0100
,
0001
1100
0100
1000
,
0202
0303
1000
0010
,
0001
0100
0010
1000
,
0220
0330
1000
0001
,
0010
0001
1000
0100
,
0010
0001
0100
0010
,
1000
0010
0100
0001
,
2002
0000
0000
3003
,
0100
0001
1000
0010
,
0200
0300
0010
1000
,
0001
0100
0010
0001
,
0002
0003
1000
0100
,
0010
0001
0100
0010
,
0001
1000
0100
1000
,
0001
0010
0100
0001
,
2200
0000
0000
3300
,
1001
0000
0000
0000
,
0110
0000
0000
0000
,
0011
0000
0000
0000
,
1100
0000
0000
0000
,
0101
0000
0000
0000
,
1100
0000
0000
0000
,
0110
0000
1001
0000
,
0110
0000
1001
1001
,
2002
0000
3003
0000
,
1010
0000
0101
0000
,
0110
0000
0110
0000
,
1001
0000
0000
0000
2002
0000
0000
3003
;

//---------------dance-single - ----------------
#NOTES:
     dance-single:
     :
     Medium:
     7:
     0.506,0.635,0.614,0.250,0.000,257.000,59.000,24.000,0.000,0.000:
0000
0000
0000
0000
,
0000
0000
0000
0000
,
0000
0000
0000
0000
,
0000
0000
0000
0000
,
1000
0000
0001
0000
0100
0010
0100
0000
,
1001
0010
0100
0010
,
0001
1000
0001
1000
,
0010
0100
0001
0100
,
1001
1000
0010
0100
,
0001
0011
1100
0110
,
1001
0000
0001
1000
0100
0000
0100
0010
,
0001
0000
0001
0010
0100
0000
0100
0010
,
0110
0100
0001
0010
,
1000
0100
0010
0000
0001
0000
0100
0000
,
2000
0010
3001
0011
,
0021
0100
1030
0010
,
0100
0000
0001
0000
0100
0010
0001
0000
,
1000
0000
0010
0000
0100
1000
0001
0000
,
0010
0000
1000
0000
0001
0100
1000
0000
,
0001
0100
1001
1001
,
0011
0000
1000
0000
0010
0001
1000
0000
,
0100
0000
0001
0000
1000
0100
0001
0000
,
0010
0000
0010
0000
,
0010
0010
0010
0000
0010
0000
0010
0000
,
1001
0001
0100
0001
,
1000
0100
0010
0000
0100
0000
0001
0000
,
0020
0001
0001
0030
,
0200
1000
1000
0300
,
0001
0000
0100
0000
0010
0100
1000
0000
,
0010
0100
0001
0100
,
0002
0100
0100
0003
,
2000
0010
0010
3000
,
1000
0000
0001
0000
0100
1000
0010
0000
,
0010
0000
0100
0000
1000
0001
1000
0000
,
0220
0000
0000
0330
,
2200
0000
0000
3300
,
0100
0000
0010
0000
0001
0100
1000
0000
,
0100
0000
0001
0000
0010
0001
1000
0000
,
0200
1000
0001
0300
,
0020
1000
0001
0130
,
1001
0000
0001
0000
0100
0010
0100
0000
,
0010
0000
0001
0000
0010
0001
0100
0000
,
2000
0010
0100
3000
,
0020
0001
0100
0030
,
0100
0000
0001
0000
1000
0001
0010
0000
,
0010
0000
0100
0000
0001
0010
1000
0000
,
0210
0010
0010
0300
,
0120
0100
0100
0030
,
0001
0000
1000
0000
0100
0100
0100
0000
,
0001
0100
0010
1000
,
1002
1000
1000
0003
,
2001
0001
0001
3000
,
0010
0100
0010
0001
,
1000
0000
1000
0000
0010
0100
0001
0000
,
0200
1000
0010
1300
,
0012
0100
1000
0013
,
0101
1100
0101
1100
,
0110
1001
0110
1001
,
1010
0011
1010
0011
,
1100
0101
1100
0101
,
0110
1001
0110
1001
,
0011
1100
0011
1100
,
0101
1100
0101
1100
,
2002
0000
0000
3003
,
1001
0110
1001
0110
,
0011
1100
0011
1100
,
1000
0000
0100
0010
0001
0010
0100
0000
,
0220
0000
0000
0000
0000
0000
0000
0000
0000
0000
0000
0000
0000
0000
0000
0000
0000
0000
0000
0000
0000
0000
0000
0330
0000
0000
0000
0000
0000
0000
0000
0000
;

//---------------dance-single - ----------------
#NOTES:
     dance-single:
     :
     Hard:
     8:
     0.599,0.708,0.281,0.364,0.042,341.000,27.000,35.000,0.000,0.000:
0000
0000
0000
0000
,
0000
0000
0000
0000
,
0000
0000
0000
0000
,
0000
0000
0000
0000
,
1000
0100
0010
0000
1000
0000
0010
0000
,
0001
0000
0100
0000
0001
0001
1000
0000
,
0001
0000
1000
0000
1000
1000
1000
0000
,
1001
0100
0010
0001
,
1000
0001
0010
0100
1000
0001
0010
0100
,
1000
1000
0001
0010
0100
1000
0001
0100
,
0010
0100
1000
0010
0100
0010
1000
0001
,
0010
0100
1000
0100
0001
0010
0100
0000
,
1000
0000
0100
0000
1000
0010
0100
0000
,
0001
0000
1000
0000
0001
0010
0001
0000
,
1000
0000
0010
0000
0001
0010
0100
0000
,
1000
0000
0001
0000
0100
0010
1000
0000
,
0001
0010
0001
1000
0100
0010
0001
0000
,
1000
0000
0100
0000
0010
1000
0001
0000
,
0100
0010
0100
0001
1000
0000
0010
0000
,
2002
0000
3003
1000
,
0001
0100
0010
0100
0001
1000
0100
0010
,
0110
0000
0101
0000
,
0100
0001
0010
0001
0100
0010
1000
0001
,
0200
0000
1000
0000
,
0301
0010
0001
0000
1000
0100
1000
0000
,
0001
1000
0001
1000
0010
0100
0010
0000
,
1001
0000
1100
0000
0010
0100
0010
0000
,
0110
0000
0011
0000
1000
0100
0010
0000
,
0100
0000
0010
0000
0001
0000
0100
0010
,
1000
0100
0010
0100
0001
0000
1000
0000
,
0101
0000
1000
0000
0100
0010
0001
0000
,
1001
0000
1001
0000
0010
0100
0010
0100
,
1001
0010
0100
0010
,
0001
0000
0100
0000
0010
0100
0001
0010
,
1000
0100
0010
0001
,
0001
0010
1000
0000
0001
0000
0100
0000
,
0001
0000
1000
0000
0010
0001
1000
0000
,
0010
0000
0100
0000
0010
1000
0100
0000
,
0010
0001
0100
0010
1000
0100
1000
0001
,
0010
0100
0010
0001
1001
0000
0110
0000
,
2000
3200
0320
0032
,
0023
0230
2300
3000
,
0200
0000
0310
0000
1000
0010
0100
0000
,
0002
0000
0203
0000
0301
0010
1000
0000
,
0200
0320
0032
2003
,
3020
0230
0302
2003
,
3020
0032
2003
3200
,
0320
0000
0032
0000
1003
0001
1000
0000
,
0100
0000
0010
0000
0001
1000
0100
0000
,
0010
0100
0001
1000
0100
0010
0001
0100
,
0110
0100
1000
0100
,
1000
0110
1001
0011
,
1010
0000
0010
0000
1000
0100
0010
0001
,
0100
0010
1000
0100
0001
0010
0100
0001
,
1001
0100
0001
1000
,
1000
0001
0100
0010
0100
0001
1000
0010
,
0100
0000
0000
0000
0000
0000
0100
0000
0000
0001
0000
0000
0020
0000
0030
0000
,
0110
0000
0000
0000
0000
0000
0001
0000
0000
0100
0000
0000
0020
0000
0030
0000
,
1000
0000
0000
0000
0000
0000
0010
0000
0000
0001
0000
0000
2000
0000
3000
0000
,
0001
0000
0000
0000
0000
0000
0010
0000
0000
0100
0000
0000
0200
0000
0300
0000
,
0010
0000
0000
0000
0000
0000
0100
0000
0000
0010
0000
0000
2000
0000
3000
0000
,
0001
0000
0000
0000
0000
0000
0100
0000
0000
1000
0000
0000
0002
0000
0003
0000
,
0100
0000
0000
0000
0000
0000
0001
0000
0000
0100
0000
0000
0020
0000
0030
0000
,
0100
0000
0000
0000
0000
0000
0001
0000
0000
0100
0000
0000
0020
0000
0000
0000
,
1030
0100
0010
0001
0010
0100
1000
0100
,
0010
0001
0010
0100
1000
0100
0010
0001
,
1001
0000
0110
0000
1001
0000
0110
0110
,
0001
1000
0001
1000
0001
1000
0001
1000
,
1001
0000
0000
0000
;
