#TITLE:Convergence;
#SUBTITLE:;
#ARTIST:Helix Eternal;
#TITLETRANSLIT:;
#SUBTITLETRANSLIT:;
#ARTISTTRANSLIT:;
#CREDIT:BlueChaos;
#BANNER:Convergence-bn.png;
#BACKGROUND:convergence-bg.png;
#LYRICSPATH:;
#CDTITLE:;
#MUSIC:Convergence.mp3;
#OFFSET:-0.040;
#SAMPLESTART:52.860;
#SAMPLELENGTH:13.000;
#SELECTABLE:YES;
#BPMS:0.000=148.000;
#STOPS:;
#BGCHANGES:;
// cache tags:
#FIRSTBEAT:12.000;
#LASTBEAT:262.000;
#SONGFILENAME:Songs/StepMix 2/Convergence/Convergence.sm;
#HASMUSIC:1;
#HASBANNER:1;
#MUSICLENGTH:108.860;
// end cache tags

//---------------dance-single - BlueChaos----------------
#NOTES:
     dance-single:
     BlueChaos:
     Challenge:
     10:
     0.772,0.993,0.331,0.643,0.372,482.000,36.000,70.000,26.000,0.000:
0000
0000
0000
0000
,
0000
0000
0000
0000
,
0000
0000
0000
0000
,
0000
0000
0000
0000
,
0000
0000
0000
0000
0000
0000
1000
0001
,
0100
0101
0001
0101
,
0100
0000
0101
0000
0001
0000
0100
0001
,
0010
0011
0010
0011
,
0000
0000
0001
0000
0100
0000
0000
0010
0000
1000
0001
0000
0010
0000
0100
0000
,
1200
0000
0010
0000
0001
0000
0310
0100
,
1002
0000
0010
0000
0100
0000
1003
0100
,
0002
0100
0203
1000
,
0320
0000
1000
0000
0100
0000
0031
0100
,
0201
0000
0010
0000
1000
0000
0310
1000
,
0200
0000
0001
0000
0010
0000
1300
0001
,
0200
0000
1000
0000
0010
0000
0301
0010
,
0011
0000
0001
0000
0100
0000
0010
1000
0000
0100
0000
1000
0010
0000
1000
0000
,
1100
0000
0100
1000
0001
0000
1000
0001
0100
0000
0001
0100
0010
0000
0000
0000
,
0101
0000
0001
0100
0010
0000
1000
0100
0010
0000
0100
1000
0001
0000
0000
0000
,
1001
0000
1000
0100
0010
0000
0100
1000
0010
0000
1000
0001
0100
0000
0000
0000
,
0101
0000
0100
0001
0010
0000
0100
1000
0001
0000
0010
0001
0100
0000
0001
0000
,
0011
0010
0001
0100
1000
0100
0001
000M
,
0101
0100
0001
0010
0001
000M
0010
0001
,
0011
0010
0100
0001
0100
1000
0100
M000
,
0100
0000
0010
0000
0001
0000
0000
0010
0000
0001
0000
0100
0010
1000
0100
0000
,
1000
0001
1000
0001
1000
0000
0010
0000
0200
0000
0000
0000
0301
0000
000M
0000
,
0001
0010
0001
0010
0001
0000
1000
0000
0020
0000
0000
0000
1030
0000
00M0
0000
,
0010
1000
0001
1000
0010
0000
0100
0000
0002
0000
0000
0000
0103
0000
000M
0000
,
0001
0100
0010
0100
0001
0000
0100
0000
0020
0000
0000
0000
0130
0000
00M0
0000
,
0001
0100
0010
1000
0100
0000
1000
0000
0200
0000
0000
0000
0310
0000
0M00
0000
,
0100
1000
0010
1000
0001
0000
1000
0000
0020
0000
0000
0000
0130
0000
00M0
0000
,
0010
1000
0001
0010
0100
0000
1000
0000
0020
0000
0000
0000
0130
0000
00M0
0000
,
0010
0100
0001
0000
0100
0001
0010
0000
0001
0010
0100
1000
0100
0010
0001
1000
,
0010
1000
0010
0100
0010
0001
0010
1000
,
0010
0100
0001
0010
0100
0000
1000
0000
0100
0000
0001
0000
0100
0000
1000
0000
,
0100
1000
0010
0100
0001
0000
0100
0000
0010
0000
0001
0000
0010
0000
1000
0000
,
0010
1000
0100
0010
0100
0000
1000
0000
0010
0000
0100
0000
1000
0000
0100
0000
,
0001
0100
0010
1000
0001
0000
0010
0000
0001
0000
1000
0000
0001
0000
0100
0000
,
0001
1000
0100
1000
0010
0000
0100
0000
0010
0000
1000
0000
0001
0000
0010
0000
,
0100
0010
0001
1000
0100
0000
1000
0000
0100
0000
0001
0000
0100
0000
1000
0000
,
0010
0100
0010
0000
1001
0000
0000
0001
0000
1000
0000
0001
0010
0000
0001
0000
,
0020
0032
0203
2300
3200
0302
0203
0320
,
1030
0100
2000
0000
3200
0000
0302
0000
0203
0000
0320
0000
0032
0000
0203
0000
,
0301
1000
0002
0000
0023
0000
2030
0000
3020
0000
0032
0000
0203
0000
2300
0000
,
3100
1000
0200
0000
0320
0000
0230
0000
0302
0000
2003
0000
3200
0000
0320
0000
,
0130
0010
0200
0000
0320
0000
0032
0000
2003
0000
3020
0000
0032
0000
0023
0000
,
0130
0001
0200
0000
0320
0000
0230
0000
2300
0000
3200
0000
0302
0000
0023
0000
,
1030
0010
2000
0000
3020
0000
0230
0000
2300
0000
3200
0000
0320
0000
0032
0000
,
1003
0000
0001
0000
0101
0000
0000
0001
0000
1000
0000
0001
0010
0000
0100
0000
,
1100
0000
1000
0000
0010
0000
M010
0000
0100
0000
0001
1000
0100
0000
0100
0000
,
1100
0000
1000
0000
0M01
0000
0101
0000
01M0
0000
0001
0010
0100
0000
0010
0000
,
1001
0000
1000
0000
0001
0000
M001
0000
0100
0000
0010
1000
0001
0000
00M1
0000
,
1001
0000
1000
0000
0010
0000
M010
0000
0100
0000
0001
0010
0100
0000
0100
0000
,
0110
0000
0010
0000
0001
0000
00M1
0000
1000
0000
0100
1000
0010
0000
0010
0000
,
1010
1000
00M1
0011
0010
0001
0100
010M
,
0101
0001
1000
0100
0010
0001
00M1
1000
,
0010
1000
0001
0000
0010
0001
0100
0000
0010
1000
0100
0010
0100
1000
0001
0100
,
0010
0100
0001
0010
0001
0100
0101
MM00
,
1001
1000
0100
1100
0100
1000
1001
M0M0
,
0011
0001
0100
0101
0001
1000
1010
00MM
,
1001
0001
0100
1000
0100
0001
0010
1000
,
0020
0000
0100
0000
0031
0010
0001
1000
,
0020
0000
0000
0001
0000
0000
0130
0001
,
0020
0001
1000
0031
,
1000
0000
0001
0000
0100
0000
0001
1000
0000
0010
0000
1000
0001
1000
0100
0000
,
2002
0000
3003
0000
;

//---------------dance-single - BlueChaos----------------
#NOTES:
     dance-single:
     BlueChaos:
     Hard:
     8:
     0.566,0.602,0.285,0.294,0.092,368.000,31.000,32.000,40.000,0.000:
0000
0000
0000
0000
,
0000
0000
0000
0000
,
0000
0000
0000
0000
,
0000
0000
0000
0000
,
0000
0000
0000
0000
,
0001
1001
1000
1001
,
0001
0000
0101
0000
0100
0000
0110
0100
,
0010
1010
1000
1010
,
0000
1000
0001
0000
0001
1000
0010
0100
,
0020
1000
0100
1030
,
2000
0000
0100
0000
0010
0000
3001
1000
,
0002
0010
0100
1003
,
0020
0000
1000
0000
0100
0000
1030
0100
,
0020
0001
0100
0031
,
0002
0000
0100
0000
1000
0000
0013
0001
,
0200
0010
0001
0310
,
0010
1000
0100
M000
0100
1000
0001
0100
,
0020
0000
1030
0100
M000
0100
1000
0010
,
0200
0000
0301
0010
000M
0010
0001
0000
,
0101
0000
0100
0010
0M00
0010
0100
0000
,
1001
0000
1000
0100
0000
1000
0010
1000
,
1100
0000
0100
1000
0M00
1000
0001
0010
,
0100
0000
0010
0001
00M0
0100
0010
1000
,
1001
0000
1000
0010
0M00
0010
0100
0001
,
0020
0001
0031
0M0M
0002
0100
0103
0010
,
1000
0010
1000
0000
0010
0000
0100
0000
0002
0000
0000
0000
0013
0000
0000
0000
,
0001
0010
0001
0000
0010
0000
0100
0000
2000
0000
0000
0000
3001
0000
0000
0000
,
1000
0001
1000
0000
0001
0000
1000
0000
0200
0000
0000
0000
1300
0000
0000
0000
,
0100
1000
0100
0000
1000
0000
0010
0000
0200
0000
0000
0000
0310
0000
0000
0000
,
0100
0010
0100
0000
0010
0000
0100
0000
0002
0000
0000
0000
1003
0000
0000
0000
,
0001
0010
0001
0000
0010
0000
0001
0000
0200
0000
0000
0000
0310
0000
0000
0000
,
0100
0001
1000
0000
0001
0000
0100
0000
0002
0000
0000
0000
0013
0000
0000
0000
,
0011
0000
0000
0000
1001
0000
0000
0000
0100
0000
0001
0100
0001
0100
0001
0000
,
0100
0001
1000
1000
0001
0010
0001
0001
,
0010
0001
1000
0000
0001
0000
M001
0000
0100
0000
0010
0000
1000
0000
10M0
0000
,
0001
1000
0100
0000
1000
0000
0100
0000
0010
0000
0010
0000
0100
0000
1000
0000
,
0001
0100
0010
0000
0100
0000
0010
0000
0100
0000
010M
0000
0001
0000
0M01
0000
,
0010
0100
1000
0000
0100
0000
1000
0000
0010
0000
M010
0000
0100
0000
01M0
0000
,
0001
0100
0001
0000
0100
0000
0010
0000
1000
0000
1000
0000
0100
0000
0010
0000
,
0100
0010
0100
0010
0100
0000
0010
0000
0001
0000
0100
0000
0010
0000
1000
0000
,
0020
0000
1000
0000
1030
0000
0000
0010
0100
0000
0001
0000
0010
0000
0001
0000
,
0101
0000
0001
0010
000M
0010
0001
0100
,
1000
00M0
1000
0100
0000
M100
0010
1000
,
0002
0000
1003
0100
000M
M100
0010
0001
,
0200
0000
0310
0100
00M0
0100
0010
1000
,
0200
0000
1300
0100
0000
M100
0001
0100
,
0010
000M
0010
0001
0000
00M1
0100
1000
,
0100
0000
M100
0001
00M0
0001
0010
0100
,
2000
0000
0001
0000
3001
0000
0000
0001
0100
0000
0001
0000
0100
0000
0001
0000
,
1001
0000
0001
0010
0100
0000
0100
1000
,
0020
0000
0001
0001
0000
0100
0130
0001
,
1001
0000
0001
0100
0010
0000
0010
1000
,
1100
0000
0100
1000
0010
0000
0010
1000
,
0001
0010
0001
0000
0001
0010
0100
1000
,
0200
0000
0001
0001
0000
0010
0310
0100
,
1100
0000
1000
0010
0100
0010
0100
0000
,
0110
0000
0000
0000
1001
0000
0000
0000
1000
0100
1000
0100
1000
0000
0100
0000
,
0020
0001
0100
0031
,
1001
00M0
M000
0101
00M0
0M00
1001
000M
,
1010
0M00
M000
0110
000M
0M00
1001
00M0
,
0102
0000
1000
0000
0100
0000
0013
0001
,
2000
0010
0001
3100
,
1100
00M0
M000
0110
000M
0M00
0011
0001
,
2000
3100
1100
0200
,
1300
0100
0001
0000
0001
0100
1000
0010
,
2002
0000
3003
0000
;

//---------------dance-single - BlueChaos----------------
#NOTES:
     dance-single:
     BlueChaos:
     Medium:
     6:
     0.440,0.420,0.119,0.478,0.000,270.000,13.000,52.000,0.000,0.000:
0000
0000
0000
0000
,
0000
0000
0000
0000
,
0000
0000
0000
0000
,
0000
0000
0000
0000
,
0000
0000
0000
0000
,
0002
1003
2000
3001
,
0002
0013
0020
0031
,
0002
0103
0200
0310
,
0000
0010
1000
0000
0001
0001
0100
0010
,
0200
0001
0001
0301
,
0002
0000
1000
0000
1000
0000
1003
0100
,
2000
0001
0001
3001
,
0010
0000
1001
0000
0100
0000
0001
0100
,
0002
0010
0010
0013
,
0020
0000
0100
0000
0100
0000
0130
1000
,
0002
0100
0100
0103
,
0010
0010
0010
0000
1001
0000
1000
0001
,
2000
0000
3001
0100
0000
0100
0001
0000
,
0020
0000
0031
0010
0000
0010
0001
0000
,
0100
0000
0001
0100
0000
0100
0001
0000
,
0100
0000
0010
0000
1010
0000
1000
0100
,
0020
0130
1001
0010
,
2000
0000
3001
0000
0101
0000
0001
0010
,
0200
0310
1100
1000
,
0001
0001
0001
0000
0100
0000
0010
0000
,
2000
3001
0100
0000
0010
0000
0100
0000
,
0002
1003
0100
0000
0010
0000
0100
0000
,
2000
3010
0100
0000
0010
0000
0100
0000
,
0020
0130
0001
0000
1000
0000
0001
0000
,
0200
0310
1000
0000
0001
0000
0010
0000
,
0200
0310
0001
0000
0010
0000
0100
0000
,
0020
0031
1000
0000
0001
0000
1000
0000
,
0001
0000
1001
0000
1000
0001
1000
0001
,
1000
1000
1000
1000
,
2000
3001
0100
0000
0100
0000
0100
0000
,
0200
0301
0010
0000
0010
0000
0010
0000
,
0020
0031
0100
0000
0100
0000
0100
0000
,
0200
0301
1000
0000
1000
0000
1000
0000
,
2000
3100
0010
0000
0010
0000
0010
0000
,
0020
0031
0100
0000
0100
0000
0100
0000
,
0100
0001
0001
0000
0010
0000
0100
0010
,
0200
1000
1000
1300
,
2000
0000
0001
0000
0001
0000
3001
0100
,
0002
0100
0100
0103
,
0020
0000
1000
0000
1000
0000
1030
0100
,
0020
0001
0001
0031
,
2000
0000
0010
0000
0010
0000
3010
0100
,
0002
0010
0010
0013
,
0001
0001
0001
0000
0100
0000
0010
1000
,
0002
0000
1000
0000
,
0203
0000
0000
0320
0000
0000
1030
0100
,
0020
0000
0001
0000
,
0230
0000
0000
0000
0000
0000
1300
0001
,
0200
0010
0000
0301
,
0101
0000
0000
0001
0000
0000
0100
0010
,
0200
0010
0000
0301
,
0101
0000
0001
0000
1000
0001
1000
0001
,
2000
0100
0100
0000
,
3001
0000
0000
0110
0000
0000
0100
0000
,
0001
0000
0000
1001
0000
0000
0001
0000
,
0020
0000
0100
0000
0000
0000
0130
1000
,
0002
0103
0200
0310
,
1000
0000
0000
1010
0000
0000
0010
0100
,
0002
0013
0020
0130
,
1000
1000
1000
0000
0001
0100
0010
0000
,
2002
3003
0000
0000
;

//---------------dance-single - BlueChaos----------------
#NOTES:
     dance-single:
     BlueChaos:
     Easy:
     4:
     0.282,0.360,0.073,0.312,0.000,173.000,8.000,34.000,0.000,0.000:
0000
0000
0000
0000
,
0000
0000
0000
0000
,
0000
0000
0000
0000
,
1000
0000
0001
0000
,
1000
0000
0100
0000
,
0010
0000
0001
0000
,
0100
0000
0010
0000
,
1000
0000
0001
0001
,
0000
1000
1000
0100
,
0020
0000
0000
0000
,
0031
0002
0000
0000
,
0103
0200
0000
0000
,
0310
0110
0000
0000
,
1000
2000
0000
0000
,
3001
0002
0000
0000
,
0013
0020
0000
0000
,
0130
1000
0001
0000
,
1000
0001
1000
0000
,
0002
0000
2003
0000
,
3020
0000
0230
0000
,
0301
1000
0001
0000
,
0100
0200
0000
0000
,
0310
0020
0000
0000
,
1030
2000
0000
0000
,
3001
0001
0000
0010
,
0020
0030
0001
0001
,
2000
3000
0010
0010
,
0200
0300
0001
0001
,
0020
0030
0100
0100
,
2000
3000
0001
0001
,
0200
0300
0010
1000
,
0020
0030
0100
0001
,
0200
0310
0010
0010
,
0010
0100
0001
1000
,
0002
1003
1000
0010
,
0200
0301
0010
0010
,
0200
1300
0001
0001
,
0020
0031
0100
0010
,
2000
3010
0100
0010
,
0200
0301
1000
0001
,
1001
0000
0110
0000
,
1000
0100
1000
0000
,
0001
0100
0001
0000
,
1000
0010
1000
0000
,
0001
0010
0001
0000
,
1000
0001
1000
0000
,
0010
0100
0010
0000
,
0100
0001
1000
0000
,
0001
1000
0100
1000
,
0020
0000
0000
0000
,
0130
0000
1001
0000
,
0010
0010
0010
0000
,
0100
0100
0100
0000
,
0002
0000
1000
0000
,
1003
0000
1001
0001
,
2000
0000
3001
0000
,
1001
0100
1001
0010
,
2000
0001
3001
0000
,
0001
0000
0000
1000
0000
0000
0100
0000
,
0100
0000
0000
1000
0000
0000
0010
0000
,
0010
0000
0100
0001
,
0002
0000
1003
0000
,
1000
0000
0000
0100
0000
0000
0010
0000
,
0002
0000
1003
1001
,
0001
0001
0000
0100
,
0200
0300
0000
0000
;

//---------------dance-single - BlueChaos----------------
#NOTES:
     dance-single:
     BlueChaos:
     Beginner:
     2:
     0.167,0.240,0.009,0.129,0.000,112.000,1.000,14.000,0.000,0.000:
0000
0000
0000
0000
,
0000
0000
0000
0000
,
0000
0000
0000
0000
,
1000
0000
0000
0000
,
0001
0000
0000
0000
,
1000
0000
0000
0000
,
0001
0000
0000
0000
,
0010
0000
0000
0000
,
0100
0000
0000
0000
,
2000
3000
0000
0000
,
0002
0003
0000
0000
,
0100
0000
0100
0000
,
0010
0000
0000
0000
,
0020
0030
0000
0000
,
2000
0000
3000
0010
,
1000
0000
0000
0000
,
0001
0000
0001
0000
,
0010
0000
0000
0000
,
0100
0000
0100
0000
,
0100
0000
1000
0000
,
1000
0000
0000
0000
,
0001
0000
0000
0000
,
0001
0000
0000
1000
,
1000
0000
0100
0000
,
0010
0000
0010
0000
,
0001
0001
0000
0000
,
1000
1000
0000
0000
,
0010
0010
0000
0000
,
0100
0100
0000
0000
,
0001
0001
0000
0000
,
1000
1000
0000
0000
,
0001
1000
0000
0000
,
0001
1000
0001
0000
,
1000
0000
1000
0000
,
0001
0000
0001
0000
,
0100
0000
0100
0000
,
0010
0000
1000
0000
,
0001
0000
0010
0000
,
0100
0000
0010
0000
,
0001
0000
1000
0000
,
0002
0000
0000
0000
,
1003
0000
0001
0000
,
0010
0000
0000
0100
,
1000
0000
0001
0000
,
1000
0000
0000
0010
,
0100
0000
0001
0000
,
2000
3000
0000
0001
,
0001
0000
0010
0000
,
0001
0000
1000
0000
,
0002
0000
0003
0000
,
1000
0000
1000
0000
,
1000
0000
0000
0000
,
0002
0000
0003
1000
,
0010
0000
0100
0000
,
0001
0000
0001
0000
,
0001
0000
1000
0000
,
0100
0000
0100
0000
,
0200
1300
0000
1000
,
0002
0003
0100
0000
,
0100
0000
0002
0003
,
1000
1000
0000
0001
,
0020
0031
0000
1000
,
0001
0000
0100
0000
,
0100
0000
0001
0000
,
1000
0000
0001
0000
,
2002
3003
0000
0000
;

//---------------dance-double - BlueChaos----------------
#NOTES:
     dance-double:
     BlueChaos:
     Challenge:
     9:
     0.647,0.689,0.322,0.202,0.198,436.000,35.000,22.000,0.000,3.000:
00000000
00000000
00000000
00000000
,
00000000
00000000
00000000
00000000
,
00000000
00000000
00000000
00000000
,
00010000
00010100
00000100
00001100
,
00001000
00000000
00001001
00000000
00000010
00000000
00010000
00010000
,
00010000
00101000
00100000
00011000
,
00001000
00000000
01001000
00000000
00010000
00000000
00001000
00001000
,
00001000
00101000
00001000
00010010
,
00000000
00000000
00000010
00000000
00001000
00000000
00000000
00000010
00010000
00000000
00001000
00000000
00010000
00000000
00100000
00000000
,
02000000
00000000
00100000
00000000
10000000
00000000
00010000
03000000
,
00201000
00000000
00010000
00000000
01000000
00000000
00301000
00010000
,
00000020
00000100
00000001
00001030
,
00000200
00000000
00000001
00000000
00000010
00000000
00001300
00010000
,
00200000
01000000
00010000
01300000
,
00002000
00000000
00010000
00000000
00100000
00000000
00013000
00001000
,
00000020
00000100
00000031
00000101
,
00000100
00000000
00000010
00000000
00010000
00000000
00000100
00001000
00000000
00000100
00000000
00010000
00100000
00000000
01000000
00000000
,
00010000
00100000
10000000
00100000
00010000
01000000
00001000
00000000
,
00100000
00001000
00000010
00000100
00001000
00000001
00000100
00000000
,
00000010
00000100
00001000
01000000
00010000
00100000
00001000
00000000
,
00010000
00001000
00000100
00001000
00010000
00100000
10000000
01000000
,
00200000
00302000
02003000
03020000
,
20030000
00000000
32000000
00000000
03002000
00000000
00003100
00010000
,
00001000
00010000
00010100
00000100
,
00001000
00000000
00000100
00000000
00010000
00000000
00000100
00010000
00000000
00001000
00000000
01000000
00100000
00000000
01000000
00000000
,
00100000
10000000
00100000
00000000
10000000
00000000
01000000
00000000
01100000
00000000
00000000
00000000
00101000
00000000
00000000
00000000
,
00100000
00010000
00100000
00000000
00010000
00000000
01000000
00000000
01001000
00000000
00000000
00000000
00011000
00000000
00000000
00000000
,
00010000
00000100
00010000
00000000
00001000
00000000
00000010
00000000
00000110
00000000
00000000
00000000
00000011
00000000
00000000
00000000
,
00000001
00000100
00000010
00000000
00000100
00000010
00010000
00000000
00001000
00000000
00010000
00000000
00000100
00000000
00010000
00000000
,
00001000
00100000
00010000
00000000
00100000
00001000
01000000
00000000
00010000
00000000
01000000
00000000
00100000
00000000
01000000
00000000
,
00010000
01000000
00100000
00000000
10000000
01000000
00100000
00000000
01000000
00000000
00100000
00000000
00001000
00000000
00010000
00000000
,
00001000
00010000
00000100
00000000
00010000
00001000
00100000
00000000
00001000
00000000
00010000
00000000
00000100
00000000
00000010
00000000
,
00000001
00000010
00000100
00000000
00000010
00000100
00001000
00000000
00000100
00010000
00001000
00010000
00001000
00100000
00010000
00100000
,
01000000
10000000
01000000
00100000
00010000
00001000
00010000
00100000
,
00001000
00010000
00001000
00000100
00000010
00001000
00000001
00000010
,
00000100
00001000
00100000
00010000
00001000
01000000
00010000
00100000
,
01000000
10000000
01000000
10000000
01000000
00000000
10000000
00000000
00010000
00000000
01000000
00000000
00001000
00000000
00010000
00000000
,
00001000
00100000
00001000
00100000
00001000
00000000
00010000
00000000
00001000
00000000
00010000
00000000
00000100
00000000
00001000
00000000
,
00000100
00010000
00000100
00010000
00000100
00000000
00010000
00000000
00000010
00000000
00001000
00000000
00000001
00000000
00000100
00000000
,
00001000
00000100
00000010
00000100
00001000
00010000
00001000
01000000
,
00100000
00000000
10000000
00000000
10000000
00000000
00000000
00100000
01000000
00000000
00010000
00000000
00100000
00000000
01000000
00000000
,
00100000
00001000
00010000
00000100
00010000
00000010
00001000
00000000
,
00010010
00010000
00000100
00001000
00100000
00010000
00001000
00100000
,
00110000
00010000
00100000
00001000
00010000
00100000
10000000
00100000
,
01000000
00010000
10000000
01000000
00100000
00010000
10000000
10000000
,
10000000
00100000
01000000
00010000
00100000
00001000
00010000
00000100
,
00010100
00010000
00001000
00000100
00000001
00000010
00000100
00000100
,
00000100
00000010
00000001
00000100
00000010
00000100
00001000
01000000
,
00001000
00000100
00000010
00001000
00000010
00010000
00001000
00100000
,
01000000
00000000
10000000
01000000
00100000
00000000
01000000
00000000
10000000
00000000
00010000
00000000
01000000
00000000
00100000
00000000
,
01000000
00000000
00001000
00010000
00100000
00000000
00010000
00000000
00000100
00000000
00001000
00000100
00010000
00000000
00010000
00000000
,
00010000
00001000
00000100
00000001
00000100
00000010
00001000
00000100
,
00010000
00000000
00001000
00000100
00000010
00000000
00000100
00000000
00000001
00000000
00000100
00000000
00000010
00000000
00001000
00000000
,
00000100
00000001
00000100
00000010
00000001
00000100
00001000
00100000
,
00110000
00000000
00000000
00010000
01000000
00000000
00010000
00000000
00100000
00000000
01000000
00000000
10000000
00000000
00100000
00000000
,
01010000
00000000
00000000
00100000
00001000
00000000
00010000
00000000
00001000
00000000
00000100
00000000
00000010
00000000
00001000
00000000
,
00000100
00010000
00001000
00000000
00010000
00001000
00100000
00000000
00010000
00100000
01000000
00100000
00001000
00010000
00001000
00000100
,
00000010
00000000
00020000
00000000
00000200
00000000
00001000
00030300
,
00011000
00000000
00000000
10001000
00000000
00000000
00011000
00000000
,
00010001
00000000
00000000
00011000
00000000
00000000
00100100
00000000
,
01000010
00000000
02000000
00000000
00002000
00000000
00100000
03003000
,
00011000
00000000
00020000
00000000
00002000
00000000
00000010
00033000
,
00010100
00000000
00000000
00100010
00000000
00000000
00000100
01000000
,
00000100
00010000
00010100
00000100
,
00001001
00000000
00000001
00000100
00001000
00010000
00100000
10000000
,
20200000
30300000
00000000
00000000
;
