#TITLE:Cat Girl Nuku Nuku Dash;
#SUBTITLE:- A House Cat;
#ARTIST:林原めぐみ;
#TITLETRANSLIT:;
#SUBTITLETRANSLIT:;
#ARTISTTRANSLIT:Megumi Hayashibara;
#CREDIT:Anime Toshokan;
#BANNER:Cat Girl Nuku Nuku Dash - A House Cat.png;
#BACKGROUND:Cat Girl Nuku Nuku Dash - A House Cat bg.png;
#LYRICSPATH:;
#CDTITLE:dejiko.png;
#MUSIC:Cat Girl Nuku Nuku Dash - A House Cat.mp3;
#OFFSET:-8.195;
#SAMPLESTART:67.720;
#SAMPLELENGTH:15.800;
#SELECTABLE:YES;
#BPMS:0.000=136.880;
#STOPS:;
#BGCHANGES:;
// cache tags:
#FIRSTBEAT:0.000;
#LASTBEAT:374.500;
#SONGFILENAME:Songs/DDR Anime 4th Mix/Cat Girl Nuku Nuku Dash - A House Cat/Cat Girl Nuku Nuku Dash - A House Cat.sm;
#HASMUSIC:1;
#HASBANNER:1;
#MUSICLENGTH:175.943;
// end cache tags

//---------------dance-single - BASIC----------------
#NOTES:
     dance-single:
     BASIC:
     Easy:
     5:
     0.296,0.346,0.222,0.074,0.006,312.000,39.000,13.000,0.000,0.000:
0010
0000
1000
0001
0010
0000
0100
0000
,
0010
0000
0001
1000
0010
0000
0100
0000
,
0010
0000
1000
0001
0010
0000
0100
0000
,
0010
0000
0001
1000
0010
0000
0100
0000
,
1000
1000
1000
0001
,
0001
0001
0001
1000
,
0010
0010
0010
0100
,
2000
0000
0000
0000
0000
0000
0000
0000
0000
0000
0000
0000
0000
0000
0000
3000
,
0002
0000
0000
0000
0000
0000
0000
0000
0000
0000
0000
0000
0000
0000
0000
0000
0000
0000
0000
0000
0000
0000
0000
0000
0000
0000
0000
0003
0000
0000
0000
0000
,
0020
0000
0000
0000
0000
0000
0000
0030
,
0200
0000
0000
0000
0000
0000
0000
0300
,
2000
0000
0000
0000
0000
0000
0000
0000
0000
0000
0000
0000
0000
0000
0000
0000
0000
0000
0000
0000
0000
0000
0000
0000
0000
0000
0000
0000
0000
3000
0000
0000
,
1000
0001
0010
0100
,
0010
0100
1000
0001
,
0010
0100
0001
1000
,
1000
0000
0000
0000
0000
0000
0000
0001
0000
0000
0000
0000
0000
0000
0000
0000
,
0010
0001
1000
1001
,
0000
0010
1000
0001
,
0000
0010
0001
1000
,
0000
0100
1000
0001
,
0010
0100
1001
1001
,
0000
0001
0010
0100
,
0000
1000
0100
0010
,
0000
0100
0001
1000
,
0001
1000
0110
0110
,
0000
0010
1000
0001
,
0000
0010
0001
1000
,
0000
1000
0010
0100
,
0010
1000
0101
0000
,
0000
0010
1000
0001
,
0000
0100
0001
1000
,
0010
1000
0001
0100
,
0020
0000
0000
0000
0000
0000
0000
0000
0000
0000
0000
0000
0000
0000
0000
0030
,
1000
0000
0001
0010
,
0001
1000
0110
1001
,
1000
0001
0110
1001
,
1000
0001
1001
0110
,
0001
1000
1001
0110
,
0001
1000
0110
1001
,
0001
1000
1001
0110
,
1000
0100
0010
0001
,
0001
0001
0100
1000
,
1000
1000
0010
0001
,
2002
0000
0000
0000
,
0000
0000
0000
0000
0000
0000
0000
3003
,
0010
0010
0010
0010
,
0100
0100
0100
0100
,
0001
0001
0001
0001
,
1000
1000
1000
1000
,
0010
0010
0010
0010
,
0100
0100
0100
0100
,
1000
1000
1000
1000
,
0010
0000
0000
0000
0000
0000
0000
1000
0000
0000
0000
0000
0000
0000
0000
0000
,
0000
0010
1000
0001
,
0000
0010
1000
0001
,
0000
0100
0001
1000
,
0001
1000
0110
1001
,
0000
0100
1000
0001
,
0000
0001
0010
0100
,
0000
0100
0001
1000
,
1000
0001
0110
1001
,
0000
0010
0001
1000
,
0000
0010
1000
0001
,
0000
1000
0100
0010
,
0010
0100
1001
0000
,
0000
0100
0001
1000
,
0000
0001
0100
0010
,
1000
0001
0010
0100
,
0220
0000
0000
0000
0000
0000
0000
0330
,
0010
0000
0100
0000
,
1000
0001
0110
1001
,
0010
0100
1001
0110
,
1000
0001
0110
1001
,
0001
1000
0110
1001
,
0010
0100
1001
0110
,
0001
1000
0110
1001
,
1000
0001
0010
1000
,
0001
0001
0001
1000
,
0010
0010
0100
0001
,
2020
0000
0000
0000
,
0000
0000
0000
0000
0000
0000
0000
3030
,
0010
1000
0001
0100
,
0001
1000
0010
0100
,
0001
0001
0001
0001
,
1000
1000
1000
1000
,
0100
0100
0100
0100
,
0010
0010
0010
0010
,
1000
1000
1000
1000
,
0001
0001
0001
0001
,
0010
0010
0010
0010
,
0100
0100
0100
0100
,
1000
0001
0010
0100
,
1000
1000
0001
0001
,
0020
0000
0000
0000
0000
0000
0000
0000
0000
0000
0000
0000
0000
0000
0000
0000
0000
0030
0000
0000
1001
0000
0000
0000
0000
0000
0000
0000
0000
0000
0000
0000
;

//---------------dance-single - ANOTHER----------------
#NOTES:
     dance-single:
     ANOTHER:
     Medium:
     7:
     0.419,0.452,0.148,0.057,0.051,480.000,26.000,10.000,0.000,0.000:
0010
0100
1000
0010
0001
0100
0010
0001
,
1000
0100
0001
0010
0100
1000
0100
0010
,
0001
0010
1000
0100
0010
0001
0010
0100
,
1000
0100
0001
0010
0100
1000
0100
0010
,
0001
0000
0010
0001
0010
0001
1000
0000
,
1000
0000
0010
1000
0010
1000
0001
0000
,
0001
0000
0010
0001
0010
0001
1000
0000
,
2000
0000
0000
0000
0000
0000
0000
0000
0010
0000
0000
0000
0000
0000
0000
0000
0010
0000
0000
0000
0000
0000
0000
0000
0010
0000
0000
3000
0000
0000
0000
0000
,
0010
0000
0000
0000
0100
0000
0000
0010
0000
0000
0010
0000
0000
0000
0100
0000
,
0001
0000
0000
0000
1000
0000
0000
0001
0000
0000
0001
0000
0000
0000
1000
0000
,
0100
0000
0000
0000
0010
0000
0000
0100
0000
0000
0100
0000
0000
0000
0010
0000
,
1000
0000
0000
0000
0001
0000
0000
1000
0000
0000
1000
0000
0000
0000
0001
0000
,
0010
1000
0001
0100
,
1000
0010
0100
0001
,
1000
0000
0001
0000
0001
0100
0010
0000
,
1010
0000
0000
0000
0000
0000
0000
0101
0000
0000
0000
0000
0010
0000
0000
0000
,
1000
0100
0000
0000
0010
0001
0000
0000
1000
0100
0000
0000
1001
0000
0000
0000
,
0000
0100
0010
0100
0001
0000
1000
0000
,
0000
0100
0010
0100
1000
0000
0001
0000
,
0000
1000
0001
1000
0100
0000
0010
0000
,
0010
0000
0000
0000
0100
0000
0000
0000
1001
0000
0000
0110
0000
0000
1001
0000
,
0000
0100
0010
0100
0001
0000
1000
0000
,
0000
1000
0001
1000
0100
0000
0010
0000
,
0000
0010
0100
0010
1000
0000
0001
0000
,
1000
0000
0000
0000
0010
0000
0000
0000
1010
0000
0000
0110
0000
0000
1010
0000
,
0000
0010
0100
1000
0001
0000
1000
0000
,
0000
0100
0010
0001
1000
0000
0001
0000
,
0000
0100
0010
0100
0001
0000
1000
0000
,
0010
0000
0000
0000
0000
0000
0000
0000
1000
0000
0000
0000
1000
0000
0000
0000
0002
0000
0000
0000
0000
0000
0000
0000
0000
0000
0000
0003
0000
0000
0000
0000
,
0000
0001
1000
0001
0100
0000
0010
0000
,
0000
1000
0001
1000
0010
0000
0100
0000
,
0010
0000
1000
0000
0001
0100
1000
0100
,
2002
0000
0000
0000
0000
0000
0000
0000
0000
0000
0000
0000
0000
0000
0000
0000
0000
0000
0000
0000
0000
0000
0000
0000
0000
0000
0000
3003
0000
0000
0000
0000
,
1000
0100
0001
0010
1001
0000
0010
0100
,
1000
0100
0001
0100
1000
0000
0010
0000
,
0001
0100
1000
0100
0001
0000
0010
0000
,
1000
0100
0001
0100
1000
0000
0010
0000
,
0001
0100
1000
0100
0001
0000
0010
0000
,
1000
0100
0001
0100
1000
0000
0010
0000
,
0001
0100
1000
0100
0001
0000
0010
0000
,
0010
0100
1000
0100
0010
0001
0010
0100
,
0010
0000
0000
0000
0100
0000
0000
0000
0001
0000
0000
1000
0000
0000
0001
0000
,
0010
0000
0000
0000
0100
0000
0000
0000
0001
0000
0000
1000
0000
0000
0001
0000
,
0220
0000
0000
0000
0000
0000
0000
0330
,
1000
0010
0100
1000
,
0010
0010
0010
0010
,
0100
0000
0100
0000
0100
0000
0100
0001
,
1000
0000
1000
0000
1000
0000
1000
0100
,
0010
0000
0010
0000
0010
0000
0010
1000
,
0001
0000
0001
0000
0001
0000
0001
0010
,
1000
0000
1000
0000
1000
0000
1000
0001
,
0100
0000
0100
0000
0100
0000
0100
0010
,
0011
0000
0000
0000
0000
0000
0000
1010
0000
0000
0000
0000
0000
0000
0000
0000
,
0000
0010
1000
0010
0100
0000
0001
0000
,
0000
0100
1000
0100
0010
0000
0001
0000
,
0000
0001
0010
0001
1000
0000
0100
0000
,
0010
0000
0000
0000
0100
0000
0000
0000
1001
0000
0000
1001
0000
0000
1001
0000
,
0000
0010
1000
0010
0100
0000
0001
0000
,
0000
0100
1000
0100
0010
0000
0001
0000
,
0000
0010
0001
0010
0100
0000
1000
0000
,
0010
0000
0000
0000
1000
0000
0000
0000
0011
0000
0000
0011
0000
0000
0011
0000
,
0000
0010
1000
0010
0100
0000
0001
0000
,
0000
0010
0001
0010
0100
0000
1000
0000
,
0000
0010
1000
0010
0100
0000
0001
0000
,
0001
1000
0001
0000
1000
0000
0000
0000
,
0000
0010
1000
0010
0100
0000
0001
0000
,
0000
0010
0001
0010
0100
0000
1000
0000
,
0010
0000
0100
0000
1000
0100
0001
0100
,
2002
0000
0000
0000
0000
0000
0000
0000
0000
0000
0000
0000
0000
0000
0000
3003
,
1000
0100
0010
0001
1010
0000
0010
0100
,
0010
0100
0010
1000
0001
0000
0100
0000
,
0100
0010
0100
1000
0001
0000
0010
0000
,
0001
1000
0001
0010
0100
0000
1000
0000
,
0001
1000
0001
0100
0010
0000
1000
0000
,
0010
0100
0010
1000
0001
0000
0100
0000
,
0010
0100
0010
0001
1000
0000
0100
0000
,
0001
1000
0001
0010
0100
0010
1000
0001
,
0010
0000
0000
0000
1000
0000
0000
0000
0010
0000
0000
1000
0000
0000
0001
0000
,
0100
0000
0000
0000
0001
0000
0000
0000
1000
0000
0000
0001
0000
0000
1000
0000
,
0220
0000
0000
0000
0000
0000
0000
0000
0000
0000
0000
0000
0000
0000
0000
0000
0000
0000
0000
0000
0000
0000
0000
0330
0000
0000
0000
0000
0000
0000
0000
0000
,
1000
0000
0001
0000
0010
0100
0010
0000
,
1000
0010
0100
0001
,
0001
1000
0100
0001
,
0010
0010
0010
0010
,
0001
0000
0001
0000
0001
0000
0001
1000
,
0010
0000
0010
0000
0010
0000
0010
1000
,
0100
0000
0100
0000
0100
0000
0100
0001
,
0010
0010
0010
0010
,
0001
0000
0001
0000
0001
0000
0001
1000
,
1000
0000
1000
0000
1000
0000
1000
0001
,
1010
0000
0000
0000
0000
0000
0000
0101
0000
0000
0000
0000
0000
0000
0000
0000
,
0001
0010
0100
1000
0100
0010
0001
0000
,
0001
0010
0100
1000
0100
0010
0001
0000
,
0010
0100
0010
0100
0000
1001
0000
0000
;

//---------------dance-single - MANIAC----------------
#NOTES:
     dance-single:
     MANIAC:
     Hard:
     9:
     0.649,0.665,0.693,0.330,0.335,619.000,122.000,58.000,0.000,0.000:
0100
0000
0010
0000
1000
0000
0001
1000
0000
0100
0001
0000
1000
0000
0010
1000
,
0100
0000
0010
0000
0001
0000
1000
0001
0000
0100
1000
0000
0001
0000
0010
0100
,
0010
0000
0100
0000
0001
0000
1000
0001
0000
0010
1000
0000
0001
0000
0100
0010
,
1000
0000
0001
0000
0100
0000
0010
0100
0000
1000
0010
0000
0100
0000
0001
1000
,
0010
0000
0000
0000
0001
0100
0001
0100
1000
0000
0001
0000
0110
0000
0000
0000
,
1000
0000
0000
0000
0100
0001
0100
0001
0010
0000
1000
0000
1001
0000
0000
0000
,
0001
0000
0000
0000
0000
0000
0000
0000
0100
0000
0010
0000
1000
0000
0100
0000
0000
0000
0000
0000
0020
0000
0000
0000
0000
0000
0000
0030
0000
0000
0000
0000
,
0000
0000
2020
0000
0000
0000
0000
0000
0000
0000
0000
0000
0000
0000
0000
3030
,
0120
0000
0000
0000
0000
0000
0000
0000
0100
0000
0000
0000
0000
0000
0100
0000
0000
0000
0000
0000
0100
0000
0000
0000
0100
0000
0000
0000
0100
0000
0000
0030
,
1002
0000
0000
0000
0000
0000
0000
0000
1000
0000
0000
0000
0000
0000
1000
0000
0000
0000
0000
0000
1000
0000
0000
0000
1000
0000
0000
0000
1000
0000
0000
0003
,
2010
0000
0000
0000
0010
0000
0000
0010
0000
0000
0010
0000
0010
0000
3010
0000
,
0102
0000
0000
0000
0000
0000
0000
0000
0100
0000
0000
0000
0000
0000
0100
0000
0000
0000
0000
0000
0100
0000
0000
0000
0100
0000
0000
0000
0100
0000
0000
0003
,
2100
0000
0000
0000
0010
0000
0000
0001
0000
0000
0001
0000
0010
0000
3100
0000
,
0012
0000
0000
0000
1000
0000
0000
0100
0000
0000
0100
0000
1000
0000
0103
0000
,
2010
0000
0000
0000
0000
0000
0000
0000
0001
0000
0000
0000
0000
0000
0010
3000
0000
0000
0000
0000
0100
0000
0010
0000
1000
0000
0000
0000
0001
0000
0000
0000
,
1010
0000
0000
0000
0000
0000
0000
0011
0000
0000
1000
0000
0001
0000
0100
0000
,
1000
0100
0000
0001
0010
0000
1000
0100
0000
0001
0010
0000
0101
0000
0000
0000
,
0000
0000
0010
0000
0100
0000
0000
1000
0010
0000
1000
0000
0001
0000
0100
0000
,
0000
0000
0010
0000
0001
0000
0000
0010
0100
0000
0001
0000
1000
0000
0100
0000
,
0000
0000
1000
0000
0010
0000
0000
1000
0010
0000
0100
0000
0001
0000
1000
0000
,
0110
0000
0000
0000
1001
0000
0000
0000
0011
0000
0000
0110
0000
0000
1100
0000
,
0000
0000
0100
0000
1000
0000
0000
0010
0100
0000
0001
0000
1000
0000
0100
0000
,
0000
0000
0010
0000
0100
0000
0000
0001
0010
0000
0001
0000
1000
0000
0100
0000
,
0000
0000
0100
0000
1000
0000
0000
0001
0010
0000
1000
0000
0100
0000
1000
0000
,
1001
0000
0000
0000
0110
0000
0000
0000
1100
0000
0000
0110
0000
0000
0011
0000
,
0000
0000
0010
0000
0100
0000
0000
0010
1000
0000
0100
0000
1000
0000
0001
0000
,
0000
0000
0001
0000
0100
0000
0000
0010
1000
0000
0001
0000
0100
0000
0010
0000
,
0000
0000
1000
0000
0100
0000
0000
0010
0001
0000
1000
0000
0010
0000
0100
0000
,
0001
0000
0000
0000
0010
0000
0000
0000
0100
0000
1000
0000
0000
0000
0000
0000
2002
0000
0000
0000
0000
0000
0000
0000
0000
0000
0000
3003
0000
0000
0000
0000
,
0000
0000
0001
0000
0100
0000
0000
0010
0001
0000
0010
0000
0100
0000
1000
0000
,
0000
0000
1000
0000
0100
0000
0000
0010
1000
0000
0100
0000
0010
0000
0001
0000
,
1010
0000
0000
0000
0101
0000
0000
0000
0010
0000
1000
0000
0001
0000
0000
1000
,
0102
0010
1000
0103
,
1000
0100
0010
0001
1000
0100
0010
0001
1100
0000
0010
0000
1000
0000
0010
0000
,
2000
0000
0010
3000
0002
0000
0100
0003
0011
0000
0000
0110
0000
0000
1010
0000
,
0002
0000
0010
0003
2000
0000
0100
3000
1100
0000
0000
0110
0000
0000
0011
0000
,
0020
0000
0100
0030
0200
0000
0010
0300
0110
0000
0000
1001
0000
0000
0110
0000
,
2000
0000
0100
3000
0020
0000
0100
0030
0011
0000
0000
0110
0000
0000
1100
0000
,
2000
0000
0010
3000
0002
0000
0100
0003
0011
0000
0000
0110
0000
0000
1010
0000
,
0002
0000
0010
0003
2000
0000
0100
3000
1100
0000
0000
0110
0000
0000
0011
0000
,
0010
1000
0010
0001
0010
1000
0010
0001
,
0110
0000
0000
0000
1001
0000
0000
0000
1100
0000
0000
0110
0000
0000
0011
0000
,
1001
0000
0000
0000
0110
0000
0000
0000
0011
0000
0000
0110
0000
0000
1100
0000
,
0000
0000
0010
0100
0001
1000
0010
0100
0010
0000
1000
0001
0000
0000
0000
0000
,
0000
0000
0010
0100
0001
1000
0010
0100
0001
0000
1000
0100
0010
0001
0100
0000
,
2010
0000
0000
0000
0000
0000
0000
0000
0010
0000
0000
0000
0000
0000
0000
0000
0010
0000
0000
0000
0000
0000
0000
0000
0010
0000
0000
3000
0000
0000
0000
0000
,
0102
0000
0000
0000
0000
0000
0000
0000
0100
0000
0000
0000
0000
0000
0000
0000
0100
0000
0000
0000
0000
0000
0000
0003
0100
0000
0000
0000
0010
0000
0000
0000
,
2001
0000
0001
0000
0001
0000
3001
0010
,
0201
0000
0000
0000
0000
0000
0000
0000
0001
0000
0000
0000
0000
0000
0000
0000
0001
0000
0000
0000
0000
0000
0000
0300
0001
0000
0000
0000
1010
0000
0000
0000
,
0102
0000
0000
0000
0000
0000
0000
0000
0100
0000
0000
0000
0000
0000
0000
0000
0100
0000
0000
0000
0000
0000
0000
0000
0100
0000
0000
0003
0000
0000
0000
0000
,
2001
0000
0000
0000
0000
0000
0000
0000
0001
0000
0000
0000
0000
0000
0000
0000
0001
0000
0000
0000
0000
0000
0000
3000
0001
0000
0000
0000
0010
0000
0000
0000
,
1200
0000
0000
0000
0000
0000
0000
0000
1000
0000
0000
0000
0000
0000
0000
0000
1000
0000
0000
0000
0000
0000
0000
0300
1000
0000
0000
0000
0001
0000
0000
0000
,
0120
0000
0000
0030
0000
0000
0000
0101
0000
0000
1000
0000
0001
0000
0000
0000
,
0000
0000
0010
0000
1000
0000
0000
0001
0010
0000
0100
0000
0001
0000
0100
0000
,
0000
0000
1000
0000
0010
0000
0000
1000
0001
0000
0010
0000
0100
0000
1000
0000
,
0000
0000
0010
0000
0100
0000
0000
1000
0001
0000
1000
0000
0100
0000
0010
0000
,
1001
0000
0000
0000
0110
0000
0000
0000
1100
0000
0000
0110
0000
0000
0011
0000
,
0000
0000
0010
0000
0100
0000
0000
0001
1000
0000
0100
0000
0010
0000
1000
0000
,
0000
0000
0001
0000
0010
0000
0000
0001
0100
0000
0010
0000
0001
0000
1000
0000
,
0000
0000
1000
0000
0100
0000
0000
1000
0001
0000
1000
0000
0010
0000
0100
0000
,
0110
0000
0000
0000
1001
0000
0000
0000
0011
0000
0000
0110
0000
0000
1100
0000
,
0000
0000
0010
0000
0100
0000
0000
0010
1000
0000
0001
0000
0001
0000
0100
0000
,
0000
0000
0100
0000
0010
0000
0000
0100
0001
0000
1000
0000
1000
0000
0001
0000
,
0000
0000
1000
0000
0100
0000
0000
1000
0001
0000
1000
0000
0100
0000
0010
0000
,
1000
0000
0000
0000
0100
0000
0000
0000
0010
0000
0001
0000
0000
0000
0000
0000
0220
0000
0000
0000
0000
0000
0000
0000
0000
0000
0000
0330
0000
0000
0000
0000
,
0000
0000
0001
0000
1000
0000
0000
0100
0010
0000
1000
0000
0001
0000
0100
0000
,
0000
0000
1000
0000
0010
0000
0000
0100
0001
0000
1000
0000
0010
0000
0100
0000
,
1100
0000
0000
0000
0101
0000
0000
0000
0010
0000
0100
0000
0001
0000
0000
1000
,
2002
0000
0000
3003
,
0001
0010
0100
1000
0001
0010
0100
1000
0101
0000
1000
0000
0010
0000
0100
0000
,
0002
0000
0010
0003
2000
0000
0100
3000
1010
0000
0000
0110
0000
0000
0011
0000
,
2000
0000
0010
3000
0002
0000
0100
0003
0101
0000
0000
0110
0000
0000
1010
0000
,
0200
0000
0010
0300
0020
0000
0100
0030
1001
0000
0000
0110
0000
0000
1001
0000
,
0002
0000
0100
0003
0020
0000
0100
0030
1010
0000
0000
0110
0000
0000
0101
0000
,
2000
0000
0010
3000
0002
0000
0100
0003
0011
0000
0000
0110
0000
0000
1010
0000
,
0002
0000
0010
0003
2000
0000
0100
3000
1100
0000
0000
0110
0000
0000
0011
0000
,
1000
0100
0001
0100
1000
0100
0001
0100
,
0110
0000
0000
0000
1001
0000
0000
0000
0101
0000
0000
0110
0000
0000
1010
0000
,
0110
0000
0000
0000
1001
0000
0000
0000
1100
0000
0000
0110
0000
0000
0011
0000
,
2000
0000
0000
0000
0000
0000
0000
3000
0001
0000
0000
1000
0101
0000
0000
0000
,
0002
0000
0000
0000
0000
0000
0000
0003
1000
0000
0010
0000
0101
0000
0000
0000
,
0000
0000
0010
0100
0001
1000
0010
0100
0001
0000
1000
0010
0000
0000
0000
0000
,
0000
0000
0010
0100
0001
0100
1000
0010
1000
0000
0001
0010
1000
0100
0010
0000
,
2001
0000
0001
0000
0001
0000
3001
0010
,
1002
0000
0000
0000
0000
0000
0000
0000
1000
0000
0000
0000
0000
0000
0000
0000
1000
0000
0000
0000
0000
0000
0000
0003
1000
0000
0000
0000
0010
0000
0000
0000
,
0120
0000
0000
0000
0000
0000
0000
0000
0100
0000
0000
0000
0000
0000
0000
0000
0100
0000
0000
0000
0000
0000
0000
0030
0100
0000
0000
0000
0000
0000
0000
0000
,
2001
0000
0000
0000
0000
0000
0000
0000
0001
0000
0000
0000
0000
0000
0000
0000
0001
0000
0000
0000
0000
0000
0000
3000
0001
0000
0000
0000
1001
0000
0000
0000
,
0210
0000
0000
0000
0000
0000
0000
0000
0001
0000
0000
0000
0000
0000
0000
0000
0010
0000
0000
0000
0000
0000
0000
0000
0001
0000
0000
0300
0010
0000
0000
0000
,
0120
0000
0000
0000
0000
0000
0000
0000
1000
0000
0000
0000
0000
0000
0000
0000
0100
0000
0000
0000
0000
0000
0000
0000
1000
0000
0000
0030
0100
0000
0000
0000
,
2001
0000
0000
0000
0000
0000
0000
0000
0001
0000
0000
0000
0000
0000
0000
0000
0001
0000
0000
0000
0000
0000
0000
0000
0001
0000
0000
3000
0010
0000
0000
0000
,
0101
0000
0000
0000
0000
0000
0000
1010
0000
0000
0100
0000
0001
0000
0010
0000
,
0000
0000
1000
0100
0010
1000
0100
0010
1000
0000
0001
0100
0000
0000
0000
0000
,
0000
0000
0001
1000
0010
0100
0001
1000
0010
0000
0100
0010
0100
0010
1000
0000
,
0001
0010
0001
1000
0001
0100
0000
0000
0000
0000
1001
0000
0000
0000
0000
0000
;

//---------------dance-single - BEGINNER----------------
#NOTES:
     dance-single:
     BEGINNER:
     Beginner:
     2:
     0.166,0.186,0.119,0.074,0.000,171.000,21.000,13.000,0.000,0.000:
0010
0000
0010
0000
,
0010
0000
0010
0000
,
0010
0000
0010
0000
,
0010
0000
0010
0000
,
1000
0000
1000
0000
,
0001
0000
0001
0000
,
0010
0000
0010
0000
,
2000
0000
3000
0000
,
0002
0000
0003
0000
,
0020
0000
0030
0000
,
0200
0000
0300
0000
,
2000
0000
3000
0000
,
1000
0000
0010
0000
,
0010
0000
1000
0000
,
0010
0000
0001
0000
,
1000
0000
0000
0000
,
0010
0000
1000
0000
,
0000
0010
1000
0000
,
0000
0010
0001
0000
,
0000
0100
1000
0000
,
0010
0000
1001
0000
,
0000
0001
0010
0000
,
0000
1000
0100
0000
,
0000
0100
0001
0000
,
0001
0000
0110
0000
,
0000
0010
1000
0000
,
0000
0010
0001
0000
,
0000
1000
0010
0000
,
0010
0000
0101
0000
,
0000
0010
1000
0000
,
0000
0100
0001
0000
,
0010
0000
0001
0000
,
0020
0000
0030
0000
,
1000
0000
0001
0000
,
0001
0000
0110
0000
,
1000
0000
0110
0000
,
1000
0000
1001
0000
,
0001
0000
1001
0000
,
0001
0000
0110
0000
,
0001
0000
1001
0000
,
1000
0000
0010
0000
,
0001
0000
0100
0000
,
1000
0000
0010
0000
,
2002
0000
0000
0000
,
0000
0000
3003
0000
,
0010
0000
0010
0000
,
0100
0000
0100
0000
,
0001
0000
0001
0000
,
1000
0000
1000
0000
,
0010
0000
0010
0000
,
0100
0000
0100
0000
,
1000
0000
1000
0000
,
0010
0000
0000
0000
,
0000
0010
1000
0000
,
0000
0010
1000
0000
,
0000
0100
0001
0000
,
0001
0000
0110
0000
,
0000
0100
1000
0000
,
0000
0001
0010
0000
,
0000
0100
0001
0000
,
1000
0000
0110
0000
,
0000
0010
0001
0000
,
0000
0010
1000
0000
,
0000
1000
0100
0000
,
0010
0000
1001
0000
,
0000
0100
0001
0000
,
0000
0001
0100
0000
,
1000
0000
0010
0000
,
0220
0000
0330
0000
,
0010
0000
0100
0000
,
1000
0000
0110
0000
,
0010
0000
1001
0000
,
1000
0000
0110
0000
,
0001
0000
0110
0000
,
0010
0000
1001
0000
,
0001
0000
0110
0000
,
1000
0000
0010
0000
,
0001
0000
0001
0000
,
0010
0000
0100
0000
,
2020
0000
0000
0000
,
0000
0000
0000
0000
0000
0000
0000
3030
,
0000
0000
0001
0000
,
0001
0000
0010
0000
,
0001
0000
0001
0000
,
1000
0000
1000
0000
,
0100
0000
0100
0000
,
0010
0000
0010
0000
,
1000
0000
1000
0000
,
0001
0000
0001
0000
,
0010
0000
0010
0000
,
0100
0000
0100
0000
,
1000
0000
0010
0000
,
1000
0000
0001
0000
,
0020
0000
0000
0000
0000
0000
0000
0000
0000
0000
0000
0000
0000
0000
0000
0000
0000
0030
0000
0000
0000
0000
0000
0000
0000
0000
0000
0000
0000
0000
0000
0000
;
