#TITLE:Frozen Fire;
#SUBTITLE:;
#ARTIST:KaW;
#TITLETRANSLIT:;
#SUBTITLETRANSLIT:;
#ARTISTTRANSLIT:;
#CREDIT:;
#BANNER:Frozen Fire.png;
#BACKGROUND:Frozen Fire-bg.png;
#LYRICSPATH:;
#CDTITLE:;
#MUSIC:Frozen Fire.mp3;
#OFFSET:-6.008;
#SAMPLESTART:38.655;
#SAMPLELENGTH:12.000;
#SELECTABLE:YES;
#BPMS:0.000=160.000,128.000=125.140,164.000=115.200,164.500=105.200,165.000=95.200,165.500=85.200,166.000=160.000;
#STOPS:130.000=1.100
,166.000=0.346
;
#BGCHANGES:;
// cache tags:
#FIRSTBEAT:0.000;
#LASTBEAT:299.000;
#SONGFILENAME:Songs/StepMix 1.0/Frozen Fire/Frozen Fire.sm;
#HASMUSIC:1;
#HASBANNER:1;
#MUSICLENGTH:128.867;
// end cache tags

//---------------dance-single - Solon Halwinder----------------
#NOTES:
     dance-single:
     Solon Halwinder:
     Challenge:
     10:
     0.673,0.638,0.155,0.233,0.400,557.000,20.000,30.000,0.000,6.000:
1000
0000
0100
0000
0010
0001
0010
0001
0010
0000
0100
0000
1000
0000
0001
0000
,
0010
0000
0100
0000
1000
0000
0001
0000
0010
0001
0000
0010
0001
0000
1000
0000
,
0100
0000
0010
0000
0001
0000
0000
0100
0001
0000
0010
0000
0100
0000
1000
0000
,
0001
0000
0010
0000
0100
0000
1000
0000
0100
0000
0010
0100
0000
0010
0100
0000
,
1000
0001
0020
0000
0001
0001
0001
0030
,
1000
0000
0200
0000
0001
0000
0000
0300
0001
0000
0100
0000
2000
0000
0000
0000
,
0010
0000
0000
0000
0001
0000
0000
0000
0100
3000
0000
0000
1000
0000
0000
0000
,
1000
0000
0100
0010
0001
0000
0010
0000
0001
0000
0100
0000
0001
0010
0001
0020
,
0001
0000
0100
0000
0001
0000
0100
0100
,
0000
0000
0100
0030
0000
0000
1000
0000
0100
0000
0020
0000
0001
0000
0001
0000
,
0000
0030
0000
0000
1001
0000
0000
0000
0011
0000
0000
0000
2200
0000
0010
0000
,
0000
3300
0000
0000
0000
0000
0020
0000
0100
0000
0000
0000
0001
0000
0000
0030
,
0110
0000
1000
0000
0010
0000
0001
0200
,
0000
0001
0000
0010
0001
0010
0001
0010
,
0300
0000
1000
0100
0001
0100
1000
0010
,
0100
0000
0001
0000
0010
0001
0000
0000
1000
0000
0100
0000
0010
0000
0001
0000
,
1000
0000
1000
0100
0000
0000
0010
0000
0001
0000
0100
0000
0001
0000
0010
0000
,
0100
0000
1000
0000
0001
0010
0000
0001
0100
0000
0001
0000
0010
0000
0100
0000
,
1000
0001
1000
0100
1000
0000
0010
0000
1000
0000
0001
0000
0100
0000
0001
0000
,
0010
0000
0001
0000
1000
0000
0001
0000
0010
0100
0000
0010
0100
0000
1000
0000
,
0001
0010
0001
0100
0000
0001
0010
0001
0010
0000
0001
0000
1000
0000
0001
0000
,
0010
0000
0100
0000
1000
0100
0000
0010
0001
0000
0100
0001
0000
0010
0000
0001
,
1000
0000
1000
0100
0010
0000
0001
0000
0100
0000
0001
0000
0100
0000
0001
0000
,
1000
0100
0000
0010
0001
0000
0100
0001
0000
0010
0100
0000
0010
0100
0010
0100
,
0010
0100
1000
0100
0010
0001
0100
0001
,
0010
0000
0100
1000
0100
0000
0010
0000
0001
0000
0000
0000
0101
0000
0010
0000
,
0001
0000
0100
0000
0001
0000
1000
0000
0100
0000
0001
0010
0001
0000
0010
0000
,
0100
0010
0100
1000
0001
0000
1001
0001
,
0010
0000
1000
0001
1000
0000
0100
0000
0010
0001
0010
0000
1000
0000
1000
0000
,
0100
0001
0100
1000
0001
0010
0001
0200
,
0001
0000
0000
0000
0010
0000
0010
0000
0010
0000
0000
0300
0001
0000
0000
0000
,
1000
0100
0000
0000
0010
0000
0001
0000
1000
0100
1000
0100
0010
0001
0010
0002
,
2000
0000
0000
0000
0000
0000
0000
0000
0000
3003
0000
0000
0000
0000
0000
0000
,
1000
0100
0010
0001
0100
0001
0020
0100
,
0001
0000
0000
0000
0000
0000
0001
0000
0000
0030
0000
0000
0000
0000
0000
0000
0000
0000
1000
0000
0100
0000
1000
0000
0100
0000
0000
0000
0000
0000
0100
0000
0000
0000
0000
0000
0020
0000
0000
0000
0000
0000
0000
0000
0000
0000
0000
0000
,
0001
0100
0001
0130
1000
0100
0001
0100
,
2000
0000
0000
0010
0000
0000
3000
0000
0000
1000
0100
0010
0001
0000
0000
0001
0000
0000
0100
0000
0000
0100
0000
0000
,
0011
0000
1000
0000
0100
0000
0020
0000
0001
0000
0000
0000
0001
0030
0000
0000
,
1000
0000
0000
0100
0000
0000
0010
0000
0000
0001
0010
0001
0010
0000
0000
0020
0000
0000
0100
0000
0000
0000
0000
0000
,
0130
0010
1000
0100
0010
0001
0100
0001
,
0010
0000
0100
0000
1000
0000
0001
0000
0010
0100
0010
0100
0010
1000
0100
1000
,
0200
0000
0000
0000
0300
0000
1001
0100
,
0010
0000
0001
0000
0100
0001
0000
0000
0010
0000
0000
0000
1000
0000
0100
0000
,
0010
0100
0000
0010
0100
0000
1000
0000
0100
0000
0000
0000
0010
0000
0001
0100
,
0000
0001
0010
0000
0001
0000
1000
0100
0000
1000
0100
0000
1000
0000
0100
0000
,
0010
0000
0001
0000
0100
0001
0100
0001
0100
0000
0000
0000
1000
0000
0000
0100
,
0010
0000
0000
0001
0100
0000
0000
0001
0010
0000
0100
0000
1000
0000
0100
0000
,
0010
0000
0100
0000
0010
0100
0000
0010
0000
0001
1000
0000
1000
0000
0100
0000
,
0010
0001
0100
0000
0001
0010
0000
0100
1000
0000
0100
0000
1001
0000
0000
0000
,
1010
0000
2001
0100
0100
3000
1000
0100
,
0010
0000
0001
0000
0100
0001
0000
0011
,
0000
1000
0100
0010
0001
0200
0000
0000
,
0001
0001
0001
0300
1000
1100
0000
0000
,
0000
1000
0100
0010
0001
0100
0001
0000
,
0120
0000
0000
0000
0001
0000
0000
0000
0100
0000
0001
0000
0000
0030
0001
0000
,
0000
1000
0100
0020
0100
0200
0000
0000
,
1000
0000
0001
0330
1000
0100
0010
0001
,
0100
0001
0000
0000
1000
0100
1000
0100
1000
0000
0100
0000
1000
0000
0100
0000
,
0010
0000
0000
0000
0021
0000
0000
0000
0100
0000
0001
0000
0000
0000
0100
0030
,
0000
1100
0010
0001
0200
0001
0300
0000
,
0011
0000
1100
0000
0020
0200
0000
0000
,
0000
0001
1000
0000
0001
0330
1001
0000
,
0011
0000
1000
0000
1000
0100
0000
0020
,
0000
0031
0100
0001
0020
0100
0000
0030
,
0010
0000
0001
0000
1000
0000
0001
0000
0010
0000
0000
0000
1000
0000
0100
0010
,
0100
0010
0000
0000
1000
0100
0000
0010
0100
0000
1000
0000
0100
0000
0000
0010
,
0000
0000
0001
0000
1000
0001
0000
1000
0100
0000
1000
0000
1000
0100
0000
1000
,
0100
0000
0010
0000
0001
0000
0100
0000
0001
0000
0010
0000
0100
1000
0000
0100
,
0010
0000
0001
0000
0010
0000
0001
0000
0010
0000
0000
0000
1000
0100
0000
0100
,
0010
0000
0010
0001
0000
1000
0100
0000
1000
0000
0100
0000
1000
0100
1000
0100
,
0000
0001
0010
0001
0010
0000
1000
0000
0100
0000
0010
0000
0001
0100
0000
0001
,
0010
0000
0100
0000
1000
0000
0100
0000
0010
0000
0100
0000
1000
0001
0000
1000
,
0001
0000
1000
0001
0000
1000
0001
0000
0010
0000
0001
0000
1000
0000
0100
0000
,
0010
0000
0001
0000
1000
0100
1000
0100
0010
0001
0010
0001
0020
0000
0000
0000
,
0000
0000
0000
0030
;

//---------------dance-single - BLueSS----------------
#NOTES:
     dance-single:
     BLueSS:
     Medium:
     6:
     0.496,0.522,0.489,0.279,0.000,348.000,63.000,36.000,0.000,0.000:
1000
0100
0001
0100
,
0001
1000
0001
1000
,
0001
0100
1000
0100
,
1001
0000
1001
0000
0010
0100
0010
0000
,
1000
1001
0001
0101
,
1000
0000
1100
0000
0010
0010
0010
0000
,
1000
1000
0001
0001
,
2001
0000
3010
0000
,
1001
0000
1001
0000
0110
0000
0010
0001
,
0000
0100
0000
0100
1000
0100
0001
0100
,
0000
0000
0001
0000
1000
0000
0100
0202
,
0000
0003
0000
0000
0301
0000
0000
0000
,
1010
0000
0011
0000
1001
0000
0001
0010
,
0000
0100
0000
0010
0001
0010
0001
0010
,
0000
0000
0001
0000
1000
0000
0010
2000
,
0000
0000
3000
0001
,
1000
0001
1000
0000
0010
1000
0010
0000
,
0100
0001
0100
0000
0010
0001
0010
0000
,
1000
0001
1000
0001
1000
0001
1000
0001
,
1000
1100
0001
0101
,
0001
1000
0001
0000
0010
1000
0010
0000
,
0100
0010
0100
0000
0100
1000
0100
0000
,
0001
1000
0001
1000
0001
1000
0001
1000
,
1001
0110
0101
1010
,
2001
0000
3100
0000
,
0102
0000
1003
0000
,
0210
0000
1300
0000
,
2010
0000
3001
0000
,
2001
0001
3100
0100
,
0201
0001
0310
0010
,
1020
0100
0100
0130
,
1000
0100
0010
0001
,
2002
0000
3003
0000
,
1000
0100
0010
0001
1001
0000
0101
0000
,
0001
0010
0100
1000
1100
0000
0110
0000
,
1000
0100
0010
0001
0011
0000
1100
0000
,
0001
0010
0100
0001
0020
0000
1030
0000
,
1000
0100
0010
1000
0100
0000
0001
0000
,
0001
0100
0000
0100
0101
0000
1100
0000
,
1000
0100
0010
0001
0010
0100
1000
0100
,
0010
0100
0010
0001
0010
0100
1000
0000
,
2000
0000
0000
0000
3000
0000
1000
0100
,
1000
0100
0010
0100
0001
0000
0001
0010
,
0001
0100
1000
0100
0001
0000
1000
1000
,
0001
0000
0010
0010
0100
0000
1001
0000
,
0110
0000
0101
0000
1010
0000
1000
1000
,
0010
0001
1000
1000
0010
0000
0001
0100
,
0100
1000
0001
1000
0010
0000
0100
0001
,
0010
0000
0010
0100
0100
0000
0011
0000
,
1010
0101
1100
2001
,
0010
0000
0001
0000
3010
0010
0000
0020
,
0000
1030
0100
1000
0001
2000
0000
0000
,
3020
0000
0031
0000
0020
0200
0000
0330
,
0000
0010
0110
0000
1001
0000
0210
0000
,
0001
0000
0010
0000
0301
0001
0000
2000
,
0000
3100
0001
0100
0010
0200
0000
0000
,
2300
0000
3010
0000
1000
0001
0000
0010
,
1000
0010
1000
0001
0100
0000
1001
0000
,
0100
0000
0101
0000
0100
1000
0000
1010
,
0000
0010
1000
0010
0001
0010
0000
0000
,
1100
0000
0001
0000
0100
2200
0000
0300
,
0000
0100
3100
0110
,
1000
0000
1100
0000
1000
0010
0000
0011
,
0000
0001
0010
0001
0100
0001
0000
0000
,
1010
0000
0100
0000
1000
2020
0000
3000
,
0000
0000
1000
0000
1030
0000
0100
0100
,
0010
0000
1000
1000
0001
0000
0001
1000
,
1000
0000
0100
0001
0100
0001
2000
0000
,
0000
0001
0000
0001
3002
0000
0003
0000
,
1000
0001
1000
0001
0100
0000
2001
0000
,
3100
1002
0103
0101
,
1001
1010
1001
0002
,
0000
1000
0000
1000
2000
0000
0000
3003
,
0000
0000
1000
0001
1000
0001
0020
0000
,
0000
0000
0000
0030
;

//---------------dance-single - BLueSS----------------
#NOTES:
     dance-single:
     BLueSS:
     Easy:
     4:
     0.292,0.319,0.272,0.210,0.000,201.000,35.000,27.000,0.000,0.000:
1000
0000
1000
0000
,
0001
0000
0001
0000
,
0100
0000
0100
0000
,
0001
0001
0001
0000
,
1000
1000
0000
1000
,
0001
0001
0000
0001
,
0100
0100
0000
0100
,
0010
0020
0030
0000
,
1001
0001
0001
0000
,
1001
0000
1000
0000
,
1001
0010
0001
0010
,
0110
0000
0002
0003
,
1001
0000
0100
0000
,
0110
0100
0010
0000
,
1001
0000
0001
0000
,
1001
1000
1000
1000
,
0002
0003
2000
3000
,
0002
0003
0020
0030
,
0002
0003
0200
0300
,
1000
1000
1000
1000
,
0001
1000
0001
1000
,
0002
0000
1000
0000
1000
0003
1000
0000
,
2000
0001
3001
0000
,
2001
0000
3001
0000
,
0010
0000
0110
0100
,
0000
0100
1001
0100
,
0000
1000
1001
0100
,
0001
0001
0100
0000
,
1000
0001
1000
0000
,
0001
1000
0001
0001
,
0001
1000
0001
0000
,
1000
0100
1000
0100
,
2000
0000
3000
0000
,
1000
1000
1001
0000
,
0010
0010
0110
0000
,
0001
0001
0101
0000
,
1000
0001
0000
1000
0001
0000
0001
0000
,
1000
1000
1100
0000
,
0001
0001
0101
0000
,
0100
0100
1001
0000
,
1000
0100
0010
0001
,
2002
0000
3003
0000
,
0001
0000
0001
0000
,
1000
0000
1000
0000
,
0010
0000
0010
0000
,
0100
0100
0100
0000
,
0001
0001
0001
0000
,
0010
0010
0010
0000
,
1000
1000
1000
0000
,
0100
0100
0100
0000
,
1001
0001
0000
1001
,
1000
2000
3000
0000
,
0110
0010
0100
2002
,
0000
3003
0000
1000
,
0001
1000
0000
0001
,
0100
0001
0000
1000
,
0010
1000
0000
2002
,
0000
0000
0000
0000
0000
3003
0000
0000
,
1000
0100
0010
1000
,
0001
0010
0100
0001
,
0100
1000
0100
2002
,
0000
3003
0000
0001
,
0100
2000
3000
1000
,
0100
0002
0003
0010
,
0100
0010
0100
2002
,
0000
0000
3003
0000
,
1100
0000
0010
0000
,
0101
0000
0010
0000
,
1100
0000
0010
0000
,
0110
1000
1000
0000
,
1001
0000
0010
0000
,
0011
0000
0100
0000
,
0101
0000
1000
0000
,
1100
0000
0010
0220
,
0000
0000
0000
0330
;

//---------------dance-single - Keyboard----------------
#NOTES:
     dance-single:
     Keyboard:
     Edit:
     11:
     0.878,0.928,0.264,0.217,0.803,730.000,34.000,28.000,0.000,32.000:
1000
0000
0100
0000
0010
0100
0010
0100
0010
0000
2000
0000
0200
0000
0000
0000
,
0011
3311
0010
0011
,
1000
0000
0100
0000
0010
0000
0001
0100
0000
0001
0010
0000
0100
0000
1000
0000
,
0100
0010
0100
0010
0100
0010
0100
0010
1000
0010
0100
0010
0100
0010
0100
0010
,
1000
0000
0000
0000
0100
0010
0001
0100
0001
0000
0010
0000
0100
1000
0100
1000
,
0100
0000
0010
0000
0001
0100
0001
0100
0001
0000
0010
0000
0100
0000
1000
0000
,
0100
0000
1000
0100
1000
0000
0100
0000
1000
0000
0100
0000
1000
0100
0000
0000
,
2200
0000
0000
0000
0011
0000
0000
0001
0010
0000
0000
0000
0011
3000
0300
0000
,
1000
0000
0100
0010
0001
0000
0100
0001
0010
0000
0100
0010
0100
0000
1000
0010
,
1000
0000
0010
0100
0010
0000
1000
0001
1000
0000
0001
1000
0000
0001
1000
0000
,
0001
1000
0100
0001
1000
0010
0001
0100
,
0001
1000
0001
2000
0200
3000
0302
0000
,
2003
0000
0000
0000
3020
0000
0000
0000
0032
0000
0000
0000
0200
0003
0002
0300
,
0000
2003
0000
0010
0100
0010
0100
3010
,
0000
0000
0000
0000
1000
0000
0100
0010
0001
0000
0100
0000
0001
0010
0000
0000
,
1100
0000
0010
0000
0001
0010
0001
0000
1000
0000
0100
0010
0100
0000
0010
0000
,
0100
1000
0100
1000
0100
0010
0001
0100
0001
0010
0001
0010
0001
0010
0001
0010
,
0100
1000
0100
0000
0100
0010
0100
0010
0100
0010
0100
0010
0100
0000
0100
0010
,
0001
0000
1000
0100
0010
0000
0001
0100
0001
0000
0010
0100
0010
0000
0100
1000
,
0100
0010
0100
1000
0100
0010
0001
0010
0100
1000
0001
1000
0001
1000
0001
0000
,
1000
0100
0010
0100
1000
0100
1000
0100
0010
0000
0001
0000
0100
0000
0001
0000
,
0010
0000
1000
0100
0010
0000
0010
0000
0001
0000
0010
0000
0001
0010
0000
0000
,
0001
1000
0010
0100
0001
1000
0010
1000
0010
0000
1000
0000
0010
0000
1000
0000
,
1000
0000
0100
0010
0001
0010
0001
0010
0001
0010
0100
0000
1001
0000
0100
0000
,
1001
0000
1000
0100
0010
0000
0001
0100
0001
0000
0010
0100
0010
0000
0100
1000
,
0100
0000
1000
0100
0010
0000
0001
0100
0001
0000
0010
0000
0001
0000
1000
0000
,
1000
0000
0100
0010
0100
0010
0000
0100
0000
0100
1000
0000
0100
0000
1000
0000
,
1000
0100
1000
0100
1000
0000
0001
0010
0001
0010
0001
0000
0100
0000
0001
0000
,
0010
0000
0100
0010
0100
0000
1000
0001
1000
0000
0001
0100
0001
0000
0010
0100
,
0010
0000
1000
0010
1000
0000
0010
0001
0000
0000
1000
0000
1000
0000
0001
0000
,
1000
0100
0010
0001
0100
0001
0010
0100
0010
1000
0010
0000
1000
0100
1000
0100
,
0010
0001
0100
0001
0010
0001
0010
0100
1000
0001
1000
0001
0100
0010
0100
0010
,
0200
0000
0300
0000
,
1001
1000
0100
0010
1001
0011
1000
0100
,
1000
0000
0000
0000
0000
0000
0100
0000
0000
0000
0000
0000
0010
0000
0000
0000
0000
0000
0100
0000
0010
0000
0100
0000
0010
0000
0000
0000
0000
0000
0020
0000
0000
0000
0000
0000
0002
0000
0000
0000
0000
0000
1000
0000
0000
0033
0000
0000
,
1000
0011
0101
0010
0100
1000
0100
0010
,
1001
0000
0000
0000
0000
0000
0011
0000
0000
0000
0000
0000
0010
0000
0000
0000
0000
0000
1000
0000
0100
0000
1000
0000
0001
0000
0000
0000
0000
0000
1100
0000
0000
0100
0000
0000
1000
0000
0000
0000
0000
0000
0001
0000
0000
0000
0000
0000
,
0011
0100
1000
0010
0100
0001
1000
1000
,
0100
0000
0000
0000
0000
0000
0001
0000
0000
0000
0000
0000
1000
0000
0000
0000
0000
0000
0010
0000
0001
0000
1000
0000
0001
0000
0000
0000
0000
0000
0100
0000
0000
0000
0000
0000
0002
0000
0000
0000
0000
0000
1000
0000
0000
0003
0000
0000
,
1000
0100
0001
1000
0010
0100
0001
0100
,
1000
0000
0001
0000
1000
0000
0001
0000
1001
0000
0011
0000
1000
0100
1000
0100
,
2000
0000
0000
0000
0000
0000
0000
0000
0000
0000
0000
0000
0000
0000
0000
0000
0000
0000
0000
0000
0000
0000
0000
0000
0000
0000
0000
0000
0000
0000
0000
0000
0000
0000
0000
0000
0000
0000
0000
0000
0000
0000
0000
0000
0000
0000
0000
0000
0000
0000
0000
0000
0000
0000
0000
0000
0000
0000
0000
0000
0000
0000
0000
0000
0000
0000
0000
0000
0000
0000
0000
0000
0000
0000
0000
0000
0000
0000
0000
0000
0000
0000
0000
0000
0000
0000
0000
0000
0000
0000
0000
0000
0000
0000
0000
0000
0000
3000
0000
0000
0000
0000
0000
0000
0000
0000
0000
0000
0000
0000
0000
0000
0000
0000
0000
0000
0000
0000
0000
0000
0000
0000
0000
0000
0000
0000
0000
0000
0000
0000
0000
0000
0000
0000
0000
0000
0000
0000
0000
0000
0000
0000
0000
0000
1001
0000
0000
0000
0000
0000
0000
0000
0000
0000
0000
0000
0000
0000
0000
0000
0000
0000
0000
0000
0000
0000
0000
0000
1000
0000
0000
0000
0000
0000
0000
0000
0000
0000
0000
0000
0000
0000
0000
0000
0000
0000
0000
0000
0000
0000
0000
0000
,
1000
0100
0010
0000
0001
0000
0100
0001
0000
0010
0100
0000
1000
0010
1000
0001
,
1000
0100
1000
0100
1000
0100
1000
0001
0100
0000
0001
0000
0010
0000
1000
0100
,
0010
0000
0001
0100
0001
0000
0010
0100
0010
0000
0100
0000
0100
1000
0100
0000
,
0010
0000
0100
0000
0100
0010
0100
0001
0100
1000
0100
0010
0100
0000
0000
0100
,
1000
0000
0001
0000
0010
0000
0001
0000
0100
0000
0001
0000
0100
0010
0000
0010
,
0100
0000
1000
0001
0000
1000
0001
0000
0010
0000
0001
0000
1000
0000
0000
0100
,
0010
0000
0000
0001
0000
0100
0000
0001
0010
0000
0100
0000
0100
1000
0100
0010
,
0001
0100
0010
0100
0000
0001
0010
0001
0010
0000
0001
0000
0010
0000
0100
0000
,
1000
0001
0010
0001
0100
0001
0110
0010
,
0100
0000
1000
0000
0110
0000
0001
1000
0011
0000
0100
1000
0000
1000
0100
0010
,
0001
0000
0100
0001
0010
0000
0100
1000
0001
0000
0100
0001
0100
0000
0100
0000
,
1000
0000
0100
0010
0001
0010
0001
0000
1000
0000
0100
0000
0010
0000
0001
0010
,
0001
0000
1000
0100
1000
0000
0001
0100
0001
0000
0010
0100
0010
0000
1000
0010
,
1000
0000
1000
0100
1000
0100
0010
0100
0010
0000
0010
0000
1010
0000
0110
0000
,
0100
0000
0000
1000
0000
0100
0010
0000
0001
0010
0000
0000
2002
0000
0010
0000
,
0100
0000
0010
0000
0100
0000
0010
0000
0100
3003
0000
0000
1000
0000
0100
0010
,
0001
0000
0100
0001
0010
0000
0100
1000
0100
0000
2000
0000
0200
0000
0000
0000
,
0010
0000
0010
0000
0001
0000
0010
0000
0000
0001
0000
0010
0001
0000
0000
0000
,
0010
0000
0010
0000
0010
0000
0001
0000
0001
0000
3000
0300
1000
0000
0100
0000
,
0010
0000
0001
0000
0100
0000
0000
0000
0010
0000
0000
0000
1001
0000
1000
0100
,
0010
0000
0001
0100
0001
0000
0010
0100
0010
0000
0001
1000
0001
0000
0010
0100
,
0010
0000
0100
0010
1000
0000
0010
0100
0010
0000
2000
0000
0200
0000
0000
0000
,
0010
0000
0000
0001
0010
0000
3300
0000
0100
0000
1000
0000
0100
0000
0010
0001
,
0010
0001
0000
0000
2000
0000
0200
0000
0010
0000
0000
0000
0010
0000
0010
0000
,
0010
3000
0000
0300
1000
0000
0110
0000
0101
0000
0001
0000
0010
0000
0100
0000
,
1100
0000
0000
0000
0101
0000
0001
0000
0010
0000
0001
0000
1000
0000
0100
0010
,
0001
0000
0100
0001
0010
0000
0100
0010
0100
0000
0010
1000
0010
0000
0100
0000
,
1000
0000
0100
0000
0010
0000
0100
0010
0100
0000
1000
0000
0100
0000
0010
0001
,
0010
0000
0001
0100
0001
0000
0010
0100
0000
0010
0100
1000
0100
0000
0010
0000
,
0001
0000
0100
0000
0001
0000
0010
0000
0001
0000
1000
0000
1000
0100
0010
0001
,
0010
0100
1000
0100
0010
0001
0010
1000
0010
0001
0010
0000
0101
0000
1000
0100
,
0010
0001
0010
0100
0010
1000
0010
0100
0010
0100
0010
0100
0220
0000
0000
0000
,
0000
0000
0000
0330
;

//---------------dance-double - BLueSS----------------
#NOTES:
     dance-double:
     BLueSS:
     Easy:
     3:
     0.181,0.232,0.039,0.062,0.000,150.000,5.000,8.000,0.000,0.000:
10000000
00000000
00000000
00000000
,
00010000
00000000
00000000
00000000
,
00001000
00000000
00000000
00000000
,
00000100
00000000
00000000
00000000
,
00001000
00000000
00000000
00000000
,
00010000
00000000
00000000
00000000
,
10000000
00000000
00000000
00000000
,
00100000
00100000
00100000
00000000
,
01000000
00000000
00000000
00000000
,
00010000
00000000
00000000
00000000
,
00001000
00000000
00000000
00000000
,
00001001
00000000
00000100
00000000
,
00001001
00000000
00000000
00000000
,
00001000
00000000
00000000
00000000
,
00010000
00000000
00000000
00000000
,
10010000
00000000
01000000
00000000
,
10010000
00000000
01000000
00000000
,
00100000
00000000
01000000
00000000
,
00100000
00000000
01000000
00000000
,
00100000
00000000
00020000
00030000
,
00001000
00000000
00020000
00030000
,
00001000
00000000
00020000
00030000
,
00001000
00000000
00020000
00030000
,
00001000
00000000
00000100
00000000
,
00000001
00000000
00001000
00000000
,
00000010
00000000
00000100
00000000
,
00000001
00000000
00001000
00000000
,
00000010
00000000
00000100
00000000
,
00000001
00000001
00000001
00000000
,
00001000
00001000
00001000
00000000
,
00010000
00010000
00010000
00000000
,
10000000
10000000
10000000
10000000
,
10000000
00000000
00000000
00000000
,
10000000
01000000
00010000
00000000
,
10000000
00010000
10000000
00000000
,
00100000
00100000
00010000
00000000
,
00001000
00001000
00001000
00000000
,
00000100
00000100
00000100
00000000
,
00000001
00001000
00000001
00000000
,
00000010
00000010
00001000
00001000
,
00010000
00010000
00010000
01000000
,
02000000
00000000
03000000
00000000
,
10000000
00000000
00010000
00000000
,
10000000
00000000
01000000
00000000
,
00010000
00000000
00002000
00003000
,
00010000
00000000
00011000
00000000
,
01000000
00000000
00001000
00000000
,
00010000
00000000
00000100
00000000
,
00010000
00000000
00000100
00000000
,
00001000
00000000
01000000
00000000
,
00010000
00000000
00100000
00000000
,
00010000
00000000
00001000
00000000
,
00000010
00000000
00001000
00000000
,
00000000
00010000
00000000
00000010
,
00001000
00000010
00000000
00010000
,
00000000
00100000
00000000
00001000
,
00010000
00001000
00000000
00010000
,
00000000
00000100
00000000
00001000
,
00000000
00010000
00000000
00100000
,
00000000
01000000
00000000
00010000
,
00000000
00001000
00000000
00000100
,
00000000
00000001
00000000
00000100
,
00000000
00001000
00000000
00010000
,
00000000
01000000
00000000
10000000
,
00000000
01000000
00000000
00020000
,
00000000
00000000
00000000
00031000
,
00000000
00001000
00000000
00010000
,
00000000
00010000
00000000
00000100
,
00000000
00000100
00000000
00010000
,
00000000
00010000
00000000
01000000
,
00000000
01000000
00000000
00100000
,
00000000
00100000
00000000
01000000
,
00000000
01000000
00000000
00010000
,
00000000
00010000
00000000
00002000
,
00000000
00000000
00000000
00003000
;

//---------------dance-double - ----------------
#NOTES:
     dance-double:
     :
     Medium:
     6:
     0.443,0.522,0.132,0.629,0.000,302.000,17.000,81.000,0.000,0.000:
10000000
01000000
00001000
00010000
,
00010000
01000000
00001000
00000010
,
00000010
00000001
00001000
00000100
,
00010000
00100000
10000000
00100000
,
10000000
02000000
03010000
02000000
,
13000000
02000000
03010000
00000100
,
00002000
00003010
00000200
00000301
,
00002000
00000000
00000000
00000000
,
00003010
00000000
00000100
00000000
00000001
00000000
00000100
00000001
,
00000000
00001000
00000000
00000010
00001000
00000010
00010000
00001000
,
00000000
00000000
00010000
00000000
00010000
00000000
00100000
00020000
,
00000000
00000000
00030000
10000000
01000000
00000000
02000000
00000000
,
03100000
00000000
00010000
00000000
00100000
00000000
00001000
00010000
,
00000000
00001000
00000000
00010000
00000100
00001000
00000100
00001000
,
00000000
00000000
00000001
00000000
00000100
00000000
00000010
00001000
,
00000000
00000000
00000000
00010000
00001000
00000000
00002000
00000000
,
01003000
02000000
03020000
00000000
,
10030000
20000000
30100000
00000000
,
01000000
02000000
03100000
00010000
,
20000000
30100000
00020000
00031000
,
00000100
00000200
00000302
00000000
,
00000013
00000010
00002000
00000000
,
00003010
00000000
00000020
00000000
00000100
00000030
00000010
00000000
,
00000001
00001000
00000001
00000000
00000100
00000010
00000100
00000000
,
00000001
00001100
00000010
00011000
,
00001000
01010000
00100000
10010000
,
10000000
01100000
00100000
01010000
,
00010000
10000000
00000000
00000000
10000000
00010000
00000000
00000000
,
00001000
00000000
00000100
00000001
00000000
00000000
00000001
00000000
,
00000010
00000000
00000100
00000001
00000000
00000000
00001000
00000000
,
00000010
00000000
00000100
00001000
00000000
00000000
00001000
00000000
,
00000010
00000000
00010000
00001000
00000000
00010000
00100000
00000000
,
02000000
00000000
03000000
00000000
,
10000000
00100000
10000000
00000000
20020000
00000000
30030000
00000000
,
00010000
00001000
00010000
00000000
00022000
00000000
00033000
00000000
,
00000010
00001000
00000010
00010000
00000200
00000000
00000300
00000000
,
00020000
00000000
00031000
00000000
02000200
00000000
00000000
00000300
,
00002000
03000000
00010000
00003000
00010200
00000000
00000000
00000000
,
00020300
00032000
02003000
03000000
,
00010000
00001000
00022000
00033000
,
00100000
00100000
00100000
00000000
02000000
00000000
00000000
03000000
,
00000100
00000000
00000000
00000010
,
00000010
00000100
00000001
00001000
,
00020000
00000000
01000000
00030000
00000000
00000000
10000000
00000000
,
00200000
02300000
00100000
03020000
,
20030000
00000000
00100000
30000000
00000000
00000000
00000000
00000000
,
00002000
00000000
00023000
00000000
00030200
00000000
00010000
00000300
,
00020000
00032000
02003000
00010000
,
03020000
00000000
00230000
00000000
00302000
00000000
00010000
00003000
,
00020000
00030020
00002030
00003002
,
00002003
00000000
00003010
00000000
00000200
00000001
00000000
00000301
,
00000000
00001000
00000010
00001000
00000020
00001000
00000000
00000000
,
00020030
00000000
00001000
00030000
00200000
00020000
00000000
00330000
,
00000000
10000000
01000000
00000000
01010000
00000000
00100000
00000000
,
00020000
00000000
00200000
00030000
00302000
00020000
00003000
00002000
,
00030000
00013000
00000100
00001000
00000200
00002000
00000000
00003300
,
00000001
00000000
00000100
00000000
00000010
00002000
00000000
00000000
,
00003010
00000000
00000010
00000100
00001000
00000000
00100000
00000000
,
00200000
00000000
00310000
00000000
02000000
00020000
03000000
02000000
,
00030000
03010000
10000000
00100000
20000000
00100000
30000000
00000000
,
02000000
00000000
03020000
00000000
00130000
00002000
00000000
00000000
,
00000000
00023000
00000010
00000000
00030010
00000000
00001000
00000000
,
00000100
00000000
00001000
00000000
00000010
00000200
00000000
00000301
,
00000000
00000001
00000001
00000010
00000100
00000010
00000000
00000000
,
00000100
00000000
00001000
00000000
00011000
00020000
00000000
00000000
,
10000000
10030000
00000000
10000000
,
00000000
10000000
00100000
00000000
01000000
00010000
00000000
00010000
,
00001000
00000100
00000100
00001000
,
00000000
00001000
00000100
00000000
00011000
00000000
00110000
00000000
,
00000000
10000000
01000000
00000000
01010000
00000000
00001000
00010000
,
00001000
00000000
00001000
00000100
00001000
00000000
00010000
01000000
,
00010000
00000000
00001000
00000010
00001000
00000000
00010000
00100000
,
00010000
00000000
00001000
00000010
00000100
00000000
00000100
00000000
,
00000010
00000001
00000010
00000100
00001000
00000000
00002020
00000000
,
00000000
00000000
00000000
00003030
;

//---------------dance-double - ----------------
#NOTES:
     dance-double:
     :
     Hard:
     9:
     0.532,0.493,0.349,0.171,0.000,411.000,45.000,22.000,0.000,1.000:
10000000
00000000
11000000
00000000
00010000
00010000
00001000
00000000
,
00001000
00000000
00000011
00000000
00001000
00000001
00000100
00000000
,
00001000
00000001
00000010
00000001
00001000
00000001
00000010
00000001
,
00000200
00000000
00000000
00000000
00001000
00000000
00010000
00000300
,
00010000
00011000
01000000
00011000
,
00000100
00011000
00100000
00101000
,
00010000
00010010
00001000
00010010
,
00100000
00001000
00010000
10000000
,
20000000
00000000
30010000
00000000
01000000
00000000
00010000
00000100
,
00000000
00000100
00000000
00001000
00000001
00000010
00000001
00001000
,
00000000
00000000
00000001
00000000
00000010
00000000
00000001
00022000
,
00000000
00033000
00000000
10000000
00010000
00000000
00010000
00000000
,
00001000
00000000
00000001
00000000
00000100
00000000
00000001
00000010
,
00000000
00000010
00000000
00001000
00000010
00001000
00000010
00200000
,
00000000
00000000
00300010
00000000
00100000
00000000
00000010
00022000
,
00000000
00033000
10000000
10000000
,
00100000
01000000
01000000
01000000
,
00010000
00001000
00010000
00001000
01000000
00000000
00000000
00000000
,
00100000
00010000
00100000
00010000
01000000
00010000
01000000
00010000
,
00001000
00000100
00001000
00000100
00000001
00000100
00000001
00000100
,
00000010
00000100
00001001
00000000
00000010
00000001
00000101
00000000
,
00000010
00001000
00001100
00000000
00000010
00001000
00011000
00000000
,
00100000
00010000
01010000
00000000
00001000
00000100
00001100
00000000
,
00001000
00000000
00010000
01000000
00001000
00000000
01001000
00000000
,
00100000
00001000
00010000
00001000
01000000
00002000
00000000
00003000
,
00010000
00000000
00000010
00000000
00100000
00000000
00000010
00000000
00010000
00000000
00002000
00000000
00000000
00003000
00000000
00000000
,
00100000
00000010
00010000
00000001
00001000
00000002
00000000
00000003
,
00000100
00001000
00000000
00000010
00010000
00000010
00100000
00000010
,
00010000
00000010
00100000
00000010
00010000
00000100
00000000
00000000
,
00100000
00000010
00010000
00000010
01000000
00001000
00000000
00000000
,
10000000
00010000
00001000
00010000
10000000
00001000
00000000
00000000
,
00010000
00000010
00100000
00000010
00010000
00000100
01000000
00001000
,
20000000
00000000
30000000
00000000
,
10000000
01000000
00010000
00001000
00000101
00000000
00001010
00000000
,
00000010
00001000
00010000
00100000
10100000
00000000
01010000
00000000
,
10000000
01000000
00010000
00001000
00001010
00000000
00000011
00000000
,
00000001
00000010
00001000
00010000
00100000
00000000
01000000
00000000
,
01000000
10000000
00100000
00010000
00001000
00000000
00001000
00000000
,
00000010
00000001
00000010
00001000
00010000
00000000
00010000
00000000
,
01000000
10000000
00100000
00010000
00001000
00000000
00000100
00000000
,
00000100
00001000
00010000
01000000
10000000
01000000
00010000
00001000
,
00000200
00000000
00000000
00000000
00000300
00000000
00010000
00000100
,
00010000
00001000
00100000
00001000
00000000
01000000
00010000
00001000
,
00010000
01000000
00010000
00001000
00000000
00001000
00100000
10000000
,
00010000
00100000
01000000
00010000
00000000
00010000
00001000
00001000
,
00000100
00000100
00010000
00010000
00100000
00000000
00100000
01000000
,
10000000
01000000
01100000
00000000
01100000
00000000
00010000
00001000
,
00000100
00001000
00011000
00000000
00011000
00000000
00001000
00000100
,
00000010
00000001
00001100
00000000
00001100
00000000
00011000
00000000
,
00110000
00011000
00001001
00000002
,
00001003
00000000
00000010
00000000
00001000
00100000
00000000
00100000
,
00000000
00010000
10000000
01000000
10000000
00010000
00000000
00000000
,
10000000
00000000
01000000
00000000
10000000
00022000
00000000
00033000
,
00000000
00000001
00001000
00000000
00001000
00000000
00010000
00000000
,
10000000
00000000
00100000
00000000
10000000
01000000
00000000
01000000
,
00000000
00010000
01000000
00010000
01000000
00000200
00000000
00000000
,
01000300
00000000
00000100
00000000
01000000
00022000
00000000
00000000
,
00033000
00000000
00000001
00000000
00000001
00000000
00000100
00000100
,
00000010
00000100
00001000
00001000
00000010
00001000
00010000
00010000
,
00001000
00010000
00000010
00000010
00000001
00000001
00000100
00001000
,
00000100
00001000
00000010
00001000
00000010
00001000
00010000
00100000
,
00010000
00100000
10000000
00000000
10100000
00000000
10000000
10000000
,
01000000
10000000
00100000
00100000
01000000
00100000
00010000
00010000
,
00100000
00010000
00000100
00000100
00001000
00010000
00000010
00000010
,
00001000
00000001
00000100
00000100
00000010
00000100
00001000
00010000
,
00100000
00010000
00001000
00010000
01000000
00000000
10000000
00000000
,
01010000
00000000
00001000
00000100
00000001
00000000
00001000
00000000
,
01010000
00000000
00100000
10000000
01000000
00000000
00010000
00000000
,
00001100
00000000
00000010
00000001
00000100
00000000
00001000
00000000
,
00010000
10010000
00011000
00001001
,
00001000
00000000
00100000
00010000
01000000
00000000
10000000
00000000
,
01010000
00000000
00001000
00000010
00000001
00000000
00000010
00000000
,
00110000
00000000
00010000
01000000
10000000
00000000
00100000
00010000
,
00100000
00001000
00010000
00000100
00010000
00000000
02022200
00000000
,
00000000
00000000
00000000
03033300
;

//---------------dance-single - BLueSS----------------
#NOTES:
     dance-single:
     BLueSS:
     Hard:
     9:
     0.622,0.609,0.404,0.194,0.167,484.000,52.000,25.000,0.000,0.000:
1000
0001
0010
0001
0011
0001
0010
0100
,
1000
0100
1000
0100
1100
0100
0010
0001
,
1000
0001
0100
0001
0010
0001
0100
0001
,
2000
0010
0010
3010
,
0001
1000
0010
0100
0101
0001
0010
0100
,
0010
0100
0001
0010
0011
0010
0100
1000
,
0001
1000
0010
1000
0100
1000
0010
1000
,
0002
0100
0100
0103
,
1000
0100
0010
0000
1000
0001
0100
0010
,
0000
0001
0000
1000
0001
1000
0001
1000
,
0000
0000
0001
0010
0100
0000
1000
0002
,
0000
0000
0000
0103
0010
0000
0110
0000
,
0100
0001
1000
0000
0100
0010
0001
1000
,
0000
0010
0000
0100
0010
0100
0010
0100
,
0000
0000
0010
1000
0001
0000
0011
0100
,
0001
1000
0010
0100
0010
1000
0001
0000
,
1001
0000
0010
0100
0100
0010
0001
0000
,
0010
1000
0100
0100
1000
0010
0001
0000
,
1000
1000
0001
1000
1000
1000
0001
0010
,
0100
0001
0001
0100
0001
0001
0100
0000
,
0010
1000
1010
0000
1000
2000
0000
3000
,
0010
0100
0011
0000
0010
0020
0000
0030
,
1000
0010
0100
0010
0001
0100
0010
0100
,
1000
0010
0100
0010
0001
0010
0100
0010
,
1000
0000
0100
0000
1000
0000
0001
0100
0002
0200
0000
0000
0303
0000
0000
0000
,
1000
0000
0010
0000
0100
0000
0001
1000
0002
2000
0000
0000
3003
0000
0000
0000
,
0010
0000
0100
0000
0010
0000
1000
0010
1000
0010
0000
0000
1000
0000
0000
0000
,
1000
0000
0000
0001
0100
0000
0000
1000
0100
0000
0000
0001
0100
0000
0000
0000
,
0010
0100
0010
0100
1010
0000
0101
0000
,
0001
0100
0001
0100
0110
0000
0101
0000
,
1000
0100
1000
0010
0110
0000
0011
0000
,
0002
0100
0003
1020
0000
2030
3001
0000
,
2002
0000
3003
0000
,
1000
0000
0010
0000
1000
0010
1000
0010
1010
0000
0000
0000
0011
0000
0000
0000
,
0001
0000
0010
0000
0100
0001
0100
0001
0101
0000
0000
0000
1100
0000
0000
0000
,
1000
0100
1000
0100
0001
0100
1000
0000
,
0001
0000
0100
0000
1000
0000
0100
0000
1000
0001
1000
0001
1001
0000
0000
0000
,
0010
0000
0001
0000
0010
0000
0001
0000
1000
0010
1000
0010
1010
0000
0000
0000
,
1000
0000
0010
0000
1000
0000
0010
0000
1000
0100
1000
0100
1100
0000
0000
0000
,
1000
0100
1000
0010
1000
0100
1000
0000
,
0010
1000
0110
0100
1001
0100
0011
0010
,
0200
0000
0000
0000
0300
0000
1000
1000
,
0001
0010
0100
0100
0001
0001
1000
0001
,
1000
0001
1100
0010
0001
0010
0001
0010
,
0100
1000
0100
0010
0100
1000
0100
0001
,
0100
0010
0100
0001
0010
0100
1000
0000
,
1100
0000
0001
0001
0001
0000
0010
0000
,
0101
0000
1000
0100
1000
0000
0100
0000
,
0110
0000
0001
0001
0001
0000
1001
0010
,
0110
0000
0001
0000
1001
0000
1000
0000
1001
0000
0000
0000
1000
0000
0000
1000
,
0001
0000
0000
0000
1001
0000
0000
0001
0010
0000
0000
0000
0011
0000
0000
0000
,
0010
0000
0100
0000
0001
0000
1000
0000
0010
0000
1000
0000
0100
0000
0000
0100
,
0001
0000
0000
0000
0010
0000
0000
0100
1000
0000
0000
0000
2000
0000
0000
0000
,
0100
0000
0000
0000
0010
0000
0000
0000
3100
0000
0000
0000
1001
0000
0000
0001
,
0010
0000
0000
0000
0110
0000
0000
0100
0001
0000
0000
0000
0011
0000
0000
0100
,
1000
0000
0000
0000
1010
0000
0000
1000
0010
0000
0001
0000
0010
0000
1000
0000
,
0001
0010
0001
0100
0001
1000
0020
0000
,
0130
1000
0100
0001
0110
0000
0001
0010
,
0110
0000
0001
1000
0010
0110
0000
1000
,
0000
0001
1000
1001
0001
0010
0000
0000
,
1000
0100
0010
0000
0001
2000
0000
0000
,
0000
3010
0100
0000
0110
0000
0010
1000
,
1001
0000
0010
0100
1000
0001
0000
0101
,
0000
0010
0100
0010
0100
0010
0000
0000
,
0100
0001
1000
0000
1100
0010
1000
0001
,
0100
0000
0010
0000
0001
0000
0100
0000
0010
0000
0000
0000
1000
0001
1000
0001
,
0000
0000
0000
0100
0010
0000
0000
0100
0010
0000
0000
0000
0001
0100
0001
0100
,
0000
0000
0000
0000
0100
0000
0101
0000
0001
0000
0000
0000
0010
0100
0010
0100
,
0000
2000
0001
3100
0002
0100
1003
0100
,
0010
0000
1000
0000
0100
0000
0010
0000
0001
0000
0000
0000
0100
0001
0100
0001
,
0000
0000
0000
0010
1000
0000
0000
0010
1000
0000
0000
0000
0001
0010
0001
0010
,
0000
0000
0000
0000
0010
0000
0011
0000
0001
0000
0000
0000
1000
0010
1000
0010
,
0000
0000
2000
0020
3000
0000
0130
0002
,
0000
0000
0103
0010
0100
0010
2002
0000
,
0000
0000
0000
3003
;
