#TITLE:Electric Holiday;
#SUBTITLE:;
#ARTIST:The Pondermatic;
#TITLETRANSLIT:;
#SUBTITLETRANSLIT:;
#ARTISTTRANSLIT:;
#CREDIT:The Pondermatic     pondermatic.blogspot.com     (http;
#BANNER:electric_holiday-bn.png;
#BACKGROUND:electric_holiday-bg.png;
#LYRICSPATH:;
#CDTITLE:;
#MUSIC:Electric_Holiday.mp3;
#OFFSET:0.000;
#SAMPLESTART:8.070;
#SAMPLELENGTH:8.070;
#SELECTABLE:YES;
#BPMS:0.000=175.000;
#STOPS:;
#BGCHANGES:0.000=electric_holiday-bg.PNG=1.000=0=0=1,
24.000=-random-=1.000=0=0=1,
99999=-nosongbg-=1.000=0=0=0 // don't automatically add -songbackground-
;
// cache tags:
#FIRSTBEAT:0.000;
#LASTBEAT:196.000;
#SONGFILENAME:Songs/StepMix 1/Electric Holiday/electric_holiday.sm;
#HASMUSIC:1;
#HASBANNER:1;
#MUSICLENGTH:67.271;
// end cache tags

//---------------dance-single - ----------------
#NOTES:
     dance-single:
     :
     Hard:
     9:
     0.684,0.910,0.015,0.728,0.230,272.000,1.000,49.000,0.000,0.000:
0000
0000
0000
0000
,
0000
0000
0000
0000
,
0000
0000
0000
0000
,
0000
0000
0000
0000
,
0000
0000
0000
0000
,
0000
0000
0000
0000
,
2000
0000
3000
0010
0200
0000
0301
0000
,
0002
0000
0003
0100
0020
0000
1030
0000
,
2000
0000
3000
0010
0200
0000
0301
0000
,
0002
0000
0003
0100
0020
0000
1030
0000
,
2000
0000
3000
0010
0200
0000
0301
0000
,
0002
0000
0003
0100
0020
0000
1030
0000
,
1000
0100
1000
0100
1000
0100
1000
0100
,
0010
0001
0010
0100
1000
0100
0010
0001
,
0010
0100
0010
0100
0010
0100
0010
0100
,
0010
0001
0010
0100
1000
0000
1000
0100
,
0020
0000
0000
0000
0030
0100
1000
0100
,
0010
0002
0013
0100
1000
0001
1000
0001
,
0010
0200
1300
0001
0010
0000
0200
1300
,
0100
0010
0001
1000
0100
0001
0100
1000
,
2000
0000
3000
0010
0200
0000
0301
0000
,
0002
0000
0003
0100
0020
0000
1030
0000
,
2000
0000
3000
0010
0200
0000
0301
0000
,
0002
0000
0003
0100
0020
0000
1030
0000
,
2000
0000
3000
0010
0200
0000
0301
0000
,
0002
0000
0003
0100
0020
0000
1030
0000
,
2000
0000
3000
0010
0200
0000
0301
0000
,
0001
0010
0100
1000
0100
0020
0031
1000
,
1000
0001
0020
0130
1000
0100
0010
0001
,
1000
0000
0100
1000
0100
0000
1000
0100
1000
0000
0100
1000
0100
0000
1000
0100
,
1000
0000
0000
0000
0010
0001
0010
0001
0010
0001
0010
0001
0010
0000
0000
0000
,
1000
0100
0010
0001
0010
0100
2000
3100
,
1000
0100
0010
0001
0010
0100
1000
0100
,
1000
0000
0010
0000
0100
0000
0001
0000
0100
0000
0010
0000
1000
0010
1000
0010
,
1000
0000
0000
0000
1000
0001
1000
0001
1000
0001
1000
0001
1000
0001
1000
0001
,
1000
0001
1000
0001
1000
0001
1000
0001
,
2000
0001
0001
0001
0001
0001
0001
0001
,
3000
0000
0000
0000
,
2000
0000
3000
0010
0200
0000
0301
0000
,
0002
0000
0003
0100
0020
0000
1030
0000
,
2000
0000
3000
0010
0200
0000
0301
0000
,
0002
0000
0003
0100
0020
0000
1030
0000
,
2000
0000
3000
0010
0200
0000
0301
0000
,
0002
0000
0003
0100
0020
0000
1030
0000
,
1000
0000
0010
1000
0010
0000
0001
0100
0001
0000
0010
1000
0010
0000
0001
0100
,
0001
0100
0001
0100
0001
0100
0001
0100
0001
0100
0002
0000
0000
0000
0003
0000
,
1000
0000
0100
0000
0010
0000
0001
0000
0010
0001
0010
0001
0100
0001
0100
0001
,
0100
0000
0010
0000
0001
0000
1000
0000
0100
0010
0100
0010
0100
0000
0000
0000
,
2002
0000
0000
0000
,
3003
0000
0000
0000
;

//---------------dance-single - ----------------
#NOTES:
     dance-single:
     :
     Easy:
     3:
     0.355,0.507,0.149,0.669,0.000,112.000,10.000,45.000,0.000,0.000:
0000
0000
0000
0000
,
0000
0000
0000
0000
,
0000
0000
0000
0000
,
0000
0000
0000
0000
,
0000
0000
0000
0000
,
0000
0000
0000
0000
,
2000
0000
0000
3000
0001
0000
0000
0000
,
0002
0000
0000
0003
0010
0000
0000
0000
,
0020
0000
0000
0030
0100
0000
0000
0000
,
0200
0000
0000
0300
0010
0000
0000
0000
,
0020
0000
0000
0030
0100
0000
0000
0000
,
0200
0000
0000
0300
1000
0000
0000
0000
,
1000
1000
1000
1000
,
0100
0100
0100
0100
,
0000
0010
0010
0010
,
0001
0001
0001
0000
,
2002
0000
0000
0000
0000
3003
0000
0000
,
1001
1001
1001
1001
,
1001
1001
1001
0010
,
0100
0100
0100
0100
,
0200
0000
0000
0300
0001
0000
0000
0000
,
0002
0000
0000
0003
1000
0000
0000
0000
,
2000
0000
0000
3000
0100
0000
0000
0000
,
0200
0000
0000
0300
1000
0000
0000
0000
,
2000
0000
0000
3000
0100
0000
0000
0000
,
0200
0000
0000
0300
1000
0000
0000
0000
,
2000
0000
0000
3000
0010
0000
0000
0000
,
1000
0100
0010
0002
,
0003
0002
0013
0100
,
2000
3200
0320
0032
,
0003
2002
0000
3003
,
0010
0100
0010
0200
,
0300
0001
1000
0001
,
1000
0001
1000
0002
,
0003
0220
0000
0000
,
0330
0010
0100
0010
,
0200
0001
0001
0301
,
0002
0000
0000
0003
1000
0000
0000
0000
,
2000
0000
0000
3000
0010
0000
0000
0000
,
0002
0000
0000
0003
0100
0000
0000
0000
,
0200
0000
0000
0300
0001
0000
0000
0000
,
0002
0000
0000
0003
0100
0000
0000
0000
,
0200
0000
0000
0300
0010
0000
0000
0000
,
0020
0000
0000
0030
1000
0000
0000
0000
,
2000
3020
0230
0302
,
2000
0000
0000
0000
0000
3003
0000
0000
,
1000
0010
0200
0302
,
1003
0100
0020
0032
,
2000
0000
0000
3003
;

//---------------dance-single - ----------------
#NOTES:
     dance-single:
     :
     Challenge:
     11:
     0.682,0.910,0.104,0.134,1.000,304.000,7.000,9.000,380.000,2.000:
MMMM
MMMM
MMMM
MMMM
,
MMMM
MMMM
MMMM
MMMM
,
MMMM
MMMM
MMMM
MMMM
,
MMMM
MMMM
MMMM
MMMM
,
MMMM
MMMM
MMMM
MMMM
,
MMMM
MMMM
MMMM
MMMM
,
MMMM
MMMM
MMMM
MMMM
,
1000
0100
0001
1000
0010
0001
0100
0001
,
0010
0001
0010
0001
1000
0000
0000
0000
0110
0001
0000
0000
0000
0000
0000
0000
,
1000
0100
0010
0001
0100
0010
0001
0010
,
2000
0100
0010
0001
0100
0010
3001
1000
,
MMMM
MMMM
MMMM
MMMM
,
1000
0010
0100
0001
0100
0001
0010
1000
,
0021
0100
1000
0100
0001
0100
1030
0010
,
0000
0001
0010
0000
0100
0000
1000
0000
0100
0000
0010
0000
0100
0000
0010
0000
,
0001
0001
0001
0010
1100
0000
1000
0001
,
1000
0100
1000
0100
0010
0100
0010
0001
0010
0001
1000
0000
0100
0000
0010
0000
,
0001
0000
0010
0000
0001
1000
0100
0000
1000
0000
0001
0000
0010
0000
0100
0000
,
1000
0000
0100
0010
0100
0000
0010
0000
1101
0000
0000
0000
0100
0010
1000
0000
,
0100
0010
0001
1000
0100
0001
0100
1000
,
MMMM
MMMM
MMMM
MMMM
,
MMMM
MMMM
MMMM
MMMM
,
0001
0010
1000
0001
0100
1000
0010
1000
,
0100
1000
0100
1000
0001
0000
0000
0000
0110
1000
0000
0000
0000
0000
0000
0000
,
0001
0010
0100
1000
0010
0100
1000
0100
,
0002
0010
0100
1000
0010
0100
1003
0001
,
MMMM
MMMM
MMMM
MMMM
,
0100
0000
M010
0000
0100
0000
10M0
0000
0100
0001
0100
0000
100M
0000
0100
0000
,
0100
0000
10M0
0000
0100
0001
0100
0000
10M0
0000
0100
0000
M010
0000
0100
0000
,
0001
0000
0M10
0001
0010
0000
001M
0100
0010
0000
01M0
1000
0100
0000
1M00
0001
,
1000
0000
0MM0
0000
1000
0100
M010
0001
0M10
1000
0001
01M0
1000
000M
0000
0000
,
100M
0000
0000
0000
0000
0000
0100
0000
0000
0000
0000
0000
0010
0000
0000
0000
0000
0000
M001
0000
0000
0000
0000
0000
0010
0000
0000
0000
0000
0000
0100
0000
0000
0000
000M
0000
1000
0000
0000
0000
0000
0000
0100
0000
0000
0010
0000
0000
,
0001
M000
0000
0010
0000
0000
0100
0000
0000
100M
0000
0000
0100
0000
0000
0010
0000
0000
M001
0000
0000
100M
0000
0000
,
0010
0000
0000
0000
0000
0000
010M
0000
0000
0000
0000
0000
10M0
0000
0000
0000
0000
0000
0M01
0000
M000
0000
0000
0000
0010
0000
0000
0M00
0000
0000
100M
0000
0000
00M0
0000
0000
0001
0000
M000
0100
0000
0000
0010
0000
0000
100M
0000
0000
,
0M10
0000
0000
0000
0000
0000
0000
0000
0000
0000
0000
M000
0001
0000
0000
0010
0000
0000
0100
0000
0000
0010
0000
0000
010M
0000
0000
1000
0000
0000
01M0
0000
0000
1000
0000
0000
0001
0000
0000
1M00
0000
0000
0001
0000
0000
0010
0000
0000
,
1M00
0000
0000
0000
0000
0000
0000
0000
00M1
0000
0000
0000
0000
0000
0000
0000
0100
0000
0000
0000
M00M
0000
0000
0000
0010
0000
0000
0000
0000
0000
0000
0000
0M01
0000
0000
0000
0000
0000
0000
0000
10M0
0000
0000
0000
0000
0000
0000
0000
010M
0000
0000
0000
0000
0000
0000
0000
M010
M000
M000
M000
M000
M000
M000
M000
,
MM02
0000
0000
M000
0000
0000
M000
0000
0000
M000
0000
0000
M000
0000
0000
M000
0000
0000
M000
0000
0000
M000
0000
0000
M010
0000
0000
0000
0000
0000
0000
0000
0000
0000
0000
0000
0000
0000
0000
0000
0000
0000
0000
0000
0000
0000
0000
0000
0100
0000
0000
0000
0000
0000
0000
0000
0000
0000
0000
0000
0000
0000
0000
0000
0000
0000
0000
0000
0000
0000
0000
0000
10M0
0000
0000
0000
0000
0000
0000
0000
0000
0000
0000
0000
0000
0000
0000
0000
0000
0000
0000
0000
0000
0000
0000
0000
0100
0000
0000
0000
0000
0000
0000
0000
M000
0000
0000
0000
0000
0000
0000
0000
0000
0000
0000
0000
0000
0000
0000
0000
0010
0000
0000
0000
0000
0000
0000
0000
0000
0000
0000
0000
0000
0000
0000
0000
0000
0000
0000
0000
0000
0000
0000
0000
1M03
0000
0000
0000
0000
0000
0000
0000
0000
0000
0000
0000
0000
0000
0000
0000
0000
0000
0000
0000
0000
0000
0000
0000
00M1
0000
0000
0000
0000
0000
0000
0000
M000
0000
0000
0000
0000
0000
0000
0000
0000
0000
0000
0000
0000
0000
0000
0000
,
MMMM
MMMM
MMMM
MMMM
,
MMMM
MMMM
MMMM
MMMM
,
0010
0001
1000
0100
0100
0100
0100
1000
,
0100
1000
0010
1000
1000
0000
0000
0000
1010
1000
0000
0000
0000
0000
0000
0000
,
1000
0100
0001
0100
0001
0100
0001
0100
,
2000
0001
0010
0100
0010
0001
3010
1000
,
MMMM
MMMM
MMMM
MMMM
,
1000
0000
0100
0010
0001
00M0
1000
0100
0010
0M00
0001
1000
0100
M000
0010
0001
,
1000
0000
00M0
0100
0000
0000
0001
0000
0000
M010
0000
0000
M001
0000
0000
M100
0000
0000
0010
0000
0000
0001
0000
0000
1000
0000
0000
0100
0000
0000
0002
0000
0000
0000
0000
0000
0M00
0000
0000
00M0
0000
0000
0003
0000
0000
0000
0000
0000
,
1M00
0000
0010
M000
0001
00M0
0100
000M
0M10
1000
0001
M100
0010
0001
1000
0100
,
001M
0000
M100
0000
00M1
0M00
1000
000M
0100
M010
0001
1000
02M0
000M
M000
0000
,
20M2
00M0
00M0
00M0
00M0
00M0
00M0
00M0
00M0
00M0
00M0
00M0
00M0
00M0
00M0
00M0
00M0
00M0
00M0
00M0
00M0
00M0
00M0
00M0
00M0
00M0
00M0
00M0
00M0
00M0
00M0
00M0
00M0
00M0
00M0
00M0
00M0
00M0
00M0
00M0
00M0
00M0
00M0
00M0
00M0
00M0
00M0
00M0
00M0
00M0
00M0
00M0
00M0
00M0
00M0
00M0
00M0
00M0
00M0
00M0
00M0
00M0
00M0
00M0
,
33M3
0000
0000
0000
;

//---------------dance-single - ----------------
#NOTES:
     dance-single:
     :
     Beginner:
     1:
     0.138,0.181,0.015,0.030,0.000,62.000,1.000,2.000,0.000,0.000:
0000
0000
0000
0000
,
0000
0000
0000
0000
,
0000
0000
0000
0000
,
0000
0000
0000
0000
,
0000
0000
0000
0000
,
0000
0000
0000
0000
,
1000
0000
0001
0000
,
1000
0000
0001
0000
,
1000
0000
0001
0000
,
1000
0000
0001
0000
,
1000
0000
0001
0000
,
1000
0000
0001
0000
,
0001
0000
0000
0000
,
0010
0000
0000
0000
,
0100
0000
0000
0000
,
1000
0000
0000
0000
,
0010
0000
0000
0000
,
0100
0000
0000
0000
,
0001
0000
0000
0000
,
1000
0000
0000
0000
,
1000
0000
0100
0000
,
0010
0000
0100
0000
,
0010
0000
0100
0000
,
0010
0000
0100
0000
,
0010
0000
0100
0000
,
0010
0000
0100
0000
,
0001
0000
0000
0000
,
1000
0000
0000
0000
,
0100
0000
0000
0000
,
0010
0000
0000
0000
,
0100
0000
0000
0000
,
1000
0000
0000
0000
,
0001
0000
0000
0000
,
0010
0000
0000
0000
,
0100
0000
0000
0000
,
1000
0000
0000
0000
,
0010
0000
0000
0000
,
0100
0000
0010
0000
,
0100
0000
0010
0000
,
0100
0000
0010
0000
,
0100
0000
0010
0000
,
0100
0000
0010
0000
,
0100
0000
0010
0000
,
0100
0000
0010
0000
,
1000
0000
0000
0000
,
0100
0000
0000
0000
,
0001
0000
0000
0000
,
0100
0000
0000
0000
,
0220
0000
0000
0330
;

//---------------dance-single - ----------------
#NOTES:
     dance-single:
     :
     Medium:
     8:
     0.563,0.797,0.015,0.386,0.111,238.000,1.000,26.000,0.000,0.000:
0000
0000
0000
0000
,
0000
0000
0000
0000
,
0000
0000
0000
0000
,
0000
0000
0000
0000
,
0000
0000
0000
0000
,
0000
0000
0000
0000
,
0000
0000
0000
0000
,
1000
0100
1000
0100
1000
0100
1000
0100
,
2000
0000
0000
0000
3100
0000
0000
0000
0020
0030
0000
0000
0000
0000
0000
0000
,
1000
0100
0010
0001
0010
0100
1000
0010
,
0200
0010
0010
0010
0010
0010
0010
0300
,
0000
0000
0000
0000
,
1000
0100
0010
0100
1000
0100
0010
0001
,
2000
0001
0001
0001
0001
0001
0001
3000
,
0001
0010
0001
0100
0001
1000
0001
0100
,
0010
1000
0010
0100
0001
0000
0100
0010
,
2000
0000
0000
0000
3001
0010
0100
1000
,
0100
2000
3000
1000
0100
0010
0001
0010
,
1000
0000
0020
0000
0030
0000
0001
0000
1000
0000
0000
0000
1000
0100
1000
0000
,
0100
0010
0001
1000
0100
0010
0001
0010
,
0000
0000
0000
0000
,
0000
0000
0000
0000
,
0001
0010
0001
0010
0001
0010
0001
0010
,
0002
0000
0000
0000
0013
0000
0000
0000
0200
0300
0000
0000
0000
0000
0000
0000
,
0001
0010
0100
1000
0100
0010
0001
0100
,
0020
0100
0100
0100
0100
0100
0100
0030
,
0000
0000
0000
0000
,
1000
0100
0010
0001
0010
0002
0003
0001
,
1000
0100
1000
0010
1000
0100
0001
0100
,
1000
0000
0010
0100
0010
0000
0100
0010
0100
0000
0010
0100
0010
0000
0100
0010
,
0100
0220
0000
0330
,
1000
0100
0010
0001
0010
1000
0001
0200
,
0300
1000
0100
0010
0001
1000
0100
0010
,
0001
0000
1000
0000
0001
0000
1000
0000
0001
0000
1000
0000
0001
1000
0001
1000
,
0001
0000
0000
0000
0001
1000
0001
1000
0001
1000
0001
1000
0001
1000
0001
1000
,
0001
1000
0001
1000
0100
0010
0001
0010
,
0200
0010
0010
0010
0010
0010
0010
0300
,
0000
0000
0000
0000
,
0000
0000
0000
0000
,
0100
0010
0100
0010
0100
0010
0100
0010
,
0200
0000
0000
0000
0310
0000
0000
0000
2000
3000
0000
0000
0000
0000
0000
0000
,
0100
0010
1000
0001
1000
0010
0100
0010
,
0200
0001
0001
0001
0001
0001
0001
0300
,
0000
0000
0000
0000
,
1000
0200
0000
0320
0000
0032
0000
0003
,
2000
0000
0000
3000
,
0001
0010
0100
1000
0002
0000
2003
0000
,
3001
0000
0100
0000
0010
0000
1000
0000
0100
1000
0100
1000
0200
0000
0000
0000
,
0020
0000
0000
0330
;
