#TITLE:Castlevania SOTN;
#SUBTITLE:- Bloody Tears;
#ARTIST:山根ミチル;
#TITLETRANSLIT:;
#SUBTITLETRANSLIT:;
#ARTISTTRANSLIT:Michiru Yamane;
#CREDIT:;
#BANNER:Bloody Tears (Castlevania Symphony of the Night).png;
#BACKGROUND:Bloody Tears (Castlevania Symphony of the Night)-BG.png;
#LYRICSPATH:;
#CDTITLE:;
#MUSIC:Bloody Tears (Castlevania Symphony of the Night).mp3;
#OFFSET:-0.036;
#SAMPLESTART:24.991;
#SAMPLELENGTH:12.000;
#SELECTABLE:YES;
#BPMS:0.000=240.430;
#STOPS:240.000=0.748
;
#BGCHANGES:;
// cache tags:
#FIRSTBEAT:36.000;
#LASTBEAT:495.500;
#SONGFILENAME:Songs/Games/CastlevaniaSOTN/Bloody Tears (Castlevania Symphony of the Night).sm;
#HASMUSIC:1;
#HASBANNER:1;
#MUSICLENGTH:133.810;
// end cache tags

//---------------dance-single - ----------------
#NOTES:
     dance-single:
     :
     Easy:
     5:
     0.323,0.322,0.045,0.075,0.000,287.000,6.000,10.000,0.000,0.000:  // measure 1
0000
0000
0000
0000
,  // measure 2
0000
0000
0000
0000
,  // measure 3
0000
0000
0000
0000
,  // measure 4
0000
0000
0000
0000
,  // measure 5
0000
0000
0000
0000
,  // measure 6
0000
0000
0000
0000
,  // measure 7
0000
0000
0000
0000
,  // measure 8
0000
0000
0000
0000
,  // measure 9
0000
0000
0000
0000
,  // measure 10
0010
0000
0000
0010
0000
0000
0100
0000
,  // measure 11
0000
0000
1000
0001
,  // measure 12
0100
0000
0000
0100
0000
0000
0010
0000
,  // measure 13
0000
0000
1000
0010
,  // measure 14
1000
0000
0000
1000
0000
0000
0001
0000
,  // measure 15
0000
0000
0010
0001
,  // measure 16
1000
0000
1010
0000
,  // measure 17
0001
0000
0101
0000
,  // measure 18
0010
0000
0000
0010
0000
0000
1000
0000
,  // measure 19
0000
0000
0001
0010
,  // measure 20
0001
0000
0000
0001
0000
0000
1000
0000
,  // measure 21
0000
0000
0100
1000
,  // measure 22
0001
0000
0000
0001
0000
0000
0100
0000
,  // measure 23
0000
0000
0010
0100
,  // measure 24
0010
0000
1001
0000
,  // measure 25
1000
0100
0010
0001
,  // measure 26
1000
0000
0000
1000
0000
0000
0000
0000
,  // measure 27
0010
0000
0000
0100
0000
0000
0000
0000
,  // measure 28
0010
0000
0000
1000
0000
0000
0000
0000
,  // measure 29
0001
0010
0100
1000
,  // measure 30
0001
0000
0000
0001
0000
0000
0000
0000
,  // measure 31
0100
0000
0000
0010
0000
0000
0000
0000
,  // measure 32
0100
0000
0000
0001
0000
0000
0000
0000
,  // measure 33
1000
0010
0100
0001
,  // measure 34
1000
0000
0000
0100
0000
0000
0000
0000
,  // measure 35
0010
0000
0000
0001
0000
0000
0000
0000
,  // measure 36
1000
0000
0000
0010
0000
0000
0000
0000
,  // measure 37
0001
0010
0100
1000
,  // measure 38
0010
0000
0000
0100
0000
0000
0000
0000
,  // measure 39
0010
0000
0000
1000
0000
0000
0000
0000
,  // measure 40
0001
0000
0000
0010
0000
0000
0000
0000
,  // measure 41
1000
0010
0100
0001
,  // measure 42
0020
0000
0000
0000
0000
0000
0000
0030
,  // measure 43
0000
0000
0000
0000
,  // measure 44
0000
0000
0000
0000
,  // measure 45
0000
0000
0000
0000
,  // measure 46
0100
0001
0100
0001
,  // measure 47
0000
1000
0100
0000
,  // measure 48
0010
0100
0010
0000
,  // measure 49
0001
1000
0001
0000
,  // measure 50
1000
0010
1000
0010
,  // measure 51
0000
1000
0100
0000
,  // measure 52
0010
0000
1001
0000
,  // measure 53
0010
1000
0100
0000
,  // measure 54
0010
0001
0010
0000
,  // measure 55
0001
1000
0001
0000
,  // measure 56
0100
0010
0100
0010
,  // measure 57
0000
1000
0001
0000
,  // measure 58
0010
0001
0010
0001
,  // measure 59
0000
1000
0001
1000
,  // measure 60
0001
0100
0010
1000
,  // measure 61
0000
0000
0010
0000
0000
0010
0000
0000
,  // measure 62
1000
0000
0001
0100
,  // measure 63
0001
0000
1000
0000
0000
1000
0000
0000
,  // measure 64
0100
0000
0010
0100
,  // measure 65
0010
0000
0001
0000
0000
0001
0000
0000
,  // measure 66
1000
0000
0010
1000
,  // measure 67
0010
0000
0100
0000
0000
0001
0000
0000
,  // measure 68
0000
0000
1000
0000
0000
0100
0000
0000
,  // measure 69
0000
0000
0010
0000
0000
0010
0000
0000
,  // measure 70
0001
0000
1000
0001
,  // measure 71
1000
0000
0010
0000
0000
0010
0000
0000
,  // measure 72
0100
0000
0001
0100
,  // measure 73
0001
0000
0100
0000
0000
0100
0000
0000
,  // measure 74
0010
0000
1000
0010
,  // measure 75
1000
0000
0001
0000
0000
0010
0000
0000
,  // measure 76
0000
0001
0010
0100
,  // measure 77
1000
0000
0001
0000
0000
0001
0000
0000
,  // measure 78
0000
0000
1000
0000
0000
1000
0000
0000
,  // measure 79
0000
0000
0010
0000
0000
0010
0000
0000
,  // measure 80
0000
1000
0010
0100
,  // measure 81
0001
0000
1000
0000
0000
1000
0000
0000
,  // measure 82
0000
0000
0100
0000
0000
0100
0000
0000
,  // measure 83
0000
0000
0010
0000
0000
0010
0000
0000
,  // measure 84
0000
0001
0010
0100
,  // measure 85
1000
0000
0001
0000
0000
0001
0000
0000
,  // measure 86
0000
0000
0100
0000
0000
0100
0000
0000
,  // measure 87
0000
0000
0010
0000
0000
0010
0000
0000
,  // measure 88
0000
1000
0010
0100
,  // measure 89
0001
0000
1000
0000
0000
1000
0000
0000
,  // measure 90
0000
0000
0001
0000
0000
0001
0000
0000
,  // measure 91
0000
0000
0100
0000
0000
0010
0000
0000
,  // measure 92
0000
0001
0010
0100
,  // measure 93
1000
0002
0000
0000
,  // measure 94
0000
0003
2000
0000
0000
0000
0000
0000
,  // measure 95
0000
3000
0002
0000
0000
0000
0000
0000
,  // measure 96
0000
0003
0200
0000
0000
0000
0000
0000
,  // measure 97
0000
0300
0020
0000
0000
0000
0000
0000
,  // measure 98
0000
0030
2000
0000
0000
0000
0000
0000
,  // measure 99
0000
3000
0002
0000
0000
0000
0000
0000
,  // measure 100
0000
0003
0020
0000
0000
0000
0000
0000
,  // measure 101
0000
0030
0001
0000
0000
0000
1000
0000
,  // measure 102
1000
0000
0010
0100
,  // measure 103
0100
0010
0000
1000
,  // measure 104
1000
0000
0001
0010
,  // measure 105
0100
0010
0000
0001
,  // measure 106
0001
0000
1000
0010
,  // measure 107
0010
0100
0000
0010
,  // measure 108
1000
0002
0000
0000
,  // measure 109
0000
0003
0010
0000
0001
0000
0010
0000
,  // measure 110
0001
0000
1000
0100
,  // measure 111
0000
1000
0001
1000
,  // measure 112
0000
0010
0100
0010
,  // measure 113
0000
1000
0010
1000
,  // measure 114
0001
0000
0010
0001
,  // measure 115
0000
1000
0000
1100
,  // measure 116
0000
0001
0000
0101
,  // measure 117
0000
1000
0010
1000
,  // measure 118
0001
0000
0100
0001
,  // measure 119
0000
1000
0100
1000
,  // measure 120
0100
0000
0010
0001
,  // measure 121
0000
0100
0010
0100
,  // measure 122
0000
0010
1000
0010
,  // measure 123
0000
1000
0100
0010
,  // measure 124
0001
0000
0000
0000
;

//---------------dance-single - ----------------
#NOTES:
     dance-single:
     :
     Medium:
     7:
     0.502,0.555,0.516,0.277,0.000,364.000,69.000,37.000,0.000,0.000:  // measure 1
0000
0000
0000
0000
,  // measure 2
0000
0000
0000
0000
,  // measure 3
0000
0000
0000
0000
,  // measure 4
0000
0000
0000
0000
,  // measure 5
0000
0000
0000
0000
,  // measure 6
0000
0000
0000
0000
,  // measure 7
0000
0000
0000
0000
,  // measure 8
0000
0000
0000
0000
,  // measure 9
0000
0000
0000
0000
,  // measure 10
0010
0000
0000
1000
0000
0000
0202
0000
,  // measure 11
0000
0303
0010
1000
,  // measure 12
0001
0000
0000
0010
0000
0000
0220
0000
,  // measure 13
0000
0330
0000
0000
0010
0000
0001
0000
,  // measure 14
1000
0000
0000
0010
0000
0000
2020
0000
,  // measure 15
3030
0001
0100
0001
,  // measure 16
1000
0000
0000
2200
0000
0000
3300
0000
,  // measure 17
0001
0000
0000
0202
0000
0000
0303
0000
,  // measure 18
1000
0000
0000
0100
0000
0000
0022
0000
,  // measure 19
0033
0001
1000
0010
,  // measure 20
0100
0000
0110
0110
,  // measure 21
2002
3003
1000
0010
,  // measure 22
0100
0000
0000
0101
0000
0000
1010
0000
,  // measure 23
0000
0001
0010
0001
,  // measure 24
1000
0000
0000
2200
0000
0000
3300
0000
,  // measure 25
1000
0100
0010
0001
,  // measure 26
0001
0000
0000
1100
0000
0000
1000
0000
,  // measure 27
0001
0000
0000
0101
0000
0000
0010
0000
,  // measure 28
1000
0000
0000
1010
0000
0000
1000
0000
,  // measure 29
0001
0010
0100
1000
,  // measure 30
0001
0000
0000
0101
0000
0000
1000
0000
,  // measure 31
0010
0000
0000
1010
0000
0000
0001
0000
,  // measure 32
0010
0000
0000
0011
0000
0000
1000
0000
,  // measure 33
1000
0010
0100
0001
,  // measure 34
1000
0000
0000
1100
0000
0000
0001
0000
,  // measure 35
0010
0000
0000
0011
0000
0000
1000
0000
,  // measure 36
0010
0000
0000
1010
0000
0000
1000
0000
,  // measure 37
0001
0010
0100
1000
,  // measure 38
0010
0000
0000
0101
0000
0000
0001
0000
,  // measure 39
0010
0000
0000
1100
0000
0000
1000
0000
,  // measure 40
0001
0000
0000
0101
0000
0000
0010
0000
,  // measure 41
1000
0010
0100
0001
,  // measure 42
2002
0000
0000
0000
,  // measure 43
0000
0000
0000
0000
0000
0000
0000
3003
,  // measure 44
0000
0000
0000
0000
,  // measure 45
0000
0000
0000
0000
,  // measure 46
1000
0001
0010
0100
,  // measure 47
1000
0100
0001
0100
,  // measure 48
1000
0010
1000
0001
,  // measure 49
0010
0100
0010
0001
,  // measure 50
0100
1000
0100
0001
,  // measure 51
1000
0001
0100
0001
,  // measure 52
1000
0100
0010
0001
,  // measure 53
0010
1000
0010
0001
,  // measure 54
1000
0010
0100
0010
,  // measure 55
0001
0010
0100
0010
,  // measure 56
1000
0001
0010
1000
,  // measure 57
0010
0001
1000
0010
,  // measure 58
1000
0001
0100
1000
,  // measure 59
0100
0010
1000
0100
,  // measure 60
0001
0100
1000
0001
,  // measure 61
0000
0000
1001
0000
0000
0010
0000
0000
,  // measure 62
2200
3300
0001
0100
,  // measure 63
0010
0000
0100
0000
0000
0001
0000
0000
,  // measure 64
2002
3003
1000
0001
,  // measure 65
0010
0000
0100
0000
0000
1000
0000
0000
,  // measure 66
0202
0303
0100
0010
,  // measure 67
0100
0000
0001
0000
0000
0022
0000
0000
,  // measure 68
0033
0000
0100
0000
0000
2200
0000
0000
,  // measure 69
3300
0000
1000
0000
0000
0001
0000
0000
,  // measure 70
0022
0000
0033
0010
,  // measure 71
0001
1000
0000
1001
,  // measure 72
1001
0220
0330
1000
,  // measure 73
0001
0000
0100
0000
0000
0110
0000
0000
,  // measure 74
2020
3030
0001
0010
,  // measure 75
0001
0000
1000
0000
0000
2200
0000
0000
,  // measure 76
3300
0001
0010
0100
,  // measure 77
1000
0000
1100
0000
0000
0011
0000
0000
,  // measure 78
0000
0000
1001
0000
0000
1010
0000
0000
,  // measure 79
0000
0000
1001
0000
0000
0101
0000
0000
,  // measure 80
1000
0001
0010
0100
,  // measure 81
1000
0000
1100
0000
0000
0101
0000
0000
,  // measure 82
0000
0000
0101
0000
0000
1010
0000
0000
,  // measure 83
0000
0000
1010
0000
0000
0011
0000
0000
,  // measure 84
0001
0001
0010
0100
,  // measure 85
1000
0000
1100
0000
0000
0110
0000
0000
,  // measure 86
0000
0000
0101
0000
0000
0110
0000
0000
,  // measure 87
0000
0000
1100
0000
0000
0101
0000
0000
,  // measure 88
0010
1000
0010
0100
,  // measure 89
0001
0000
1001
0000
0000
0110
0000
0000
,  // measure 90
0000
0000
0110
0000
0000
1001
0000
0000
,  // measure 91
0000
0000
1010
0000
0000
0101
0000
0000
,  // measure 92
0001
1000
0010
0100
,  // measure 93
0001
0000
1000
0000
0001
0100
0000
0000
,  // measure 94
0001
0000
0001
0000
1000
0100
0000
0000
,  // measure 95
1000
0000
1000
0000
0001
0010
0000
0000
,  // measure 96
0001
0000
0001
0000
0010
0100
0000
0000
,  // measure 97
0000
0000
1000
0000
0001
0100
0000
0000
,  // measure 98
0001
0000
0001
0000
1000
0010
0000
0000
,  // measure 99
1000
0000
1000
0000
0100
0010
0000
0000
,  // measure 100
0001
0011
1000
0010
,  // measure 101
1000
0000
0001
0000
0000
0101
0000
0000
,  // measure 102
1000
0000
0010
0000
0000
1010
0000
0000
,  // measure 103
0001
0000
0010
0000
0000
0110
0000
0000
,  // measure 104
0010
0001
0010
0100
,  // measure 105
1000
0000
0001
0000
0000
0101
0000
0000
,  // measure 106
0100
0000
0010
0000
0000
1010
0000
0000
,  // measure 107
0001
0000
0010
0000
0000
0110
0000
0000
,  // measure 108
1000
0001
0010
0100
,  // measure 109
1000
0001
0100
1000
,  // measure 110
0100
0001
0010
0100
,  // measure 111
1000
0010
1000
0100
,  // measure 112
0001
0100
0010
0100
,  // measure 113
1000
0001
0100
0010
,  // measure 114
0100
0001
0010
1000
,  // measure 115
0010
0001
1000
0010
,  // measure 116
0001
0010
0100
0001
,  // measure 117
0010
0100
1000
0010
,  // measure 118
0100
0010
1000
0100
,  // measure 119
0001
0010
1000
0010
,  // measure 120
0100
0001
0010
1000
,  // measure 121
0010
0001
0100
1000
,  // measure 122
0010
0001
1000
0100
,  // measure 123
0001
0100
0010
0001
,  // measure 124
1000
0000
0020
0000
0000
0000
0000
0030
;

//---------------dance-single - ----------------
#NOTES:
     dance-single:
     :
     Hard:
     9:
     0.668,0.648,0.217,0.112,0.000,582.000,29.000,15.000,0.000,0.000:  // measure 1
0000
0000
0000
0000
,  // measure 2
0000
0000
0000
0000
,  // measure 3
0000
0000
0000
0000
,  // measure 4
0000
0000
0000
0000
,  // measure 5
0000
0000
0000
0000
,  // measure 6
0000
0000
0000
0000
,  // measure 7
0000
0000
0000
0000
,  // measure 8
0000
0000
0000
0000
,  // measure 9
0000
0000
0000
0000
,  // measure 10
1000
0001
1000
0001
0000
0100
0010
0000
,  // measure 11
0000
0100
0001
0000
0010
0000
0011
0000
,  // measure 12
0100
1000
0100
1000
0000
0001
0100
0000
,  // measure 13
0000
0001
1000
0000
0010
0000
1010
0000
,  // measure 14
1000
0010
1000
0001
0000
1000
0100
0000
,  // measure 15
0000
0010
0100
0000
1000
0000
1001
0000
,  // measure 16
1000
0000
0001
0010
0000
0100
0010
0000
,  // measure 17
0001
0000
1000
0010
0000
1000
0100
0000
,  // measure 18
0010
0100
0010
0001
0000
1000
0010
0000
,  // measure 19
0000
1000
0001
0000
0100
0000
0101
0000
,  // measure 20
0010
0100
0010
1000
0000
0001
1000
0000
,  // measure 21
0000
0100
1000
0000
0100
0000
0110
0000
,  // measure 22
0001
0010
0001
1000
0000
0001
0100
0000
,  // measure 23
0000
0010
0100
0000
0001
0000
1001
0000
,  // measure 24
1000
0000
0100
0010
0000
0100
1000
0000
,  // measure 25
0010
1000
0010
1000
0001
1000
0100
0000
,  // measure 26
0010
0000
0001
1000
0000
1000
0010
0000
,  // measure 27
0100
0000
0001
1000
0000
0100
1000
0000
,  // measure 28
0001
0000
0100
0010
0000
0010
1000
0000
,  // measure 29
0100
1000
0100
1000
0001
1000
0010
0000
,  // measure 30
0100
0000
0001
0010
0000
0010
0100
0000
,  // measure 31
1000
0000
0001
0100
0000
0001
1000
0000
,  // measure 32
0100
0000
1000
0002
0000
0003
0011
0000
,  // measure 33
0011
0000
0010
0001
1000
0001
0100
0000
,  // measure 34
0001
0000
1000
0010
0000
0010
1000
0000
,  // measure 35
0001
0000
0100
1000
0000
0100
0001
0000
,  // measure 36
1000
0000
0100
0010
0000
0010
0001
0000
,  // measure 37
0010
0001
0010
0001
1000
0001
0100
0000
,  // measure 38
0001
0000
0100
0010
0000
0010
0100
0000
,  // measure 39
0001
0000
1000
0100
0000
0001
0100
0000
,  // measure 40
1000
0000
0010
1000
0000
1000
0001
0000
,  // measure 41
0010
0001
0010
0001
0010
0100
1000
0000
,  // measure 42
1001
2002
0000
0000
,  // measure 43
0000
0000
0000
0000
0000
0000
0000
3003
,  // measure 44
0000
0000
0000
0000
,  // measure 45
0000
0000
0000
0000
,  // measure 46
1000
0000
0001
0000
0100
0010
0100
0000
,  // measure 47
0001
1000
0001
0000
1000
0000
0100
1000
,  // measure 48
0100
0000
1000
0000
0001
0010
0001
0000
,  // measure 49
0010
0000
0100
0000
1000
0100
1000
0100
,  // measure 50
0010
0000
0001
0000
0010
0001
1000
0000
,  // measure 51
0010
1000
0010
0000
0100
0000
0001
0100
,  // measure 52
0001
0000
1000
0000
0001
0100
0010
0000
,  // measure 53
0100
0000
0010
1000
0010
0100
0010
0001
,  // measure 54
0010
0000
1000
0001
1000
0000
0001
0010
,  // measure 55
0001
0000
1000
0100
1000
0000
0001
1000
,  // measure 56
0010
0100
0010
0100
0001
0000
1000
0000
,  // measure 57
0100
0010
0100
0000
1000
0001
1000
0000
,  // measure 58
0001
0000
0100
0010
1000
0000
0010
1000
,  // measure 59
0001
0000
0010
0001
1000
0000
0100
1000
,  // measure 60
0001
0100
0001
1000
,  // measure 61
0000
0000
0001
0100
0001
1000
0000
0001
,  // measure 62
0010
0000
0000
0100
1000
0000
0100
0000
,  // measure 63
0110
0000
1000
0001
1000
0010
0000
0100
,  // measure 64
0010
0000
0000
0001
0010
0000
0100
0000
,  // measure 65
0101
0000
0001
1000
0001
0010
0000
0100
,  // measure 66
0010
0000
0000
0001
1000
0000
0010
0000
,  // measure 67
1010
0000
0100
0000
0001
0010
0000
0100
,  // measure 68
0010
0000
0001
0000
1000
0010
0000
0001
,  // measure 69
0010
0000
0100
0010
0100
0001
0000
0010
,  // measure 70
0001
0000
0000
1000
0010
0000
1000
0000
,  // measure 71
1100
0000
0100
0010
0100
0001
0000
0100
,  // measure 72
1000
0000
0000
0001
0100
0000
0010
0000
,  // measure 73
1010
0000
1000
0001
1000
0100
0000
0010
,  // measure 74
0001
0000
0000
0010
0100
0000
1000
0000
,  // measure 75
1001
0000
0001
0000
0010
1000
0000
0010
,  // measure 76
0001
0000
0100
0001
0100
0010
0100
1000
,  // measure 77
0100
0000
0010
0000
1000
0010
0000
0001
,  // measure 78
0010
0000
1000
0001
1000
0100
0000
0010
,  // measure 79
0100
0000
1000
0001
1000
0010
0000
0100
,  // measure 80
0001
0000
0100
0001
0010
0000
0100
0000
,  // measure 81
0010
0000
0001
0000
1000
0010
0000
1000
,  // measure 82
0100
0000
0010
0100
0010
1000
0000
0010
,  // measure 83
0100
0000
1000
0001
1000
0020
0000
0030
,  // measure 84
1010
0000
1010
0000
0010
0100
0001
0000
,  // measure 85
1000
0000
0001
0000
0100
1000
0000
0100
,  // measure 86
0001
0000
1000
0001
1000
0010
0000
1000
,  // measure 87
0100
0000
0010
0100
0010
0001
0000
1000
,  // measure 88
0010
0000
0100
0010
0001
0000
0010
0000
,  // measure 89
0100
0000
0001
0000
0010
1000
0000
0010
,  // measure 90
0001
0000
0010
0001
0010
0100
0000
1000
,  // measure 91
0001
0000
0100
0001
0100
0010
0000
0000
,  // measure 92
1000
0002
0023
0230
,  // measure 93
2300
0000
3001
0000
1000
0100
0000
0000
,  // measure 94
0010
0000
0100
0000
1000
0001
0000
0000
,  // measure 95
0100
0000
0001
0000
0010
0001
0000
0000
,  // measure 96
0100
0000
0010
1000
0010
0000
0100
0000
,  // measure 97
0001
0000
0100
0000
0001
1000
0000
0000
,  // measure 98
0001
0000
0010
0000
0100
0001
0000
0000
,  // measure 99
0100
0000
0010
0000
0001
1000
0000
0000
,  // measure 100
0010
0000
0110
0000
0100
0001
1000
0001
,  // measure 101
0010
0000
0011
0000
0100
1000
0000
1000
,  // measure 102
0001
0000
0101
0000
0100
0010
0000
0010
,  // measure 103
1000
0000
1010
0000
0010
0100
0000
0100
,  // measure 104
0001
0000
0010
0001
0010
0000
0100
0000
,  // measure 105
1000
0000
1100
0000
0100
0010
0000
0010
,  // measure 106
0001
0000
1001
0000
1000
0010
0000
0010
,  // measure 107
0100
0000
0101
0000
0001
1000
0000
1000
,  // measure 108
0100
0010
0000
1001
,  // measure 109
1001
0000
0010
0001
0010
0100
0000
0100
,  // measure 110
1000
0000
0001
1000
0001
0100
0000
0100
,  // measure 111
0010
0000
1000
0010
1000
0100
0000
0100
,  // measure 112
0010
0000
0001
0010
0002
0000
0023
0000
,  // measure 113
0230
0000
1300
0100
1000
0001
0000
0001
,  // measure 114
0100
0000
0010
0100
0010
0001
0000
0001
,  // measure 115
0010
0000
1000
0001
1000
0100
0000
0100
,  // measure 116
0010
0000
0100
0001
0100
0010
0000
0010
,  // measure 117
0001
0000
1000
0001
1000
0010
0000
0010
,  // measure 118
0001
0000
0010
0001
0010
1000
0000
1000
,  // measure 119
0001
0000
0010
0001
0010
0100
0000
0100
,  // measure 120
1000
0000
0010
1000
0020
0000
0230
0000
,  // measure 121
0302
0000
1003
0001
1000
0100
0000
0100
,  // measure 122
0001
0000
0100
0010
0100
1000
0000
1000
,  // measure 123
0010
0100
0001
1100
,  // measure 124
0101
0000
0020
0000
0000
0000
0000
0030
;
