#TITLE:Ojamajo Doremi;
#SUBTITLE:- Ojamajo Carnival;
#ARTIST:Maho-Dou;
#TITLETRANSLIT:;
#SUBTITLETRANSLIT:;
#ARTISTTRANSLIT:;
#CREDIT:Anime Toshokan;
#BANNER:Ojamajo Doremi - Ojamajo Carnival.png;
#BACKGROUND:Ojamajo Doremi - Ojamajo Carnival bg.png;
#LYRICSPATH:;
#CDTITLE:dejiko.png;
#MUSIC:Ojamajo Doremi - Ojamajo Carnival.mp3;
#OFFSET:-0.916;
#SAMPLESTART:41.540;
#SAMPLELENGTH:13.100;
#SELECTABLE:YES;
#DISPLAYBPM:147.000;
#BPMS:0.000=147.140,180.000=146.840;
#STOPS:;
#BGCHANGES:;
// cache tags:
#FIRSTBEAT:4.000;
#LASTBEAT:216.000;
#SONGFILENAME:Songs/DDR Anime 5th Mix/Ojamajo Doremi - Ojamajo Carnival/Ojamajo Doremi - Ojamajo Carnival.sm;
#HASMUSIC:1;
#HASBANNER:1;
#MUSICLENGTH:93.753;
// end cache tags

//---------------dance-single - CHALLENGE----------------
#NOTES:
     dance-single:
     CHALLENGE:
     Challenge:
     9:
     0.657,0.605,0.256,0.245,0.293,384.000,24.000,23.000,0.000,0.000:
0000
0000
0000
0000
,
1001
0000
1000
0001
1000
0100
0000
0010
0000
0000
1000
0000
0100
0000
0010
0000
,
0001
0000
1000
0000
0001
0200
0000
0020
0300
0000
0002
0000
0000
0000
0033
0000
,
0110
0000
1000
0010
0001
0100
0000
1000
0000
0000
0100
0000
0010
0000
0100
0000
,
1010
0000
0000
0000
0110
0000
0000
0000
2000
0100
0000
0001
0000
0000
3100
0000
,
1001
0000
1000
0001
1000
0100
0000
0010
0000
0000
1000
0000
0100
0000
0010
0000
,
0001
0000
1000
0000
0001
0200
0000
0020
0300
0000
0002
0000
0000
0000
0033
0000
,
1100
0000
0010
0001
1000
0100
0000
0001
0000
0000
0100
0000
1000
0000
0010
0000
,
2000
0002
0000
3003
,
0001
0000
0010
0001
0100
0000
0010
1000
0100
0000
1000
0000
0001
0000
0100
0000
,
1000
0010
1000
0100
0000
1000
0100
1000
0001
0000
1000
0000
0010
0000
0001
0000
,
0200
0000
1000
0000
0001
0000
1300
0010
,
1010
0000
0001
0100
0000
0001
0000
0000
,
0001
0000
0001
0100
0001
0000
1000
0010
1000
0000
1000
0000
0010
0000
0100
0000
,
0001
0000
1000
0100
0010
0000
0001
1000
0100
0000
1000
0000
0100
0000
0001
0000
,
0020
0000
1000
0000
0001
0000
1030
0100
,
0011
0000
0000
0000
1000
0000
0100
0000
0000
0000
0000
0000
1000
0000
0000
0100
,
1000
0000
0000
1000
0001
0000
0000
0001
0010
0000
0000
0010
0100
0000
0000
0100
,
1000
0000
0000
1000
0100
0000
0000
0100
1000
0000
0000
1000
0001
0000
0000
0001
,
0010
0000
0000
0010
0001
0000
0000
0001
1000
0000
0000
1000
0100
0000
0000
0100
,
0010
0000
0000
0010
0100
0000
0000
0100
0010
0000
0000
0010
0001
0000
0000
0001
,
1000
0100
1000
0001
1000
0000
0010
0100
,
0000
0001
1000
0100
0010
0100
1000
0001
,
0100
0000
0000
0000
1000
0000
0010
0001
0010
0000
1000
0000
0100
0000
1000
0000
,
0000
0001
1000
0010
1000
0010
0001
0100
,
0002
1000
1000
1000
1000
1003
1000
0100
,
0000
0000
0010
0001
0010
0100
1000
0001
,
2000
0001
0001
0001
0001
3001
0001
0100
,
0000
0000
0010
0100
0001
1000
0010
1000
,
0020
1000
1000
1000
1000
1030
1000
0001
,
0000
0000
0001
0100
0010
1000
0001
1000
,
0200
0001
0001
0001
0001
0301
0001
0010
,
1000
0000
0001
0100
0001
0000
1000
0000
0001
0000
0010
0000
0100
0000
1000
0000
,
0010
0000
1000
0001
1000
0000
0100
0000
0010
0000
0001
0000
1100
0000
0000
0000
,
0010
0000
0001
0100
0001
0000
1000
0000
0010
0000
1000
0000
0001
0000
0100
0000
,
0020
0000
1000
0000
0001
0000
0100
0130
,
0001
1000
0010
0100
0001
1000
0101
0000
,
0100
1000
0100
0010
1000
0001
0010
0100
,
0001
0000
0001
0010
0001
0000
1000
0000
1010
0000
0000
0000
1000
0000
0100
0000
,
0001
0010
0001
0100
1000
0010
0100
0001
,
1010
0000
0101
0000
2200
0000
0000
3300
,
1000
0100
0001
0100
1000
0100
0010
0001
,
1000
0000
0100
0010
0100
0000
0001
0000
1100
0000
0000
0000
1000
0000
0001
0000
,
0200
0000
0000
0001
0301
0000
1000
1000
,
0010
1000
0001
0100
0010
0000
0101
0000
2200
0000
0000
0000
3300
0000
0000
0000
,
0010
1000
0010
0100
0001
0100
1000
0100
,
1000
0000
0010
1000
0010
0000
1000
0000
0100
0000
0000
0000
0001
0000
0010
0000
,
0001
0000
0100
1000
0100
1000
0010
1000
,
0011
0101
2200
3300
,
1000
0010
1000
0010
0100
0001
0100
0001
,
0010
0000
0100
1000
0100
0000
1000
0000
1001
0000
0000
0000
1000
0000
0001
0000
,
1000
0000
0001
0100
0010
0100
0001
0100
,
0010
1000
0010
1000
1010
0000
0001
0010
,
0001
0010
0011
0000
1000
0001
1000
0001
,
1001
0000
0000
0000
;
