#TITLE:Love Hina;
#SUBTITLE:- Dai Pinch;
#ARTIST:Love Hina Sound Crew;
#TITLETRANSLIT:;
#SUBTITLETRANSLIT:;
#ARTISTTRANSLIT:;
#CREDIT:Anime Toshokan;
#BANNER:Love Hina - Dai Pinch.png;
#BACKGROUND:Love Hina - Dai Pinch bg.png;
#LYRICSPATH:;
#CDTITLE:dejiko.png;
#MUSIC:Love Hina - Dai Pinch.mp3;
#OFFSET:0.476;
#SAMPLESTART:41.060;
#SAMPLELENGTH:19.200;
#SELECTABLE:YES;
#BPMS:0.000=150.000;
#STOPS:;
#BGCHANGES:;
// cache tags:
#FIRSTBEAT:4.000;
#LASTBEAT:260.000;
#SONGFILENAME:Songs/DDR Anime 4th Mix/Love Hina - Dai Pinch/Love Hina - Dai Pinch.sm;
#HASMUSIC:1;
#HASBANNER:1;
#MUSICLENGTH:109.434;
// end cache tags

//---------------dance-single - BASIC----------------
#NOTES:
     dance-single:
     BASIC:
     Easy:
     4:
     0.346,0.505,0.000,0.000,0.000,265.000,0.000,0.000,0.000,0.000:
0000
0000
0000
0000
,
1000
0100
0010
0001
,
0010
0100
0010
0100
,
1000
0100
0010
0001
,
0010
0100
0010
0001
,
0100
0010
0001
0010
,
0100
1000
0100
0010
,
0001
1000
0100
0010
,
0001
0010
0100
1000
,
1000
0100
0010
0001
,
0010
0100
1000
0100
,
0010
0001
0010
0100
,
0010
0001
0001
0010
,
1000
0001
1000
0001
0000
0000
0000
0000
,
1000
0001
1000
0001
,
0100
0010
0100
0010
0000
0000
0000
0000
,
0010
0100
0010
0100
,
1000
0100
0010
0001
,
0010
0100
0010
0001
,
0010
0100
1000
0100
,
0010
0001
0010
0001
,
0010
0100
1000
0100
,
1000
0010
0001
0100
,
1000
0100
0010
0001
,
0010
0100
1000
0100
,
0010
0001
0010
0100
,
1000
0100
0001
0100
,
1000
0100
0001
0100
,
1000
0100
0001
0100
,
1000
0100
0001
0010
,
0001
0100
0001
0010
,
0001
0100
0001
0010
,
1000
0001
0100
1000
,
0100
0001
1000
0100
,
0001
0010
0100
1000
,
0100
0010
0001
0010
,
0100
1000
0010
0100
,
1000
0100
0010
0001
,
0001
1000
0001
1000
0000
0000
0000
0000
,
0010
0100
0010
0100
0000
0000
0000
0000
,
1000
0001
1000
0001
0100
0010
0100
0010
,
1000
0001
1000
0001
0010
0100
0010
0100
,
1000
0100
0010
0001
,
0010
0100
1000
1000
,
0100
0010
0001
0010
,
0100
1000
0100
1000
,
0001
0010
0100
1000
,
0100
0010
0001
0001
,
0010
0100
1000
0100
,
0010
0001
0001
1000
,
0010
0100
0010
0100
0000
0000
0000
0000
,
1000
1000
1000
1000
,
0001
1000
0001
1000
0000
0000
0000
0000
,
0001
0001
0001
0001
,
1000
0100
0010
0001
,
0010
0100
0010
0001
,
0010
0100
0010
0001
,
0010
0100
1000
0100
,
0010
0001
0001
0010
,
0100
1000
0100
1000
,
0100
0010
0001
0010
,
0100
1000
0100
0010
,
0001
0010
0100
0010
,
0001
0010
0100
1000
,
0100
0001
1000
0001
,
1000
0000
0000
0000
;

//---------------dance-single - ANOTHER----------------
#NOTES:
     dance-single:
     ANOTHER:
     Medium:
     6:
     0.422,0.504,0.000,0.000,0.000,323.000,0.000,0.000,0.000,0.000:
0000
0000
0000
0000
,
1000
0100
0010
0001
,
0010
0100
1000
0100
,
0010
0001
0010
0000
0100
1000
0100
0000
,
0010
0001
0010
0000
0100
0010
0100
0000
,
1000
0010
0001
0000
0001
0100
1000
0000
,
1000
0010
0001
0000
0001
0100
1000
0000
,
0010
0001
0100
0000
0100
0001
0010
0000
,
0010
0001
0100
0000
0100
0001
0010
0000
,
1000
0010
0100
0000
0100
0010
1000
0000
,
1000
0010
0100
0000
0100
0010
1000
0000
,
0100
0010
0100
0000
0001
1000
0001
0000
,
0100
0010
0100
0000
0001
0010
0001
0000
,
1000
0001
1000
0001
0000
0000
0000
0000
,
1000
0100
0010
0001
,
1000
0100
1000
0100
0000
0000
0000
0000
,
0001
0010
0100
1000
,
0001
0010
0100
1000
,
0100
0010
0001
0010
,
0100
0010
0001
0010
,
0010
0100
1000
0100
,
0010
0001
0010
0010
,
0100
1000
0100
0010
,
0001
0010
0100
0100
,
0010
0001
0010
0100
,
1000
0100
0010
0001
,
0100
0010
0100
0010
,
0100
0010
0100
0010
,
1000
0100
0010
0001
,
0010
0100
1000
0100
,
0010
0001
1000
0001
,
1000
0001
1000
0001
,
0100
1000
0100
1000
,
0100
1000
0100
1000
,
0100
0010
0001
0100
,
0001
0010
0001
0100
,
0001
0010
0001
0100
,
0001
0010
0001
0100
,
1000
0001
1000
0001
0000
0000
0000
0000
,
0010
0100
0010
0100
0000
0000
0000
0000
,
1000
0001
1000
0001
0100
0010
0100
0010
,
1000
0001
1000
0001
0100
0010
0100
0010
,
1000
0010
0001
0000
0001
0010
1000
0000
,
1000
0010
0001
0000
0001
0010
1000
0000
,
1000
0100
0001
0000
0001
0100
1000
0000
,
1000
0100
0001
0000
0001
0100
1000
0000
,
0010
1000
0100
0000
0100
0001
0010
0000
,
0010
1000
0100
0000
0100
0001
0010
0000
,
1000
0100
1000
0000
0010
0001
0010
0000
,
1000
0001
1000
0000
0010
0100
0010
0000
,
1000
0001
1000
0001
0000
0000
0000
0000
,
1000
0010
0100
0001
,
0010
0100
0010
0100
0000
0000
0000
0000
,
0001
0100
0010
1000
,
0010
0001
0100
0000
0100
1000
0010
0000
,
1000
0100
0010
0000
0010
0100
1000
0000
,
1000
0100
0010
0000
0100
0010
0001
0000
,
0010
0100
1000
0000
0100
0010
0001
0000
,
1000
0100
0010
0000
0100
0010
0001
0000
,
0010
0100
1000
0000
0100
0010
0001
0000
,
0010
0100
1000
0000
0100
0010
1000
0000
,
0100
0010
0100
0000
0010
0001
0100
0000
,
0010
1000
0100
0000
0010
0100
0001
0000
,
1000
0010
0100
0001
0000
0001
0000
1000
,
0001
0000
0100
1000
0010
0100
0010
1000
;

//---------------dance-single - MANIAC----------------
#NOTES:
     dance-single:
     MANIAC:
     Hard:
     8:
     0.585,0.504,0.000,0.000,0.000,448.000,0.000,0.000,0.000,0.000:
0000
0000
0000
0000
,
1000
0100
0010
0001
,
0010
0100
1000
0100
,
0010
0001
0010
0100
1000
0100
0010
0001
,
0010
0100
1000
0100
0010
0001
0010
0100
,
1000
0100
0010
0001
1000
0100
0010
0001
,
1000
0100
0010
0001
0010
0000
0000
0000
,
0001
0010
0100
1000
0100
0010
0001
0010
,
0100
1000
0100
0010
0001
0000
0000
0000
,
0001
0100
0010
1000
0010
0100
0001
0100
,
0010
1000
0010
0001
0100
0000
0000
0000
,
1000
0010
0001
0100
1000
0010
0001
0100
,
1000
0010
0100
0001
0010
0000
0000
0000
,
1000
0001
1000
0001
0000
0000
0000
0000
,
1000
1000
1000
1000
,
1000
0001
1000
0001
0000
0000
0000
0000
,
0001
0001
0001
0001
,
0010
0100
0010
0100
,
0010
0100
0010
0001
1000
0100
0010
0001
,
1000
0100
0010
0001
1000
0100
0010
0001
,
1000
0001
0010
0100
1000
0001
0010
0100
,
1000
0001
0010
0100
1000
0001
0010
0100
,
1000
0001
1000
0010
0100
0001
1000
0010
,
0100
0001
1000
0010
0100
0001
1000
0010
,
0100
0001
1000
0100
0010
0001
1000
0100
,
0010
0001
1000
0100
0001
0010
0010
1000
,
0001
1000
0001
1000
0001
0010
0100
0010
,
0100
1000
0001
1000
0001
0010
0100
0010
,
0100
1000
0100
0010
0001
1000
0100
0010
,
0001
1000
0001
0010
0100
1000
0100
0010
,
0001
0010
0100
1000
0100
0010
0001
0010
,
0100
1000
0100
0010
0001
1000
0100
0010
,
0001
0010
0100
1000
0100
0010
0100
1000
,
0100
0010
0001
0010
0100
0010
0001
0010
,
0100
1000
0100
0010
0001
0010
0100
1000
,
0100
0010
0001
0010
0100
1000
0100
0010
,
0100
1000
0100
0010
0001
0010
0100
1000
,
0100
0010
0001
0010
0100
0010
0001
0010
,
0001
1000
0001
1000
0000
0000
0000
0000
,
0010
0100
0010
0100
0000
0000
0000
0000
,
1000
0001
1000
0001
0100
0010
0100
0010
,
1000
0100
1000
0100
0010
0100
0010
0100
,
1000
0100
0010
0001
0010
0100
1000
0100
,
0010
0001
0010
0100
1000
0100
0010
0100
,
1000
0010
0001
0010
0100
1000
0100
0010
,
0001
0010
0100
1000
0100
0010
0100
1000
,
0100
0010
0001
0010
0100
0010
0001
0010
,
0100
0001
1000
0100
0010
0001
1000
0100
,
0010
0001
1000
0100
0010
0001
0010
0100
,
1000
0100
0010
0100
1000
0100
0010
0001
,
1000
0001
1000
0001
0000
0000
0000
0000
,
1000
1000
1000
1000
,
1000
0001
1000
0001
0000
0000
0000
0000
,
1000
1000
1000
1000
,
0001
0010
0100
1000
0100
0010
0001
0100
,
0010
0001
0010
0100
1000
0100
0010
0001
,
0100
1000
0100
0010
0001
0010
0100
1000
,
0010
0001
0010
0100
1000
0100
0010
0001
,
0010
0100
1000
0100
0010
0001
0010
0100
,
1000
0100
0010
0100
1000
0100
0010
0001
,
0010
0100
1000
0100
0010
0001
0010
0100
,
1000
0100
0010
0100
1000
0100
0010
0001
,
0010
0100
0010
1000
0100
0010
0001
0010
,
0100
1000
0100
0010
0100
1000
0100
0010
,
0001
0010
0100
0010
0001
0010
0100
1000
;

//---------------dance-single - BEGINNER----------------
#NOTES:
     dance-single:
     BEGINNER:
     Beginner:
     2:
     0.161,0.148,0.000,0.000,0.000,123.000,0.000,0.000,0.000,0.000:
0000
0000
0000
0000
,
1000
0000
0010
0000
,
0010
0000
0010
0000
,
1000
0000
0010
0000
,
0010
0000
0010
0000
,
0100
0000
0001
0000
,
0100
0000
0100
0000
,
0001
0000
0100
0000
,
0001
0000
0100
0000
,
1000
0000
0010
0000
,
0010
0000
1000
0000
,
0010
0000
0010
0000
,
0010
0000
0001
0000
,
1000
0000
0000
0000
,
1000
0000
1000
0000
,
0100
0000
0000
0000
,
0010
0000
0010
0000
,
1000
0000
0010
0000
,
0010
0000
0010
0000
,
0010
0000
1000
0000
,
0010
0000
0010
0000
,
0010
0000
1000
0000
,
1000
0000
0001
0000
,
1000
0000
0010
0000
,
0010
0000
1000
0000
,
0010
0000
0010
0000
,
1000
0000
0001
0000
,
1000
0000
0001
0000
,
1000
0000
0001
0000
,
1000
0000
0001
0000
,
0001
0000
0001
0000
,
0001
0000
0001
0000
,
1000
0000
0100
0000
,
0100
0000
1000
0000
,
0001
0000
0100
0000
,
0100
0000
0001
0000
,
0100
0000
0010
0000
,
1000
0000
0010
0000
,
0001
0000
0000
0000
,
0010
0000
0000
0000
,
1000
0000
0100
0000
,
1000
0000
0010
0000
,
1000
0000
0010
0000
,
0010
0000
1000
0000
,
0100
0000
0001
0000
,
0100
0000
0100
0000
,
0001
0000
0100
0000
,
0100
0000
0001
0000
,
0010
0000
1000
0000
,
0010
0000
0001
0000
,
0010
0000
0000
0000
,
1000
0000
1000
0000
,
0001
0000
0000
0000
,
0001
0000
0001
0000
,
1000
0000
0010
0000
,
0010
0000
0010
0000
,
0010
0000
0010
0000
,
0010
0000
1000
0000
,
0010
0000
0001
0000
,
0100
0000
0100
0000
,
0100
0000
0001
0000
,
0100
0000
0100
0000
,
0001
0000
0100
0000
,
0001
0000
0100
0000
,
0100
0000
1000
0000
,
1000
0000
0000
0000
;
