#TITLE:Rival Schools;
#SUBTITLE:- United By Fate;
#ARTIST:Setsuo Yamamoto;
#TITLETRANSLIT:;
#SUBTITLETRANSLIT:;
#ARTISTTRANSLIT:;
#CREDIT:;
#BANNER:RSlogo.png;
#BACKGROUND:RSbg1.png;
#LYRICSPATH:;
#CDTITLE:;
#MUSIC:RivalSchoolsIntro.mp3;
#OFFSET:0.980;
#SAMPLESTART:34.788;
#SAMPLELENGTH:12.000;
#SELECTABLE:YES;
#BPMS:0.000=167.750;
#STOPS:;
#BGCHANGES:;
// cache tags:
#FIRSTBEAT:8.500;
#LASTBEAT:253.000;
#SONGFILENAME:Songs/Games/RivalSchools/RivalSchools.sm;
#HASMUSIC:1;
#HASBANNER:1;
#MUSICLENGTH:91.774;
// end cache tags

//---------------dance-single - ----------------
#NOTES:
     dance-single:
     :
     Easy:
     2:
     0.212,0.207,0.131,0.000,0.000,124.000,12.000,0.000,0.000,0.000:  // measure 1
0000
0000
0000
0000
,  // measure 2
0000
0000
0000
0000
,  // measure 3
0000
0000
0000
0000
0000
0011
0000
0000
,  // measure 4
0000
0100
0000
0000
0000
1000
0000
0000
,  // measure 5
0000
0001
0000
0000
0000
0010
0000
0000
,  // measure 6
0000
0100
0000
0000
0000
0100
0000
0000
,  // measure 7
0000
1000
0000
0000
0000
1000
0000
0000
,  // measure 8
0000
0001
0000
0000
0000
0001
0000
0000
,  // measure 9
0000
0010
0000
0000
0000
0010
0000
0000
,  // measure 10
0000
1001
0000
0000
0000
0001
0000
0000
,  // measure 11
0000
0010
0000
0000
0000
0010
0000
0000
,  // measure 12
0000
0100
0000
0000
0000
1000
0000
0000
,  // measure 13
0000
0001
0000
0000
0000
0110
0000
0000
,  // measure 14
0000
1000
0000
0000
0000
0001
0000
0000
,  // measure 15
0000
0100
0000
0000
0000
0010
0000
0000
,  // measure 16
0000
0001
0000
0000
0000
0010
0000
0000
,  // measure 17
0000
0001
0000
0000
0000
1000
0000
0000
,  // measure 18
0000
0100
0000
0000
0000
0010
0000
0000
,  // measure 19
0000
0101
0000
0000
0000
0010
0000
0000
,  // measure 20
0000
0010
0000
0000
0000
1000
0000
0000
,  // measure 21
0000
0001
0000
0000
0000
0100
0000
0000
,  // measure 22
0000
0100
0000
0000
0000
0100
0000
0000
,  // measure 23
0000
1000
0000
0000
0000
0001
0000
0000
,  // measure 24
0000
0010
0000
0000
0000
1010
0000
0000
,  // measure 25
0000
0100
0000
0000
0000
0010
0000
0000
,  // measure 26
0000
0100
0000
0000
0000
0010
0000
0000
,  // measure 27
0000
1000
0000
0000
0000
0001
0000
0000
,  // measure 28
0000
1000
0000
0000
0000
0001
0000
0000
,  // measure 29
0000
1000
0000
0000
0000
0010
0000
0000
,  // measure 30
0000
0001
0000
0000
0000
1000
0000
0000
,  // measure 31
0000
0100
0000
0000
0000
0001
0000
0000
,  // measure 32
0000
0110
0000
0000
0000
0001
0000
0000
,  // measure 33
0000
0001
0000
0000
0000
0001
0000
0000
,  // measure 34
0000
0010
0000
0000
0000
0010
0000
0000
,  // measure 35
0000
0010
0000
0000
0000
0100
0000
0000
,  // measure 36
0000
0100
0000
0000
0000
0100
0000
0000
,  // measure 37
0000
1001
0000
0000
0000
1000
0000
0000
,  // measure 38
0000
1000
0000
0000
0000
0001
0000
0000
,  // measure 39
0000
1000
0000
0000
0000
0100
0000
0000
,  // measure 40
0000
0010
0000
0000
0000
1000
0000
0000
,  // measure 41
0000
0001
0000
0000
0000
0100
0000
0000
,  // measure 42
0000
0010
0000
0000
0000
0100
0000
0000
,  // measure 43
0000
1000
0000
0000
0000
0001
0000
0000
,  // measure 44
0000
0110
0000
0000
0000
0010
0000
0000
,  // measure 45
0000
0001
0000
0000
0000
0001
0000
0000
,  // measure 46
0000
0100
0000
0000
0000
1000
0000
0000
,  // measure 47
0000
1000
0000
0000
0000
0001
0000
0000
,  // measure 48
0000
0001
0000
0000
0000
0010
0000
0000
,  // measure 49
0000
1000
0000
0000
0000
0001
0000
0000
,  // measure 50
0000
1100
0000
0000
0000
1000
0000
0000
,  // measure 51
0000
0100
0000
0000
0000
0001
0000
0000
,  // measure 52
0000
0010
0000
0000
0000
1000
0000
0000
,  // measure 53
0000
0100
0000
0000
0000
0100
0000
0000
,  // measure 54
0000
0100
0000
0000
0000
0100
0000
0000
,  // measure 55
0000
0010
0000
0000
0000
0010
0000
0000
,  // measure 56
0000
0010
0000
0000
0000
0010
0000
0000
,  // measure 57
0000
1000
0000
0000
0000
0001
0000
0000
,  // measure 58
0000
1000
0000
0000
0000
0001
0000
0000
,  // measure 59
0000
0100
0000
0000
0000
0010
0000
0000
,  // measure 60
0000
1000
0000
0000
0000
0001
0000
0000
,  // measure 61
0000
1001
0000
0000
0000
0100
0000
0000
,  // measure 62
0000
0110
0000
0000
0000
0100
0000
0000
,  // measure 63
0000
1001
0000
0000
0000
1000
0000
0001
,  // measure 64
0000
1000
0001
0000
0000
0000
0000
0000
;

//---------------dance-single - ----------------
#NOTES:
     dance-single:
     :
     Medium:
     3:
     0.241,0.276,0.218,0.000,0.000,135.000,20.000,0.000,0.000,0.000:  // measure 1
0000
0000
0000
0000
,  // measure 2
0000
0000
0000
0000
,  // measure 3
0000
0110
0000
0000
0000
1001
0000
0000
,  // measure 4
0000
0001
0000
1000
0000
0001
0000
0000
,  // measure 5
0000
0010
0000
0000
0000
0100
0000
0000
,  // measure 6
0000
1000
0000
0000
0000
0001
0000
0000
,  // measure 7
0000
1001
0000
0000
0000
0100
0000
0000
,  // measure 8
0000
0010
0000
0000
0000
1000
0000
0000
,  // measure 9
0000
0011
0000
0000
0000
0100
0000
0100
,  // measure 10
0000
0100
0000
0000
0000
1000
0000
0000
,  // measure 11
0000
0001
0000
0000
0000
0110
0000
0000
,  // measure 12
0000
0001
0000
0000
0000
1000
0000
0000
,  // measure 13
0000
0100
0000
0000
0000
0010
0000
0000
,  // measure 14
0000
1100
0000
0000
0000
0001
0000
0000
,  // measure 15
0000
0001
0000
0000
0000
1000
0000
0000
,  // measure 16
0000
1000
0000
0000
0000
0100
0000
0000
,  // measure 17
0000
0100
0000
0000
0000
0010
0000
0000
,  // measure 18
0000
0010
0000
0000
0000
0001
0000
0001
,  // measure 19
0000
0001
0000
0000
0000
0100
0000
0000
,  // measure 20
0000
1000
0000
0000
0000
0010
0000
0000
,  // measure 21
0000
0001
0000
0000
0000
0100
0000
0000
,  // measure 22
0000
0001
0000
0000
0000
0101
0000
0000
,  // measure 23
0000
1000
0000
0000
0000
0100
0000
0100
,  // measure 24
0000
0100
0000
0000
0000
0100
0000
0000
,  // measure 25
0000
1000
0000
0000
0000
1000
0000
0000
,  // measure 26
0000
0100
0000
0000
0000
0100
0000
0000
,  // measure 27
0000
1010
0000
0000
0000
0001
0000
0000
,  // measure 28
0000
1000
0000
1000
0000
1000
0000
0000
,  // measure 29
0000
1000
0000
0000
0000
0001
0000
0000
,  // measure 30
0000
0100
0000
0000
0000
1000
0000
0000
,  // measure 31
0000
0001
0000
0000
0000
0100
0000
0000
,  // measure 32
0000
0010
0000
0010
0000
0010
0000
0000
,  // measure 33
0000
1000
0000
0000
0000
0001
0000
0000
,  // measure 34
0000
0100
0000
0000
0000
1001
0000
0000
,  // measure 35
0000
1000
0000
0000
0000
0001
0000
0000
,  // measure 36
0000
0100
0000
0000
0000
0010
0000
1000
,  // measure 37
0000
0001
0000
0000
0000
0100
0000
0000
,  // measure 38
0000
0010
0000
0000
0000
0001
0000
0000
,  // measure 39
0000
1000
0000
0000
0000
0100
0000
1000
,  // measure 40
0000
0001
0000
0000
0000
1000
0000
0000
,  // measure 41
0000
0100
0000
0000
0000
0010
0000
0000
,  // measure 42
0000
1000
0000
0000
0000
0001
0000
0000
,  // measure 43
0000
1001
0000
0000
0000
0001
0000
0000
,  // measure 44
0000
0100
0000
0000
0000
0010
0000
0000
,  // measure 45
0000
1000
0000
0000
0000
0001
0000
0000
,  // measure 46
0000
1000
0000
0000
0000
0010
0000
0000
,  // measure 47
0000
0100
0000
0000
0000
1000
0000
0001
,  // measure 48
0000
1000
0000
0000
0000
1001
0000
0000
,  // measure 49
0000
0001
0000
0000
0000
0010
0000
0000
,  // measure 50
0000
1000
0000
0000
0000
0100
0000
0000
,  // measure 51
0000
0001
0000
0000
0000
1000
0000
0000
,  // measure 52
0000
0001
0000
1000
0000
0001
0000
0000
,  // measure 53
0000
1000
0000
0000
0000
0001
0000
0000
,  // measure 54
0000
0010
0000
0000
0000
0100
0000
0000
,  // measure 55
0000
0010
0000
0000
0000
1000
0000
0000
,  // measure 56
0000
0001
0000
0000
0000
1001
0000
0000
,  // measure 57
0000
0001
0000
0000
0000
0100
0000
0000
,  // measure 58
0000
0010
0000
0000
0000
1000
0000
0000
,  // measure 59
0000
0001
0000
0000
0000
1010
0000
0000
,  // measure 60
0000
1000
0000
0000
0000
0001
0000
0000
,  // measure 61
0000
1001
0000
0000
0000
1001
0000
0000
,  // measure 62
0000
0110
0000
0000
0000
0110
0000
0000
,  // measure 63
0000
1001
0000
0000
0000
1001
0000
0110
,  // measure 64
0000
0100
0100
0000
0000
0000
0000
0000
;

//---------------dance-single - ----------------
#NOTES:
     dance-single:
     :
     Hard:
     5:
     0.397,0.414,0.087,0.000,0.000,247.000,8.000,0.000,0.000,0.000:  // measure 1
0000
0000
0000
0000
,  // measure 2
0000
0000
0000
0000
,  // measure 3
0000
0000
0000
0000
0000
1000
0000
0001
,  // measure 4
0000
1000
0000
0100
0000
0010
0000
0001
,  // measure 5
0000
1000
0000
0100
0000
0010
0000
0001
,  // measure 6
0000
1000
0000
0001
0000
0100
0000
0010
,  // measure 7
0000
1000
0000
0001
0000
0100
0000
0001
,  // measure 8
0000
0100
0000
0010
0000
0001
0000
1000
,  // measure 9
0000
0010
0000
0100
0000
0010
0000
0001
,  // measure 10
0000
0001
0000
1000
0000
1000
0000
0010
,  // measure 11
0000
0100
0000
0010
0000
0100
0000
0001
,  // measure 12
0000
1000
0000
0100
0000
0100
0000
0001
,  // measure 13
0000
0010
0000
0100
0000
1000
0000
0001
,  // measure 14
0000
0100
0000
0001
0000
0010
0000
1000
,  // measure 15
0000
0001
0000
0010
0000
0001
0000
1000
,  // measure 16
0000
0100
0000
0010
0000
0001
0000
1000
,  // measure 17
0000
0001
0000
0100
0000
0001
0000
0010
,  // measure 18
0000
0001
0000
0001
0000
1000
0000
0100
,  // measure 19
0000
0010
0000
0001
0000
0010
0000
0001
,  // measure 20
0000
1000
0000
0100
0000
0001
0000
1000
,  // measure 21
0000
0100
0000
0010
0000
0001
0000
1000
,  // measure 22
0000
0100
0000
0001
0000
0100
0000
0001
,  // measure 23
0000
0010
0000
1000
0000
0001
0000
1000
,  // measure 24
0000
0010
0000
0001
0000
0100
0000
0010
,  // measure 25
0000
1000
0000
0001
0000
0100
0000
0010
,  // measure 26
0000
1000
0000
0100
0000
0001
0000
1000
,  // measure 27
0000
0010
0000
0100
0000
0001
0000
1000
,  // measure 28
0000
0100
0000
0010
0000
1000
0000
1000
,  // measure 29
0000
0001
0000
0100
0000
0001
0000
0001
,  // measure 30
0000
0010
0000
1000
0000
0010
0000
1000
,  // measure 31
0000
1000
0000
0001
0000
0010
0000
0001
,  // measure 32
0000
0001
0000
0100
0000
0010
0000
1000
,  // measure 33
0000
0100
0000
0010
0000
0001
0000
0100
,  // measure 34
0000
0001
0000
1000
0000
0010
0000
0001
,  // measure 35
0000
0100
0000
0010
0000
0100
0000
1000
,  // measure 36
0000
0001
0000
1000
0000
0100
0000
0010
,  // measure 37
0000
1000
0000
0100
0000
0001
0000
0010
,  // measure 38
0000
1000
0000
0100
0000
0010
0000
0001
,  // measure 39
0000
0100
0000
0010
0000
0100
0000
0001
,  // measure 40
0000
1000
0000
0100
0000
0001
0000
0010
,  // measure 41
0000
0001
0000
0100
0000
1000
0000
0001
,  // measure 42
0000
0100
0000
0010
0000
1001
0000
1001
,  // measure 43
0000
1001
0000
1001
0000
1000
0000
0100
,  // measure 44
0000
1000
0000
0100
0000
0001
0000
0100
,  // measure 45
0000
0001
0000
0100
0000
0010
0000
0001
,  // measure 46
0000
1000
0000
0100
0000
0010
0000
1000
,  // measure 47
0000
0001
0000
0100
0000
0010
0000
1000
,  // measure 48
0000
0001
0000
0100
0000
0010
0000
1000
,  // measure 49
0000
0001
0000
1000
0000
0001
0000
0100
,  // measure 50
0000
1001
0000
1001
0000
1001
0000
0110
,  // measure 51
0000
1000
0000
0001
0000
0100
0000
0010
,  // measure 52
0000
1000
0000
0001
0000
0100
0000
1000
,  // measure 53
0000
0001
0000
0100
0000
0010
0000
0001
,  // measure 54
0000
1000
0000
0100
0000
0010
0000
0001
,  // measure 55
0000
0010
0000
1000
0000
0100
0000
0010
,  // measure 56
0000
0001
0000
0100
0000
0001
0000
1000
,  // measure 57
0000
0001
0000
1000
0000
0100
0000
0010
,  // measure 58
0000
0001
0000
0100
0000
1000
0000
0010
,  // measure 59
0000
0001
0000
0100
0000
1000
0000
0010
,  // measure 60
0000
0001
0000
0100
0000
1000
0000
0001
,  // measure 61
0000
1000
0000
0100
0000
0010
0000
0001
,  // measure 62
0000
0100
0000
0010
0000
1000
0000
0001
,  // measure 63
1000
0001
1000
0001
1000
0001
1000
0000
,  // measure 64
0000
1000
0100
0000
0000
0000
0000
0000
;
