#TITLE:Dance All Night;
#SUBTITLE:;
#ARTIST:Oscillator X;
#TITLETRANSLIT:;
#SUBTITLETRANSLIT:;
#ARTISTTRANSLIT:;
#CREDIT:;
#BANNER:danceallnight-bn.png;
#BACKGROUND:bg0.jpg;
#LYRICSPATH:danceallnight.lrc;
#CDTITLE:;
#MUSIC:danceallnight.ogg;
#OFFSET:0.635;
#SAMPLESTART:91.000;
#SAMPLELENGTH:14.000;
#SELECTABLE:YES;
#BPMS:0.000=140.000,148.000=70.000,164.000=140.000,164.500=139.980;
#STOPS:;
#BGCHANGES:0.000=bg0.jpg=1.000=0=0=1,
4.000=bg4.jpg=1.000=0=0=1,
4.200=bg3.jpg=1.000=0=0=1,
4.400=bg2.jpg=1.000=0=0=1,
4.800=bg1.jpg=1.000=0=0=1,
5.000=danceallnight-bg.png=1.000=0=0=1,
6.001=bg4.jpg=1.000=0=0=1,
6.200=bg3.jpg=1.000=0=0=1,
6.400=bg2.jpg=1.000=0=0=1,
6.800=bg1.jpg=1.000=0=0=1,
7.000=danceallnight-bg.png=0.000=0=0=1,
7.001=bg4.jpg=1.000=0=0=1,
7.200=bg3.jpg=1.000=0=0=1,
7.400=bg2.jpg=1.000=0=0=1,
7.800=bg1.jpg=1.000=0=0=1,
8.000=bg4.jpg=1.000=0=0=1,
8.200=bg3.jpg=1.000=0=0=1,
8.400=bg2.jpg=1.000=0=0=1,
8.800=bg1.jpg=1.000=0=0=1,
9.000=bg4.jpg=1.000=0=0=1,
9.200=bg3.jpg=1.000=0=0=1,
9.400=bg2.jpg=1.000=0=0=1,
9.800=bg1.jpg=1.000=0=0=1,
10.000=bg4.jpg=1.000=0=0=1,
10.200=bg3.jpg=1.000=0=0=1,
10.400=bg2.jpg=1.000=0=0=1,
10.800=bg1.jpg=1.000=0=0=1,
11.000=bg4.jpg=1.000=0=0=1,
11.200=bg3.jpg=1.000=0=0=1,
11.400=bg2.jpg=1.000=0=0=1,
11.800=bg1.jpg=1.000=0=0=1,
12.000=e=1.000=0=0=1,
28.000=a=1.000=0=0=1,
44.000=b=1.000=0=0=1,
60.000=c=1.000=0=0=1,
76.000=d=1.000=0=0=1,
92.000=e=1.000=0=0=1,
108.000=f=1.000=0=0=1,
124.000=g=1.000=0=0=1,
140.000=h=1.000=0=0=1,
156.000=i=1.000=0=0=1,
170.000=j=1.000=0=0=1,
186.000=k=1.000=0=0=1,
196.000=bg0.jpg=1.000=0=0=1,
200.000=l=1.000=0=0=1,
216.000=m=1.000=0=0=1,
232.000=n=1.000=0=0=1,
248.000=e=1.000=0=0=1,
99999=-nosongbg-=1.000=0=0=0 // don't automatically add -songbackground-
;
// cache tags:
#FIRSTBEAT:4.000;
#LASTBEAT:266.000;
#SONGFILENAME:Songs/StepMix 2/Dance All Night/danceallnight.sm;
#HASMUSIC:1;
#HASBANNER:1;
#MUSICLENGTH:122.200;
// end cache tags

//---------------dance-single - dt----------------
#NOTES:
     dance-single:
     dt:
     Beginner:
     1:
     0.119,0.189,0.049,0.025,0.000,93.000,6.000,3.000,0.000,0.000:

























0000
0000
0000
0000
,
0000
0000
0000
0000
,
0000
0000
0000
0000
,
1000
0000
0000
0000
,
0001
0000
0000
0000
,
0100
0000
0000
0000
,
0100
0000
0000
0000
,
1001
0000
0000
0000
,
0001
0000
0001
0000
,
1000
0000
0000
0000
,
0010
0000
0010
0000
,
0100
0000
0000
0000
,
0100
0000
0010
0000
,
0010
0000
0000
0000
,
1000
0000
1000
0000
,
0010
0000
0000
0000
,
0100
0000
0100
0000
,
0100
0000
0000
0000
,
0001
0000
0001
0000
,
1000
0000
0000
0000
,
0100
0000
0000
0000
,
1000
0000
0000
0000
,
0010
0000
0010
0000
,
0100
0000
0000
0000
,
0001
0000
1000
0000
,
0001
0000
0000
0000
,
1000
0000
0100
0000
,
0200
0000
0000
0000
,
0300
0000
0000
0000
,
0020
0000
0000
0000
,
0030
0000
0000
0000
,
2000
0000
0000
0000
,
3000
0000
0000
0000
,
0010
0000
0010
0000
,
0100
0000
1000
1000
,
1000
0000
0000
0000
,
0001
0000
0000
0000
,
0100
0100
0010
0000
,
0010
0010
1000
0000
,
0100
0100
0010
0000
,
0001
0001
1000
0000
,
1000
0000
0000
0000
,
0100
0000
0000
0000
,
1000
0000
0010
0000
,
0010
0000
0000
0000
,
1001
0000
0000
0000
,
0100
0000
0100
0000
,
0100
0000
0000
0000
,
1001
0000
0000
0000
,
1001
0000
0000
0000
,
1000
0000
0100
0000
,
1000
0000
0000
0000
,
0100
0000
0010
0000
,
0100
0000
0000
0000
,
1000
0000
0001
0000
,
1000
0000
0000
0000
,
0100
0000
0100
0000
,
0010
0000
0010
0000
,
0110
0000
0000
0000
,
1000
0000
0100
0000
,
1000
0000
0000
0000
,
0001
0000
0100
0000
,
0001
0000
0000
0000
,
1000
0000
0001
0000
,
0001
0000
0010
0000
,
0100
0000
0010
0000
,
1001
0000
0000
0000
;

//---------------dance-single - dt----------------
#NOTES:
     dance-single:
     dt:
     Easy:
     4:
     0.275,0.490,0.074,0.123,0.000,211.000,9.000,15.000,5.000,0.000:








0000
0000
0000
0000
,
0000
0000
0000
0000
,
0000
0000
0000
0000
,
1000
0100
0100
1000
,
0010
0100
0100
0000
,
0010
0100
0010
1000
,
0002
0000
0000
1000
,
1003
0000
1000
0000
,
0100
0010
0110
0000
,
0001
0000
0100
0000
,
0010
0100
0110
0000
,
1000
0000
0100
0000
,
0010
0001
0012
0000
,
0103
0000
0010
0000
,
0001
0001
0100
0200
,
0000
0010
0000
0010
,
0301
0000
1000
0100
,
0010
0000
0010
0010
,
0100
0000
0010
0000
,
0110
0000
0001
0000
0100
0010
1000
0000
,
0100
0000
0100
0000
0100
0010
0100
0000
,
1000
0000
0010
0000
0100
0010
0100
0000
,
0100
0001
0002
0003
,
0010
0000
0010
0000
0001
0001
0001
0000
,
0100
0000
0010
0000
1000
1000
1000
0000
,
0100
0000
0010
0000
,
0001
0100
0010
1000
,
0100
0100
0000
0001
,
0001
0000
0100
0100
,
0010
0010
0000
0100
,
0100
0000
0001
0001
,
1000
1000
0000
0100
,
0010
0000
0110
0000
,
0001
0001
1000
0010
,
0010
0100
0001
1000
,
0100
0000
0001
1000
,
1001
0000
0010
0100
,
0100
0000
MM10
0000
1000
0100
1100
0000
,
0010
0100
0001
0010
0001
0100
0100
0010
,
0020
0000
2030
0000
3200
0010
0320
0000
,
0031
0100
0010
1000
0100
0100
0200
1000
,
1300
0000
0010
0100
,
0100
0000
0000
0000
,
1000
0100
1000
0010
,
0100
0000
0100
0000
,
1001
0001
0010
0010
,
0001
0000
0100
0010
,
1000
0100
1000
0100
,
0001
0100
0010
0100
,
2000
0000
0010
0010
,
3100
0000
0010
0000
,
0100
0010
0100
0100
,
0001
0000
0010
0000
,
0200
0000
0010
0010
,
1300
0000
1000
0000
,
0010
0100
0200
0301
,
0001
0000
0100
0000
,
0010
0000
1000
0000
0100
0000
0020
MM0M
,
0030
0100
0000
1000
,
0100
0010
0001
0001
,
0000
0010
0000
0010
,
0100
1000
0010
0100
,
0000
0010
0000
0010
,
0100
0001
0010
0010
,
0100
0000
0100
0000
,
1000
0010
0100
0100
,
2002
0000
3003
0000
;

//---------------dance-single - dt----------------
#NOTES:
     dance-single:
     dt:
     Hard:
     8:
     0.533,0.702,0.196,0.524,0.135,368.000,24.000,64.000,18.000,0.000:




















0000
0000
0000
0000
,
0000
0000
0000
0000
,
0000
0000
0000
0000
,
0000
0000
0100
0001
0000
0000
0100
0000
0000
0000
1000
0000
0010
0000
0100
0000
,
0000
0000
0010
0100
0000
0000
0100
0000
0000
0000
0100
0000
0001
0000
0010
0000
,
0000
0100
0000
0100
0000
0100
0010
0100
,
2000
0010
0100
0010
,
3001
0000
0100
0001
0010
0100
0010
0001
,
0200
0000
0302
0000
0023
0000
0230
1000
,
1300
0000
1000
0010
0100
0010
1000
0001
,
0020
0000
0230
0000
2300
0000
3020
1000
,
0130
0000
0100
1000
0010
0100
0010
1000
,
0200
0000
0302
0000
0203
0000
1300
0010
,
0201
0000
0310
0000
0100
0001
0010
0100
,
0200
0302
0203
2300
,
3000
0000
1000
0000
0010
0000
0100
0001
0000
0001
0010
0000
0100
0000
1000
0000
,
0010
0000
0000
0000
0000
0000
0100
0010
0000
0010
0100
0000
0001
0000
0010
0000
,
0000
0000
0010
0000
0001
0000
0100
0001
0000
0001
0010
0000
0100
0000
1000
0000
,
0010
0000
0000
0000
0000
0000
0100
0001
0000
0001
0010
0000
0001
0000
0100
0000
,
0000
0010
0100
0001
0200
0000
1000
0000
,
0300
0010
1000
0001
0100
0010
1000
0200
,
0000
0001
0001
0000
0010
0000
1300
0010
,
0100
0001
0010
1000
0010
0001
0100
0020
,
0000
0001
0001
0000
0130
0000
0010
1000
,
0100
0001
0100
1000
0010
0100
0001
0010
,
00M0
2100
3010
00M0
0102
0013
0M0M
0000
,
1200
0302
0023
0230
,
0300
1000
0010
0100
0010
0000
0100
0002
,
0000
0100
0000
0010
0000
0103
0000
0M0M
,
0000
1000
0010
0100
0001
0000
0010
0200
,
0000
1000
0000
0010
0000
1300
0000
MM00
,
0000
0010
0100
0001
0010
0000
0100
0020
,
0000
0001
0000
1000
0000
0031
0000
00MM
,
1100
0000
0101
0000
0010
1000
0100
0010
,
0200
0000
2300
0000
3020
0000
0230
1000
,
0300
0101
0000
0110
0000
0101
0000
0000
,
0000
1010
0000
0000
0000
1001
0000
0010
,
2000
0000
0000
0000
0000
0000
0000
0000
0100
0000
0000
0001
0000
0000
0010
3000
,
0200
0000
0000
0000
0000
0000
0000
0000
1000
0000
0000
0010
0000
0000
0301
0000
,
0020
0000
0100
0030
1000
0010
0100
0000
0100
0000
0010
0000
2000
0000
3100
0000
,
0011
0000
1100
0000
0101
0000
1001
0000
1000
0100
0010
0100
1000
0100
0010
0001
,
0100
0000
0010
0000
1000
0000
0100
0010
0000
0010
0100
0000
1000
0000
0010
0000
,
0100
11M0
M1M1
11MM
,
1001
0000
0100
0000
0010
0000
0100
0001
0000
0001
0100
0000
1000
0000
0010
0000
,
0100
0000
0000
0000
0000
0000
0001
0010
0000
0100
0010
0000
0001
0000
0100
0000
,
0101
0000
0100
0000
1000
0000
0100
0001
0000
0001
0010
0000
0100
0000
0010
0000
,
0001
0000
0000
0000
0000
0000
1000
0100
0000
0100
1000
0000
0010
0000
0100
0000
,
0001
0000
0100
0000
0010
0000
1000
0100
0000
0100
1000
0000
0010
0000
0100
0000
,
0001
0000
0000
0000
0000
0000
0010
0100
0000
0100
0010
0000
0001
0000
0100
0000
,
1100
0000
0000
0000
MM00
0000
0000
0000
1000
0100
1000
0100
1000
0000
0010
0000
,
1000
0100
0010
0100
1000
0010
0001
0010
,
2000
3002
0203
0320
,
1030
0100
0001
0100
0010
0000
0001
0100
,
0020
0032
0023
2030
,
3000
1000
0100
0010
0100
0000
1000
0010
,
0200
0302
0023
0130
,
0100
0000
0011
0000
0100
0001
0010
0100
,
2000
0000
3020
0000
0230
0000
0302
0010
,
0003
10M0
0100
0010
0100
0000
1000
0010
,
0200
0001
1000
0310
,
0000
0001
0010
0100
0001
0000
1000
0010
,
0200
0302
0023
0230
,
0300
1000
0100
0010
0100
0000
1000
0010
,
0002
0023
2030
3200
,
1300
0000
0101
0000
1000
0010
0100
0001
,
0020
0230
2300
3004
,
1003
0000
0000
0000
;

//---------------dance-single - dt----------------
#NOTES:
     dance-single:
     dt:
     Medium:
     7:
     0.498,0.486,0.286,0.556,0.020,323.000,35.000,68.000,22.000,3.000:







0000
0000
0000
0000
,
0000
0000
0000
0000
,
1100
0010
0101
0010
,
1001
0100
0010
0100
1000
0010
0100
0010
,
1000
0100
0010
0100
2000
0010
3010
0000
,
0100
0001
0010
0100
0010
0001
0100
0010
,
0002
0010
1000
0010
,
0013
0000
0100
0010
0001
0010
0100
0010
,
2000
3020
0230
0302
,
0003
0000
0010
0100
0001
0010
0100
0001
,
2000
3002
0203
2300
,
3000
0000
0010
0100
0001
0010
0001
0100
,
0020
0000
0032
0000
2003
0000
3200
0010
,
0310
0000
0110
0000
0010
0100
0001
0010
,
2000
0000
3020
0000
0032
0000
0203
0310
,
0M00
1000
0100
0010
00M0
0010
0100
1000
,
0010
0110
0001
0011
,
0000
1000
0100
0010
0000
0100
0010
0001
,
0100
0000
0010
0000
0110
0000
1001
0100
,
0000
1000
0010
0100
0200
0000
0301
0000
,
0000
1000
0100
0010
0100
0001
0100
0020
,
0000
0001
0001
0000
0130
0000
0010
0001
,
0100
0010
0100
0001
0010
0100
0100
0020
,
0000
0100
0100
0000
1030
0000
0010
0001
,
0100
0010
0001
0010
0100
0010
1000
0100
,
0000
0010
0001
00M0
0001
0010
0100
0000
,
0100
0001
0011
1000
,
0101
0010
1000
0100
0010
00M0
0100
2000
,
0000
0010
0000
0100
0000
0010
0000
3MM0
,
0000
0010
0100
0001
0010
00M0
0010
0002
,
0000
0100
0000
0010
0000
0100
0000
0MM3
,
0000
0010
1000
0100
0001
000M
0100
2000
,
0000
0010
0000
0100
0000
0010
0000
3MM0
,
0120
0000
0001
0000
0100
0130
0010
1000
,
0200
0000
0302
0000
2003
0000
3020
0100
,
0030
0110
0010
1000
0100
0010
0000
1000
,
0000
0010
0000
0010
0000
0100
0000
0100
,
2002
0000
0010
3003
,
2200
0000
0001
3300
,
0022
0000
1000
0033
,
1100
MM00
0101
0M0M
1010
1000
1100
0100
,
0110
0000
0000
0000
0001
0000
0000
0010
0000
0010
0100
0000
0000
0000
1000
0000
,
0010
MM00
0011
00MM
,
0101
0000
0000
0000
0010
0000
0000
0100
0000
0100
0001
0000
0000
0000
0010
0000
,
0100
0000
0000
0000
0000
0000
1000
0000
0000
1000
0000
0000
0010
0000
0100
0000
,
1001
0100
0000
0001
0000
0100
0000
1000
,
0000
0101
0000
0010
0000
1000
0000
0100
,
0000
0011
0000
0100
0000
0010
0000
1000
,
0000
0100
0000
0101
0000
0010
0000
1000
,
0022
0000
0033
0000
1000
0100
1000
0010
,
1000
1100
0001
0101
,
2000
3020
0230
0302
,
0013
1100
0010
0101
,
0002
0203
0320
2030
,
3100
0011
0100
0011
,
0002
0000
0203
0000
0320
0000
0230
0001
,
0302
0000
0023
0000
0130
0100
1000
0010
,
0200
0000
0302
0000
2003
0000
3200
0010
,
03M0
1000
0010
0100
0020
0000
0130
0001
,
0020
0230
2300
3020
,
0030
0100
0001
0010
0100
0000
0010
0001
,
0200
0320
2030
3200
,
0300
0010
0100
1000
0010
0000
0100
0010
,
0021
0000
0100
0000
1000
0000
0031
0100
,
0100
0000
0010
0000
1000
0100
0001
0100
,
2000
0000
3020
0000
0230
0000
0301
0M01
,
1001
0000
0000
0000
;

//---------------dance-single - dt----------------
#NOTES:
     dance-single:
     dt:
     Challenge:
     9:
     0.637,0.648,0.327,0.401,0.205,456.000,40.000,49.000,9.000,0.000:
















0000
0000
0000
0000
,
2100
3001
0012
1003
,
1001
0100
0010
0100
1000
0010
0100
1000
,
0100
0000
0001
0010
0001
0000
0100
0000
0010
0000
0001
0000
0010
0000
0100
0000
,
1000
0000
0100
0010
0100
0000
0010
0000
0100
0000
0001
0000
0010
0000
0100
0000
,
1000
0000
0010
1000
0100
0000
1000
0000
0010
0000
0100
0000
0001
0000
1000
0000
,
0001
0000
0001
0010
0001
0000
0001
0100
0001
0010
0100
1000
0100
0010
0001
0100
,
0010
0100
1000
0100
0001
0010
0100
1000
,
0200
0301
0200
1300
0020
0031
0020
1000
,
0130
0000
0010
0001
0010
1000
0001
1000
,
0020
0031
0020
1030
0020
0031
0020
1030
,
0100
0000
0010
1000
0100
0010
0100
1000
,
0020
0031
0020
1030
0020
0031
0010
1000
,
1200
0010
0301
0000
1000
0010
0001
0010
,
0100
0000
0100
0000
0100
0000
0100
0200
,
0301
0000
0100
0000
0010
0000
0100
0010
0000
0010
0100
0000
0001
0000
0010
0000
,
10M0
0000
0000
0000
0011
0000
0001
0100
0000
0010
0001
0000
0010
0000
01M0
0000
,
0000
0000
0010
0000
1000
0000
0100
0010
0000
0010
0100
0000
1000
0000
0010
0000
,
00M1
0000
0000
0000
1100
0000
0001
0100
0000
0100
0010
0000
1000
0000
0100
0000
,
0011
0001
0100
0010
2000
0000
3001
0000
,
0100
0010
0100
0001
0100
1000
0001
001M
,
0000
1000
0100
0010
0002
0000
0103
0001
,
0010
1000
0010
0100
0001
1000
0010
0100
,
0000
1000
0010
0000
0100
0000
1000
0010
,
0100
0001
0010
0100
0010
0001
0010
1000
,
M0M0
0010
0100
0000
0001
0010
0100
0100
,
0002
0203
2300
3010
,
0101
0001
0010
0100
2000
0000
3100
0020
,
0000
0100
0000
0001
0000
0100
0000
0031
,
0000
0010
1000
0100
0020
0000
0130
2000
,
0000
0010
0000
0100
0000
0010
0000
3001
,
0000
0001
0100
0010
0002
0000
0013
0200
,
0000
1000
0000
0010
0000
1000
0000
0310
,
0001
0000
0010
0000
1000
0100
0010
0001
,
0011
0101
0110
1010
,
1001
0000
0001
0100
0000
0000
0010
0000
0000
0000
1000
0000
0100
0000
0101
0000
,
0000
0000
0001
0100
0000
0000
0100
0000
0000
0000
1000
0000
0010
0100
0010
0000
,
1002
0000
0000
0010
0000
0000
1000
0000
0103
0000
0000
0011
0000
0000
0000
0000
,
2000
0000
0000
0010
0000
0000
0100
0000
3001
0000
0000
1010
0000
0000
0000
0000
,
0200
0000
0000
0001
0000
0000
0010
0000
1300
0000
0000
0011
0000
0000
0000
0000
,
2001
0000
0000
0010
0000
0000
0001
0000
3100
0000
0000
0101
0000
0000
0010
0000
,
1100
0000
0100
0000
0010
0000
0100
0001
0000
0001
0100
0000
1000
0000
0010
0000
,
0100
0100
0101
0M00
0100
0100
1100
0000
,
0011
0000
0001
0000
0100
0000
0010
0001
0000
0001
0010
0000
0100
0000
0001
0000
,
0010
0000
0000
0000
1100
0000
0010
0100
0000
0100
1000
0000
0010
0000
0100
0000
,
0011
0000
0001
0000
0010
0000
1000
0010
0000
0010
0001
0000
0100
0000
0010
0000
,
0100
0000
0000
0000
1001
0000
0100
0010
0000
0001
0010
0000
0100
0000
0010
0000
,
0001
0000
0100
0000
0010
0000
0001
0010
0000
0100
0010
0000
0001
0000
0010
0000
,
0100
1010
0100
0011
,
1001
0000
0000
0000
M00M
0000
0000
0000
1000
0100
1000
0100
1000
0000
0010
0000
,
0101
0010
1000
0100
0020
0000
0130
1000
,
0020
0031
0020
1030
0020
0031
0020
1030
,
0100
0010
0001
0010
0200
0000
1300
0010
,
0200
0301
0200
1300
0200
0301
0200
1300
,
0001
0010
1000
0100
0020
0000
0130
1000
,
0020
0031
0020
1030
0020
0031
0020
1030
,
0100
0000
0011
0000
0100
0100
0001
0001
,
0100
0000
0100
0000
0100
0000
0100
0200
,
1300
0100
0010
0100
0002
0000
0013
0100
,
1000
0100
0101
0000
0001
0100
1100
0000
,
0010
1000
0100
0010
0200
0000
1300
0010
,
0100
0001
0101
0000
0010
0001
1010
0000
,
1000
0100
0001
0100
0020
0000
0031
0010
,
1000
0011
0101
0011
,
0100
0000
1010
0000
1000
0100
0010
0001
,
1000
0100
0010
0001
1000
0010
0100
0001
1000
0100
0010
0100
0001
0100
0010
0100
,
1000
0000
0000
0000
;

//---------------dance-double - dt----------------
#NOTES:
     dance-double:
     dt:
     Hard:
     9:
     0.545,0.594,0.262,0.565,0.131,364.000,32.000,69.000,11.000,0.000:

00000000
00000000
00000000
00000000
,
00000000
00000000
00000000
00000000
,
00000000
00000000
00000000
00000000
,
10000000
00000000
01000000
00100000
00000000
00000000
00010000
00000000
01000000
00000000
00001000
00000000
00100000
00000000
00000100
00000000
,
00001000
00000000
00000010
00000100
00000000
00000000
00000001
00000000
00000010
00000000
00000100
00000000
00001000
00000000
00000100
00000000
,
00010000
00000000
00001000
01000000
00000000
00000000
00001000
00000000
00010000
00000000
00000100
00000000
00001000
00000000
00000010
00000000
,
00000200
00000001
00001000
00000010
,
00000301
00000000
00000100
00000010
00010000
00001000
01000000
00100000
,
20000000
00000000
32000000
00000000
00002000
03000000
00023000
00000000
,
00030000
00000000
00000010
00000001
00000100
00000010
00000001
00000010
,
00000200
00000302
00000203
00020300
,
00030000
00000000
01000000
00100000
01000000
00001000
00010000
00000100
,
00000020
00000000
00000230
00000000
00020300
00000000
00230000
01000000
,
01300000
00000000
00101000
00000000
00010000
00001000
01000000
00100000
,
20000000
32000000
03020000
00032000
,
000M3000
00000000
01000000
00000000
10000000
00000000
01000000
00010000
00000000
00010000
01000000
00000000
00100000
00000000
00010000
00000000
,
00001000
00000000
00000000
00000000
01001000
00000000
00001000
00010000
00000000
00010000
00000100
00000000
00001000
00000000
00000010
00000000
,
00000000
00000000
00100000
00000000
00010000
00000000
01000000
00100000
00000000
00100000
10000000
00000000
01000000
00000000
00100000
00000000
,
00010000
00000000
00000000
00000000
01001000
00000000
00010000
10000000
00000000
10000000
01000000
00000000
00100000
00000000
00001000
00000000
,
00011000
00010000
00000100
00001000
00000020
00000000
00000100
00000000
,
00000031
00000010
00001000
00000100
00010000
00001000
01000000
00200000
,
00000000
10300000
02000000
00000000
03010000
00000000
01000000
10000000
,
00100000
00010000
00100000
01000000
00100000
10000000
01000000
00010000
,
00000000
00001000
00100000
00000000
00011000
00000000
00100000
00010000
,
01000000
00100000
00010000
10000000
00010000
00100000
10000000
01000000
,
00000000
00120000
01030000
00000000
00002010
00003100
00000000
00000000
,
00020000
00030200
00000302
00002003
,
00003000
00100000
00010000
01000000
00200000
00000000
10300000
02000000
,
00000000
00010000
00000000
10000000
00000000
00010000
00000000
03100000
,
00000000
00100000
01000000
00010000
00200000
00000000
00310000
02000000
,
00000000
00001000
00000000
00010000
00000000
00100000
00000000
03001000
,
00000000
00001000
01000000
00010000
02000000
00000000
03001000
00020000
,
00000000
10000000
00000000
00001000
00000000
00100000
00000000
00030000
,
00100000
01010000
00000010
00010100
,
01000100
00011000
01000100
040M0400
,
000M0000
030M0300
0M0M0M00
00MMM000
,
000M0000
00000000
00000000
00000000
,
20001000
00000000
00000000
00010000
00000000
00000000
00000000
00000000
00100000
00000000
00000000
00010000
00000000
00000000
30000000
00000000
,
00012000
00000000
00000000
01000000
00000000
00000000
00000000
00000000
10000000
00000000
00000000
01000000
00000000
00000000
00003000
00000000
,
02001000
00000000
03100000
00000000
10000000
01000000
00010000
00000000
01000000
00000000
00010000
00000000
01000000
00000000
10000000
00000000
,
01010000
00100000
01001000
00010000
00010100
00000010
00000101
00000010
,
00001100
00000000
00000100
00000000
00010000
00000000
00001000
01000000
00000000
01000000
00100000
00000000
00000000
00000000
10000000
00000000
,
01000000
00011000
00000100
00011000
,
01000000
00000000
00100000
00000000
10000000
00000000
01000000
00100000
00000000
00100000
01000000
00000000
10000000
00000000
00100000
00000000
,
01000000
00000000
00000000
00000000
00101000
00000000
00001000
01000000
00000000
01000000
00100000
00000000
10000000
00000000
01000000
00000000
,
00110000
00000000
00010000
00000000
01000000
00000000
00100000
00010000
00000000
00010000
00100000
00000000
01000000
00000000
00010000
00000000
,
00100000
00000000
00000000
00000000
00011000
00000000
00001000
00010000
00000000
00010000
00000100
00000000
00001000
00000000
00000010
00000000
,
00000000
00000000
00000100
00000000
00000001
00000000
00000010
00000100
00000000
00000100
00000010
00000000
00000001
00000000
00000100
00000000
,
00000010
00000000
00000000
00000000
00001100
00000000
00000010
00000100
00000000
00000100
00001000
00000000
00000010
00000000
00000100
00000000
,
00001100
00000000
00000000
00000000
00000000
00000000
00000000
00000000
00010000
00000100
01000000
00001000
00010000
00000000
00000010
00000000
,
00011000
00001000
01000000
10000000
02000000
00000000
03100000
10000000
,
02000000
03020000
02030000
03200000
,
00300000
00001000
01000000
00001000
00000200
00000000
00001300
00010000
,
00000020
00000230
00020300
00032000
,
00003000
00100000
01000000
00010000
00200000
00000000
01300000
00100000
,
00002000
02003000
03020000
20030000
,
31000000
00000000
00110000
00000000
01000000
00100000
00010000
00100000
,
02000000
00000000
03002000
00000000
00023000
00000000
00030020
00000100
,
00000030
00000100
00001000
00000100
00000020
00000000
00000130
00001000
,
00000200
00000302
00000203
00002300
,
00003000
00010000
00001000
00010000
02000000
00000000
03100000
00010000
,
02000000
03200000
20300000
32000000
,
03000000
00100000
00010000
00100000
00002000
00000000
00013000
00000010
,
00000200
00010000
00000010
00000301
,
00001000
00000000
00000101
00000000
00000010
00001000
00000100
00000010
,
00000200
00000000
00020300
00000000
00030200
00000000
01000300
01000000
,
00011000
00000000
00000000
00000000
;

//---------------dance-double - dt----------------
#NOTES:
     dance-double:
     dt:
     Easy:
     4:
     0.282,0.486,0.180,0.188,0.000,196.000,22.000,23.000,4.000,0.000:




00000000
00000000
00000000
00000000
,
00000000
00000000
00000000
00000000
,
00000000
00000000
00000000
00000000
,
01000000
00100000
01000000
00010000
,
00100000
00001000
00010000
00001000
,
00010000
00000100
00001000
00000010
,
00000200
00000010
00000310
00000110
,
00001001
00000000
00001000
00000100
,
00020000
00032000
02003000
03020000
,
10030000
00000000
01000000
00000000
,
00200000
00320000
01030000
02000000
,
03100000
00000000
10000000
00000000
,
01000000
00010000
01000000
00100000
,
00110000
00000000
00011000
00000000
,
00100000
00010000
01000000
01000000
,
10100000
00000000
00100000
01000000
,
01000000
00000000
00001000
00010000
,
00010000
00000000
00000010
00000100
,
00000100
00000000
00100000
00001000
,
00011000
00000000
00000100
00000000
,
00001000
00000010
00000100
00000000
,
00001000
00000000
00000100
00000000
,
00010000
00001000
01000000
00000000
,
00010000
00000000
00011000
00000000
,
00001000
01000000
01000000
00000000
,
00200000
00000000
02300000
00000000
,
03010000
00100000
00010000
00010000
,
00011000
00000000
00000100
00001000
,
00001100
00000000
01000000
00010000
,
01010000
00000000
00000010
00010000
,
00011000
00000000
00100000
00001000
,
00011000
00000000
01000000
10000000
,
01000000
00000000
00010000
00100000
,
01000000
01000000
00010000
00010000
,
10000000
00000000
00001000
00000000
,
00010100
00000000
000M0M00
00000000
,
20200000
30300000
M0M00000
00000000
,
20000000
32000000
03200000
02300000
,
23000000
30200000
02300000
03002000
,
00013000
00000100
00001100
00000000
00000010
00000100
00000110
00000000
,
00011000
00001000
01000000
00100000
10000000
01000000
00100000
00010000
,
10000000
01000000
00100000
00001000
,
00011000
00000000
01000000
00100000
,
10000000
00000000
01000000
01000000
,
00100000
00000000
00001000
01000000
,
00011000
00000000
00000010
00000100
,
00000100
00000000
00000001
00000010
,
00000010
00000000
00000100
00010000
,
00010000
00000000
01000000
00010000
,
00011000
00000000
00100000
00001000
,
00011000
00000000
01000000
00000000
,
00100000
10000000
02000000
00000000
,
13000000
00000000
00100000
00000000
,
01000000
00010000
00200000
00000000
,
00300100
00000000
00010000
00000000
,
00001000
01000000
00200000
00000000
,
10300000
00000000
01000000
00000000
,
00100000
00010000
01000000
00100000
,
10000000
00000000
01000000
00000000
,
00010000
00010000
01000000
01000000
,
00001000
00000000
00010000
00000000
,
00000010
00001000
00000100
00001000
,
00000010
00000000
00000100
00000000
,
00000001
00000010
00000100
00001000
,
00000001
00000000
00000100
00000000
,
00000010
00100000
00001000
01000000
,
00011000
00000000
00000000
00000000
;

//---------------dance-double - dt----------------
#NOTES:
     dance-double:
     dt:
     Medium:
     8:
     0.547,0.540,0.336,0.516,0.147,360.000,41.000,63.000,9.000,0.000:

00000000
00000000
00000000
00000000
,
00000000
00000000
00000000
00000000
,
00000000
00000000
00000000
00000000
,
00100000
00000000
00010000
01000000
00000000
00000000
00100000
00000000
00000000
00000000
10000000
00000000
01000000
00000000
00100000
00000000
,
00000000
00000000
00001000
01000000
00000000
00000000
01000000
00000000
00000000
00000000
00100000
00000000
10000000
00000000
01000000
00000000
,
00000000
00000000
00100000
00010000
00000000
00000000
00010000
00000000
00000000
00000000
01000000
00000000
00010000
00000000
00100000
00000000
,
02000000
03200000
00302000
00013000
,
00001100
00000000
00000001
00000100
00000010
00000100
00000001
00000100
,
00000020
00002030
00003200
00020300
,
00030000
00000000
00001000
01000000
00100000
10000000
01000000
00100000
,
02000000
23000000
30200000
02300000
,
03000000
00000000
00001000
00010000
00000100
00010000
00001000
01000000
,
00002000
00000000
02003000
00000000
03200000
00000000
20300000
01000000
,
31000000
00000000
00110000
00000000
01000000
00010000
00100000
01000000
,
20000000
30020000
02030000
00400000
,
03300000
00000000
10000000
00000000
01000000
00000000
00100000
01000000
00000000
01000000
10000000
00000000
00100000
00000000
01000000
00000000
,
00010000
00000000
00000000
00000000
00011000
00000000
00001000
01000000
00000000
01000000
00100000
00000000
10000000
00000000
01000000
00000000
,
00000000
00000000
10000000
00000000
01000000
00000000
10000000
00100000
00000000
00100000
01000000
00000000
00010000
00000000
00100000
00000000
,
01000000
00000000
00000000
00000000
00011000
00000000
00000100
00001000
00000000
00001000
00000010
00000000
00000100
00000000
00000001
00000000
,
00000011
00000001
00000100
00000010
00002000
00000000
00003200
00000301
,
00000000
00001000
00000010
00000100
00000001
00000010
00001000
00010000
,
00000000
00100000
10000000
00000000
02000000
00000000
03020000
01030000
,
00000000
10000000
00100000
00010000
00100000
10000000
01000000
00100000
,
00000000
00010000
01000000
00000000
00021000
00000000
00030100
00001000
,
00000010
00000100
00000001
00000010
00001000
00000010
00000001
00000100
,
00000000
00001010
00001100
00000M00
00101000
00011000
00000000
00000000
,
00200000
00000000
02300000
00000000
03020000
00000000
20030000
30000000
,
00110000
00010000
01000000
00100000
20000000
00000000
32000000
03010000
,
00000000
01010000
00000000
01100000
00000000
11000000
00000000
MM000000
,
00000000
00010000
01000000
00100000
20000000
00000000
32000000
03010000
,
00000000
00011000
00000000
00010010
00000000
00011000
00000000
000MM000
,
00000000
00100000
10000000
01000000
00020000
00000000
01030000
10000000
,
00000000
01010000
00000000
01100000
00000000
01010000
00000000
0M0M0000
,
20000000
00000000
30020000
00000000
01030000
01000000
00100000
00100000
,
20000000
00000000
32000000
00000000
03020000
00000000
00004000
00030000
,
01003000
00000000
00100000
10000000
00000000
00000000
10000000
00000000
00000000
00000000
01000000
00000000
00010000
00000000
01000000
00000000
,
00000000
00000000
10000000
00100000
00000000
00000000
00100000
00000000
00000000
00000000
01000000
00000000
00001000
00000000
01000000
00000000
,
00020000
00000000
00000000
10000000
00000000
00000000
00000000
00000000
00100000
00000000
00000000
10000000
00030000
00000000
00000000
00000000
,
00002000
00000000
00000000
00000001
00000000
00000000
00000000
00000000
00000010
00000000
00000000
00000001
00003000
00000000
00000000
00000000
,
02000000
00000000
00000000
00100000
03000000
10000000
01000000
00000000
01000000
00000000
00000000
00110000
00000000
00000000
00000000
00000000
,
00011000
00000000
00000000
00001000
00000000
01000000
00100000
00000000
10000000
00000000
01000000
00000000
00100000
00000000
00010000
00000000
,
01000000
00000000
00100000
00000000
10000000
00000000
01000000
00100000
00000000
00100000
01000000
00000000
10000000
00000000
00100000
00000000
,
01000000
00011000
01001000
00011000
,
00010100
00000000
00010000
00000000
00001000
00000000
01000000
00100000
00000000
00100000
10000000
00000000
01000000
00000000
00100000
00000000
,
01000000
00000000
00000000
00000000
01010000
00000000
00100000
10000000
00000000
10000000
01000000
00000000
00100000
00000000
00010000
00000000
,
00011000
00000000
00001000
00000000
00010000
00000000
00000100
00001000
00000000
00001000
00000010
00000000
00000100
00000000
00000001
00000000
,
00000010
00000000
00000000
00000000
00001100
00000000
00000001
00000100
00000000
00000100
00001000
00000000
00000010
00000000
00000100
00000000
,
00000100
00000000
00000010
00000000
00001000
00000000
00000100
00000010
00000000
00000010
00000100
00000000
00001000
00000000
00000010
00000000
,
00010000
00000000
00000000
00000000
01010000
00000000
00100000
10000000
00000000
10000000
01000000
00000000
00100000
00000000
00010000
00000000
,
01010000
00000000
00000000
00000000
0M0M0000
00000000
00000000
00000000
40000000
04000000
00000000
00000000
00000000
00000000
30000000
00000000
,
13000000
00100000
01000000
00010000
00100000
00000000
00001000
01000000
,
00200000
20300000
32000000
03020000
,
00030000
00000100
00001000
00000100
00000020
00000000
00000130
00001000
,
00000020
00000230
00002300
02003000
,
03000000
00100000
10000000
01000000
00200000
00000000
01300000
10000000
,
00100000
00110000
00001000
00001100
,
01000000
00000000
01000000
00000000
00100000
10000000
01000000
00100000
,
00020000
02030000
03200000
00340000
,
00030000
00100000
10000000
01000000
00010000
00000000
01000000
00100000
,
00002000
00023000
00030200
00002300
,
00003000
00000010
00000100
00000001
00000020
00000000
00000130
00000010
,
00000001
00000101
00001000
00001200
,
00010300
00001000
01000000
00100000
20000000
00000000
31000000
00010000
,
01000000
00011000
00000100
00000110
,
00010000
00000000
00011000
00000000
00100000
10000000
01000000
00100000
,
00020000
02030000
00000200
00044000
,
03033300
00000000
00000000
00000000
;
