#TITLE:Blitzkrieg Beats;
#SUBTITLE:;
#ARTIST:Digitaliz;
#TITLETRANSLIT:;
#SUBTITLETRANSLIT:;
#ARTISTTRANSLIT:;
#CREDIT:;
#BANNER:Blitzkrieg Beats.png;
#BACKGROUND:Blitzkrieg Beats- bg.png;
#LYRICSPATH:;
#CDTITLE:HS2logo.png;
#MUSIC:Blitzkrieg Beats.ogg;
#OFFSET:-0.415;
#SAMPLESTART:40.880;
#SAMPLELENGTH:12.000;
#SELECTABLE:YES;
#BPMS:0.000=160.000;
#STOPS:;
#BGCHANGES:;
// cache tags:
#FIRSTBEAT:15.000;
#LASTBEAT:359.000;
#SONGFILENAME:Songs/StepMix 1.0/Blitzkrieg Beats/Blitzkrieg Beats.sm;
#HASMUSIC:1;
#HASBANNER:1;
#MUSICLENGTH:135.500;
// end cache tags

//---------------dance-single - ----------------
#NOTES:
     dance-single:
     :
     Hard:
     9:
     0.578,0.729,0.140,0.111,0.480,514.000,19.000,15.000,0.000,0.000:
0000
0000
0000
0000
,
0000
0000
0000
0000
,
0000
0000
0000
0000
,
0000
0000
0000
0001
,
0100
0010
1000
0100
,
1000
0001
0010
0001
,
1000
0010
0100
0001
,
1000
0000
0000
0000
0100
0000
0000
0000
0010
0000
0000
0000
0001
0000
0010
0001
,
0000
0010
0001
0000
0010
0001
0000
0000
1000
0000
1000
0000
0001
0000
0010
0001
,
0000
0010
0001
0000
0010
0001
0000
0000
1000
0000
1000
0000
0010
0000
0100
0001
,
0000
1000
0010
0000
1000
0100
0000
0000
0010
0000
0010
0000
0001
0000
0100
0010
,
0000
1000
0010
0000
0100
0010
0000
0000
0100
0000
0100
0000
0001
0000
0000
0001
,
0000
0000
0001
0000
0000
0001
0000
0000
0001
0000
0010
0000
0100
0000
0000
0100
,
0000
0000
0100
0000
0000
0100
0000
0000
0100
0000
0010
0000
0001
0000
0000
1000
,
0000
0000
0010
0000
0000
0100
0000
0000
0001
0000
1000
0000
0001
0000
0000
0010
,
0000
0000
0100
0000
0000
1000
0000
0000
0100
0000
0100
0000
0010
0000
0001
0010
,
0000
0100
0010
0000
0001
0010
0000
0000
0100
0000
0100
0000
0010
0000
0001
0010
,
0000
0100
0010
0000
0001
0010
0000
0000
0100
0000
0100
0000
0010
0000
0100
0010
,
0000
0001
0010
0000
0100
0010
0000
0000
0001
0000
1000
0000
0010
0000
0100
0010
,
0000
0100
0010
0000
0100
0010
0000
0000
1000
0000
0001
0000
1001
0000
0000
0000
,
0000
1000
0010
0000
0000
0010
0100
0001
,
0000
1000
0000
0001
0010
0001
1000
0000
,
0000
0000
1000
0001
0010
0000
0000
0000
0000
0000
0010
0000
0001
0000
0100
0000
,
0000
0100
0000
0010
0100
0001
1000
0000
,
1010
0010
1010
1000
,
2010
0000
3001
0000
0000
0100
1001
0000
,
0101
0100
0101
0001
,
0101
0000
0000
0000
0200
0000
0000
0000
0300
0000
0010
0000
1001
0000
0000
0001
,
0000
0000
0010
0000
0000
0100
0000
0000
1000
0000
1000
0000
0001
0000
0000
0010
,
0000
0000
0100
0000
0000
1000
0000
0000
0001
0000
0001
0000
1000
0000
0000
0010
,
0000
0000
0001
0000
0000
0010
0000
0000
1000
0000
1000
0000
0100
0000
0000
0001
,
0000
0000
0100
0000
0000
1000
0000
0000
0010
0000
0010
0000
0100
0000
0000
0100
,
0001
0000
0000
0000
0100
0000
0000
0100
0001
0000
0000
0000
0100
0000
0000
0100
,
0001
0000
1000
0000
0010
0000
0000
0000
0100
0000
0100
0000
0001
0000
0010
0001
,
0000
0010
0001
0000
0010
0001
0000
0000
1000
0000
1000
0000
0001
0000
0010
0001
,
0000
0010
0001
0000
0010
0001
0000
0000
1000
0000
1000
0000
0010
0000
0100
0001
,
0000
1000
0010
0000
1000
0100
0000
0000
0010
0000
0010
0000
0001
0000
0100
0010
,
0000
1000
0010
0000
0100
0010
0000
0000
0100
0000
0100
0000
0001
0000
0000
0001
,
1000
0000
0000
0000
0001
0000
0000
0001
1000
0000
0000
0000
0001
0000
0000
0001
,
1000
0000
0010
0000
0100
0000
0001
0000
1000
0000
0010
0000
0100
0000
0000
0100
,
0001
0000
0000
0000
0100
0000
0000
0100
0001
0000
0000
0000
0100
0000
0000
0100
,
0001
1000
0100
1000
0010
1000
0001
0000
,
0000
0010
0000
0000
1001
0000
0000
0100
,
0000
0000
1001
0000
0000
0010
0101
0000
,
0000
0110
0000
0000
1100
0000
0000
1010
,
0000
0000
0100
0001
0100
0000
0000
0000
0001
0000
0010
0000
0100
0000
0000
0100
,
0000
0000
0100
0000
0000
0100
0000
0000
0100
0000
0001
0000
1000
0000
0000
1000
,
0000
0000
1000
0000
0000
1000
0000
0000
1000
0000
0001
0000
0100
0000
0000
1000
,
0000
0000
0010
0000
0000
0100
0000
0000
0001
0000
1000
0000
0001
0000
0000
0010
,
0000
0000
0100
0000
0000
1000
0000
0000
0100
0000
0100
0000
0010
0000
0000
0010
,
0001
0000
0000
0001
0100
0000
0000
0100
0010
0000
0000
0010
0100
0000
0000
0100
,
0001
0000
0000
0001
0020
0000
0000
0000
0130
0000
0000
0000
1000
0000
0000
1000
,
0000
0000
1000
0000
0000
1000
0000
0000
1000
0000
0100
0000
0010
0000
0000
0010
,
0000
0000
0010
0000
0000
0010
0000
0000
0010
0000
0100
0000
1000
0000
0000
0001
,
0000
0000
0100
0000
0000
0010
0000
0000
1000
0000
0001
0000
1000
0000
0000
0100
,
0000
0000
0010
0000
0000
0001
0000
0000
0010
0000
0010
0000
0100
0000
0000
0100
,
1000
0000
0000
1000
0010
0000
0000
0010
0100
0000
0000
0100
0010
0000
0000
0010
,
1000
0000
0000
1000
0200
0000
0000
0000
0310
0000
0000
0000
0010
0000
0000
0010
,
0001
0000
0000
0001
0100
0000
0000
0100
0010
0000
0000
0010
0100
0000
0000
0100
,
0001
0000
0000
0001
0020
0000
0000
0000
0130
0000
0000
0000
1000
0100
1000
0000
,
0001
0100
0001
0000
1000
0010
1000
0000
0001
0010
0001
0000
2000
0000
0000
0000
,
3002
0000
0000
0000
2003
0000
0001
0000
3002
0000
0000
0000
1003
0100
1000
0000
,
0010
0100
0010
0000
0100
0001
0100
0000
0010
1000
0010
0000
0200
0000
0000
0000
,
0302
0000
0000
0000
2003
0000
0010
0000
3010
0000
0010
0000
1000
0000
0000
0001
,
0000
0000
0100
0000
0000
0010
0000
0000
1000
0000
0001
0000
1000
0000
0000
0100
,
0000
0000
0010
0000
0000
0001
0000
0000
0010
0000
0010
0000
0010
0000
0000
0100
,
0000
0000
1000
0000
0000
0001
0000
0000
0010
0000
0100
0000
0010
0000
0000
1000
,
0000
0000
0001
0000
0000
0100
0000
0000
0001
0000
0001
0000
1000
0000
0000
1000
,
0000
0000
1000
0000
0000
1000
0000
0000
1000
0000
1001
0000
0001
0000
0000
0001
,
0000
0000
0001
0000
0000
0001
0000
0000
0001
0000
1001
0000
1000
0000
0000
0010
,
0000
0000
1000
0000
0000
0010
0000
0000
1000
0000
0010
0000
0100
0000
0000
0001
,
0000
0000
0100
0000
0000
0001
0000
0000
0100
0000
0001
0000
1000
0000
0000
1000
,
0100
0000
0000
0000
1000
0000
0000
1000
0100
0000
0000
0000
1000
0000
0000
1000
,
0100
0000
0010
0000
0002
0000
0000
0000
0013
0000
0000
0000
0100
0000
0000
0100
,
0010
0000
0000
0000
0100
0000
0000
0100
0010
0000
0000
0000
0100
0000
0000
0100
,
0010
0001
2000
0000
3001
0000
0100
0000
,
0010
0100
0010
0001
,
1000
0001
1000
0010
,
0100
0001
1000
0100
,
0010
0001
0010
0001
,
0000
0001
0000
0000
0001
0000
0000
0001
,
0000
0000
0001
0000
0000
0001
1000
0000
,
0000
1000
0000
0000
1000
0000
0000
1000
,
0000
0000
1000
0000
0000
1000
0010
0000
,
0000
0000
0100
0000
0010
0000
0000
0000
0000
0000
0100
0010
1000
0000
0001
0000
,
0000
0100
0000
0010
1000
0001
1100
0000
,
0000
0000
0010
0001
0100
0000
0000
0000
0000
0000
0001
0010
0100
0000
1000
0000
,
0000
0010
0000
0001
1000
0200
0000
0000
,
0000
0000
0000
0000
,
0000
0000
0000
0000
0000
0000
0000
0000
0000
0300
0000
0000
0101
0000
0000
0000
;

//---------------dance-single - ----------------
#NOTES:
     dance-single:
     :
     Easy:
     3:
     0.200,0.265,0.111,0.000,0.000,175.000,15.000,0.000,0.000,0.000:
0000
0000
0000
0000
,
0000
0000
0000
0000
,
0000
0000
0000
0000
,
0000
0000
0000
1000
,
1000
1000
0000
0001
,
0001
0001
0000
1000
,
0000
0001
0000
1000
,
0000
0010
0000
0100
,
0010
1000
0000
0001
,
0000
0001
0000
1000
,
0010
0100
0000
0001
,
0000
0001
0000
0010
,
0000
0010
0000
0010
,
0000
0010
0100
1000
,
0000
1000
0000
1000
,
0000
1000
0010
0101
,
0000
0100
0000
1100
,
0000
0010
0000
0101
,
0000
0010
0000
1100
,
0000
0001
0000
1000
,
0000
0000
0000
0000
,
0000
0000
0000
0100
,
0000
0000
0000
0000
,
0000
0000
0000
0001
,
1000
0001
1000
0001
,
1000
1000
0000
0010
,
0100
0010
0100
0010
,
0100
0100
0000
0001
,
0000
0010
0000
0100
,
0000
1000
0000
0001
,
0000
1000
0000
0010
,
0000
1000
0000
0001
,
0000
0100
0000
0100
,
0100
0100
0000
1000
,
0000
0010
0000
0100
,
0100
0100
0000
0001
,
0000
0010
0000
0100
,
0100
1000
0000
0010
,
0001
0010
0000
0010
,
1000
0010
0000
0100
,
0001
0100
0000
1000
,
0000
1000
0000
1001
,
0000
0000
0000
0110
,
0000
0000
0000
1001
,
0000
0000
0000
0110
,
0000
0000
0000
1000
,
0000
0100
0000
0001
,
0000
0100
0000
1000
,
0000
0010
0000
0001
,
0000
0100
0000
1001
,
0000
0000
0000
0110
,
0000
0000
0000
1001
,
0000
0000
0000
0100
,
0000
0100
0000
1001
,
0000
0000
0000
0100
,
0000
0100
0000
1000
,
0100
0001
0000
0001
,
0100
1000
0000
0010
,
0010
0100
0000
0001
,
1000
0001
0000
0010
,
0010
0010
0000
0100
,
0100
0100
0000
0001
,
0001
1000
1000
0010
,
0100
0110
0000
1000
,
0000
0100
0000
0001
,
0000
0100
0000
1000
,
0000
0010
0000
0001
,
0000
0100
0000
1000
,
0000
0001
0000
1000
,
0000
0001
0000
0010
,
0000
0100
0000
1000
,
0000
0001
0100
0010
,
0000
0000
0000
0010
,
0000
0010
0000
0010
,
0000
0000
0000
1000
,
0000
1000
0000
1000
,
0000
0000
0000
0001
,
0000
0001
0000
1001
,
0000
0000
0000
0010
,
0000
0010
0000
0110
,
0000
0000
0000
0100
,
0000
0100
0100
0100
,
0000
0000
0100
0000
,
0000
0100
0100
0010
,
0000
0000
0000
1000
,
0000
0000
0000
0001
,
0000
0000
0000
1000
,
0000
0000
0000
0000
,
0000
0000
0000
0000
,
0000
0000
0000
0100
;

//---------------dance-single - ----------------
#NOTES:
     dance-single:
     :
     Medium:
     6:
     0.356,0.530,0.140,0.007,0.000,318.000,19.000,1.000,0.000,0.000:
0000
0000
0000
0000
,
0000
0000
0000
0000
,
0000
0000
0000
0000
,
0000
0000
0000
1000
,
0100
0010
0001
1000
,
0100
0010
0001
0010
,
0100
1000
0010
0100
,
0001
1000
1001
1000
,
1000
0000
1000
0100
0010
0000
0001
0000
,
0010
0100
0000
1000
,
0010
0000
0100
0001
0100
0000
0100
0000
,
0010
0010
0000
1000
,
1000
0000
0001
0010
0100
0000
1000
0000
,
0010
0110
0000
0001
,
1000
0000
0100
1000
0100
0000
0010
0000
,
0100
0000
0101
0000
0000
0000
1000
0100
,
0000
0000
0000
0000
0000
0010
0000
0000
,
0010
0000
0010
0000
0000
0000
1000
0100
,
0000
0000
0000
0000
0010
0000
0000
0100
,
0000
0000
1000
0000
0000
0000
0001
0010
,
0000
0000
0000
1000
,
0000
0100
0000
0000
0010
0000
0001
0000
,
0000
0100
0000
1000
,
0000
0010
0000
0000
1000
0000
0000
0000
,
0000
1001
0000
0110
0000
1001
0000
0110
,
0000
1000
0000
0000
,
0000
0110
0000
1001
0000
0110
0000
0000
,
0000
1000
0000
0000
0000
0000
1000
0000
,
0100
0010
0001
1000
,
0010
0100
0001
1000
,
0100
0000
0010
0000
0001
0000
1000
0100
,
0001
0000
0001
0100
1000
0000
0010
0000
,
0010
0000
0010
0000
0100
0000
0001
1000
,
0100
0010
0001
1000
,
0000
1000
0000
1000
,
0010
0000
0100
0001
0100
0000
1000
0010
,
1000
0000
0010
0000
,
0100
0000
0001
0000
0010
0000
0100
1000
,
0100
0000
0010
0000
,
0001
0010
0001
0000
1000
0000
0000
0000
,
0010
0100
0010
0000
1000
0000
0000
0000
,
0001
0010
0001
0000
1000
0000
0100
0000
,
0100
0100
0010
0001
,
1000
0000
0010
0100
0001
0000
1100
0000
,
0101
0000
0100
1000
0010
0000
0100
0000
,
0001
0000
0010
0100
1000
0000
0010
0000
,
0010
0010
0000
0010
,
0010
0010
0000
1000
,
0000
0001
0000
1000
,
0001
0000
0010
0000
0100
0000
1000
0100
,
1000
0000
0001
0000
,
0010
0000
0100
0000
,
0001
1000
0010
0000
,
0100
0000
0001
0010
,
0100
0000
1000
0000
,
0100
0000
0010
0000
0001
0000
1000
0100
,
1000
0000
0001
0010
0001
0000
0100
0010
,
0100
0000
1000
0100
1000
0000
0001
0100
,
0001
0000
0001
0010
0001
0000
0010
1000
,
0010
0000
0100
0000
0001
0000
1000
0100
,
1000
0100
1000
0100
1000
0100
1000
0100
,
1000
0100
1000
0100
1000
0000
0001
0100
,
0001
0100
0001
0100
0001
0100
0001
0100
,
0001
0100
0001
0100
0001
0000
1000
0000
,
1000
1000
0010
0100
,
0001
0101
0000
1000
,
0010
1000
0100
0010
,
0001
1100
0000
0010
,
0010
0100
0001
1000
,
0100
0110
0000
0001
,
1000
0001
0010
0010
,
0100
1001
0000
1000
,
0100
0001
0100
1000
,
0010
0110
0000
1001
,
0010
0100
0001
1000
,
0100
1001
0000
1000
,
0000
0100
0000
0010
,
0000
0001
0000
0010
,
0000
0100
0000
1000
,
0000
0001
0000
1000
,
0000
0000
0100
0000
0010
0000
0000
0001
,
0000
0000
1000
0000
0000
0010
0100
0000
,
0000
0001
0000
0000
1000
0000
0000
0100
,
0000
0000
0010
0000
0000
0001
1000
0000
,
0000
1000
0100
0000
0000
0100
0010
0001
,
0000
0100
0000
0010
1000
0100
0010
0000
,
0000
0010
0001
0000
0000
0100
0010
1000
,
0000
0100
0000
0010
0001
0200
0000
0000
,
0000
0000
0000
0000
,
0000
0000
0000
0301
;

//---------------dance-single - ----------------
#NOTES:
     dance-single:
     :
     Beginner:
     1:
     0.123,0.199,0.052,0.000,0.000,110.000,7.000,0.000,0.000,0.000:
0000
0000
0000
0000
,
0000
0000
0000
0000
,
0000
0000
0000
0000
,
0000
0000
0000
0010
,
0000
0010
0000
0010
,
0000
0000
0000
0100
,
0000
0100
0000
0100
,
0000
0000
0000
1001
,
0000
0000
0000
1001
,
0000
0000
0000
1001
,
0000
0000
0000
0110
,
0000
0000
0000
1001
,
0000
0000
0000
1001
,
0000
0000
0000
1001
,
0000
0000
0000
0010
,
0000
0000
0000
0100
,
0000
0001
0000
1000
,
0000
0000
0000
0010
,
0000
1000
0000
0010
,
0000
0000
0000
0100
,
0000
0000
0000
0001
,
0000
0000
0000
0010
,
0000
0000
0000
0100
,
0000
0000
0000
1000
,
0100
1000
0000
0001
,
0010
0001
0000
1000
,
0000
0000
0000
0010
,
0000
0100
0000
0001
,
0000
0000
0000
1000
,
0000
0000
0000
0001
,
0000
0000
0000
1000
,
0000
0000
0000
0010
,
0000
0100
0000
0001
,
0000
0000
0000
0010
,
0000
0000
0000
0100
,
0000
0000
0000
1000
,
0000
0010
0000
0100
,
0000
0000
0000
0001
,
0000
0000
0000
1000
,
0000
0000
0000
0010
,
0000
0000
0000
0100
,
0000
0100
0000
0010
,
0000
1000
0000
0100
,
0000
0010
0001
0000
,
1000
0000
1000
0000
,
1000
0000
0010
0100
,
0000
0000
0000
0100
,
0000
0000
0000
0001
,
0000
0000
0000
0010
,
0000
0000
0000
0100
,
1000
0000
0010
0000
,
0001
0000
0100
0000
,
0010
0000
1000
0000
,
0001
0000
0010
0000
,
0100
0000
1000
0000
,
0010
0000
0100
0000
,
0001
0000
0001
0000
,
0001
0000
0001
0000
,
1000
0000
1000
0000
,
1000
0000
1000
0000
,
0000
0000
0000
0010
,
0000
0000
0000
0100
,
0000
0000
0000
0010
,
0000
0000
0000
0001
,
0000
0000
0000
1000
,
0000
0000
0000
0010
,
0000
0000
0000
0001
,
0000
0000
0000
0100
,
0000
0000
0000
0010
,
0000
0000
0000
1000
,
0000
0000
0000
0010
,
0000
0000
0000
0100
,
0100
0000
0000
0000
,
0000
0000
0000
1000
,
1000
0000
0000
0000
,
0000
0000
0000
0100
,
0000
0000
0000
0000
,
0000
0000
0000
0010
,
0000
0000
0000
0000
,
0000
1000
0000
0001
,
0000
0000
0000
0000
,
0000
0100
0000
0010
,
0000
0000
0000
0000
,
0000
0000
0000
0001
,
0000
0000
0000
1000
,
0000
0000
0000
0010
,
0000
0000
0000
0001
,
0000
0000
0000
0000
,
0000
0000
0000
0000
,
0000
0000
0000
1000
;
