#TITLE:Lost;
#SUBTITLE:;
#ARTIST:Kyrn;
#TITLETRANSLIT:;
#SUBTITLETRANSLIT:;
#ARTISTTRANSLIT:;
#CREDIT:;
#BANNER:Lost-BN.png;
#BACKGROUND:Lost-BG.png;
#LYRICSPATH:;
#CDTITLE:;
#MUSIC:Kyrn - Lost.mp3;
#OFFSET:-0.033;
#SAMPLESTART:68.150;
#SAMPLELENGTH:16.500;
#SELECTABLE:YES;
#DISPLAYBPM:148.000;
#BPMS:0.000=148.000;
#STOPS:;
#BGCHANGES:;
// cache tags:
#FIRSTBEAT:16.000;
#LASTBEAT:239.000;
#SONGFILENAME:Songs/StepMix 1.0/Lost/lost.sm;
#HASMUSIC:1;
#HASBANNER:1;
#MUSICLENGTH:99.030;
// end cache tags

//---------------dance-single - W. Smith----------------
#NOTES:
     dance-single:
     W. Smith:
     Hard:
     8:
     0.610,0.566,0.293,0.071,0.384,387.000,29.000,7.000,0.000,0.000:
0000
0000
0000
0000
,
0000
0000
0000
0000
,
0000
0000
0000
0000
,
0000
0000
0000
0000
,
0000
0000
0010
0000
0000
1000
0000
0000
,
0000
0000
0010
0000
0000
0100
0000
0001
,
0000
0000
1000
0000
0000
0100
0000
1000
,
0000
0010
0100
0001
0000
0010
0100
1000
,
0001
0000
0000
1000
0100
0000
1000
0000
0010
0000
0000
0010
0100
0000
0001
0000
,
1000
0000
0000
0100
0010
0000
0001
0000
0100
0000
0000
0100
0001
0000
0010
0000
,
0001
0000
0000
1000
0100
0000
0010
0000
0001
0000
0000
0001
0010
0000
0001
0000
,
1000
0000
0000
0010
0001
0000
0010
0000
1000
0000
0000
0001
0010
0000
0100
0000
,
0100
1000
0001
0100
0001
0010
0100
1000
,
0010
1000
0100
1000
0001
0100
0001
0010
,
0100
1000
0010
1000
0001
0100
0001
0010
,
0001
0001
0010
0010
0100
0100
1000
0001
,
2002
0000
0000
0000
0000
0000
0000
0000
0000
0000
0000
3003
0000
0000
0000
0000
,
1000
0000
0000
0001
0000
0000
0010
0000
0001
1000
0001
1000
0001
1000
0001
1000
,
0001
0000
0000
0000
1000
0000
0000
1000
0100
0000
0100
0000
0010
0000
0000
0000
,
1000
0000
0000
0001
0000
0000
0100
0000
0000
1000
0000
0010
0100
0000
0001
0000
,
1000
0000
0000
0000
0010
0000
0000
0100
0010
0000
0010
0000
0001
0000
0000
0000
,
0001
0000
0000
1000
0000
0000
0100
0000
0000
0001
0000
0010
0100
0000
1000
0000
,
1000
0000
0000
0000
0100
0000
0000
0001
0100
0000
0100
0000
0010
0000
0000
0000
,
1000
0000
0000
0010
0000
0000
0001
0000
0000
0100
0000
0010
1000
0000
0100
0000
,
0010
0011
0000
1010
0000
1100
0000
0010
,
0100
0000
1001
0000
0000
0000
0010
0000
0000
0000
1000
0000
0000
1000
0100
1000
,
0001
0000
0010
0000
0001
0000
0100
0000
0010
1000
0010
0000
1000
0000
0100
0000
,
0210
0000
0001
0000
1000
0000
0001
0300
,
0001
0000
0100
0000
1000
0000
0010
0000
0100
1000
0100
0000
0010
0000
0100
0000
,
0120
0000
0000
0000
0001
0000
0000
0000
1000
0030
0000
1000
0010
0000
0100
0000
,
0001
0000
1000
0000
0100
0000
0001
0000
0100
0010
0100
0000
0010
0000
0001
1000
,
0200
0000
0000
0000
1000
0000
0000
0000
0001
0300
0000
0001
0100
0000
0100
1000
,
0010
0100
0001
0100
0011
0001
0010
0100
,
1100
0000
0010
0000
0000
0000
1010
0000
0000
0000
0001
0000
0000
0100
0001
0010
,
0001
0010
0001
0010
1000
1000
0001
0100
,
1000
0000
1000
0000
0010
0000
0001
0000
0010
1000
0010
0000
0110
0000
0000
0000
,
1000
0100
1000
0100
0001
0001
1000
0010
,
0100
0001
0100
0000
0000
0000
0011
0000
0000
0000
1010
0000
0000
0000
1000
0000
,
0010
0100
1000
1000
0100
0001
1000
0010
,
0100
0000
0001
0000
0010
0000
0100
0000
0100
1000
0100
0000
1010
0000
0000
0000
,
0100
0100
0001
0010
0000
0010
0001
0010
,
0100
0010
0000
0001
0010
0010
0000
0100
,
1000
0000
0010
0000
0010
1000
0000
0000
0001
0000
1000
0010
0000
0101
0000
0000
,
0001
0000
0010
0000
0010
0100
0000
0000
1000
0001
0100
0000
0101
0000
0000
0000
,
0100
0000
0010
0000
0100
0001
0000
0000
1000
0000
0100
0010
0000
0100
0010
0000
,
0001
0011
0000
0110
0000
1010
0000
0101
,
0001
0000
0100
0000
0001
0100
0000
0000
1000
0000
0100
0000
0010
1000
0100
0000
,
0010
0000
0001
0000
0100
0010
0000
0000
0100
0001
1000
0000
1010
0000
0000
0000
,
0010
0101
0000
0011
0000
0100
1000
0010
,
1000
0011
0000
1001
0000
1100
0000
0110
,
0100
0001
0000
0001
0100
0000
0001
0010
0000
0010
0100
0000
0000
0000
0100
0000
,
1000
0010
0000
0010
1000
0000
1000
0010
0000
0000
1000
0000
0000
0000
1000
0000
,
0001
0010
0000
0010
0100
0000
0100
1000
0000
1000
0100
0000
0000
0000
0001
0000
,
0100
1000
0000
1000
0010
0000
0010
0100
0000
0000
0001
0000
0000
0000
0010
0000
,
0100
1000
0000
1000
0100
0000
0100
0001
0000
0001
1000
0000
0000
0000
0010
0000
,
0010
0001
0000
0001
0100
0000
0100
0010
0000
0000
0001
0000
0000
0000
0010
0000
,
1000
0001
0000
0001
0100
0000
0100
0010
0000
0010
1000
0000
0000
0000
0100
0000
,
0000
1000
0010
0100
0010
0100
0001
1000
,
2002
0000
0000
0000
0000
0000
0000
3003
,
0110
0000
0000
0000
;

//---------------dance-single - E.Cohn----------------
#NOTES:
     dance-single:
     E.Cohn:
     Medium:
     6:
     0.479,0.483,0.222,0.101,0.005,300.000,22.000,10.000,0.000,0.000:
0000
0000
0000
0000
,
0000
0000
0000
0000
,
0000
0000
0000
0000
,
0000
0000
0000
0000
,
1001
0000
0100
0010
0000
0000
0010
0100
,
0001
0000
0001
0100
0000
0010
1000
0100
,
1000
0000
0001
0100
0000
0000
0100
0010
,
1000
0000
1000
0100
0000
0000
0100
0010
,
0200
0001
0000
0001
0000
1000
0000
1300
,
2000
0001
0000
0100
0000
0001
0000
3100
,
0200
1000
0000
0001
0000
1000
0000
1300
,
0002
0010
0000
1000
0000
0010
0000
1003
,
0020
0100
0000
0001
0000
0100
0000
1030
,
0002
0100
0000
1000
0000
0100
0000
0013
,
0200
0010
0000
0001
0000
1000
0000
0301
,
0020
0001
0000
1000
0000
0100
0000
0130
,
1100
0000
0000
0000
,
1001
0000
0000
0110
0000
0000
1000
0000
0100
0000
0000
0000
1000
0000
0010
0000
,
0001
0000
0010
0100
0000
0001
1000
0100
,
0010
0000
0100
0010
0000
0001
0010
0100
,
1000
0000
1000
0010
0000
0010
1000
0010
,
0100
0000
0100
0010
0000
0010
0100
1000
,
0100
0000
0001
0010
0000
0001
0010
0100
,
1000
0000
1000
0001
0000
0010
0001
0100
,
0010
0000
0010
0100
0000
0100
0001
1000
,
0100
0000
0100
0010
0000
0001
0010
0100
,
1000
0000
0010
0000
0001
0010
0001
0010
,
1000
0100
0000
0001
0000
0100
0000
0001
,
0100
0000
1000
0000
0010
0100
0010
0100
,
0010
1000
0000
1000
0000
0100
0000
0010
,
0001
0000
0010
0000
0100
1000
0010
0100
,
0001
0010
0000
0001
0000
0100
0000
0001
,
0010
0000
1000
0000
0010
0001
0100
0001
,
0110
0011
1001
1010
,
1000
0010
0100
0001
0000
0100
0010
1000
,
0000
1000
0010
0100
0001
0010
0001
0100
,
0000
0001
0100
1000
0000
1000
0100
0001
,
0000
0001
0010
0100
1000
0010
0100
0001
,
0010
0001
0100
0010
0000
0010
1000
0100
,
0000
0010
0001
0100
0010
1000
0100
0010
,
0000
0001
1000
0100
0000
0100
0010
0001
,
0000
0001
0010
0100
1000
1100
1000
1010
,
1000
0000
1001
0000
1000
0001
0100
0000
,
0001
0000
1001
0000
1000
0001
0100
0001
,
0100
0000
0110
0000
0010
1000
0001
0000
,
0010
0000
0110
0000
0010
0100
1000
0000
,
0010
0000
0110
0000
0010
0100
0001
0000
,
0100
0000
0110
0000
0010
0100
0001
1000
,
0010
0000
1001
0000
1000
0001
0100
0000
,
0001
0101
0000
0110
0000
1001
0000
1000
,
1000
0000
0100
0010
0000
0001
0000
0010
,
0100
0000
1000
0100
0000
0010
0000
0001
,
0010
0000
0100
1000
0000
0100
0000
0010
,
0001
0000
1000
0100
0000
1000
0000
0010
,
0100
0000
0010
0100
0000
0100
0010
0001
,
0010
0000
1000
0100
0000
0010
0001
0010
,
0001
0000
1001
0000
0000
1000
0000
0001
,
0000
0010
0100
1000
0001
0010
0100
1000
,
0001
0000
0000
0000
,
2002
0000
0000
3003
;

//---------------dance-single - W. Smith----------------
#NOTES:
     dance-single:
     W. Smith:
     Challenge:
     9:
     0.775,0.745,0.151,0.091,1.000,513.000,15.000,9.000,0.000,5.000:
0000
0000
0000
0000
,
0000
0000
0000
0000
,
0000
0000
0000
0000
,
0000
0000
0000
0000
,
1000
0000
0000
1000
0100
0000
0001
0000
0100
0000
0000
0100
1000
0000
0010
0000
,
0001
0000
0000
0001
1000
0000
0100
0000
0001
0000
0000
0001
0010
0000
1000
0000
,
0010
0000
0000
0010
0100
0000
0010
0000
0001
0000
0000
0001
1000
0000
0001
0000
,
0100
0000
0000
0010
0100
0000
0001
0000
0010
0000
0000
0100
1000
0000
0010
0000
,
1000
0001
0010
0000
0000
0000
0001
0000
0000
0000
1000
0000
1000
0001
0010
0000
,
0000
0000
0001
0000
1000
0000
0010
0000
0100
1000
0100
0000
0001
0000
0010
0000
,
0100
1000
0100
0000
0000
0000
0010
0000
0000
0000
0001
0000
1000
0100
0000
0100
,
1000
0000
0000
0010
0000
0000
0100
0000
0000
0001
0000
0000
0100
0000
0000
0010
1000
0010
1000
0000
0000
0010
0000
0000
,
0100
0001
0100
0000
0000
0000
0001
0000
0000
0000
0010
0000
0100
0000
1000
0000
,
0001
0100
0001
0000
0010
0000
0100
1000
0000
1000
0010
0000
0100
0010
0100
0001
,
0100
0000
0001
1000
0100
0000
0010
0100
0000
0010
0001
0000
0010
0100
1000
0100
,
0010
0000
0001
1000
0010
0000
0100
0001
1000
0000
1000
0100
0010
0000
0010
0100
,
1000
0100
0010
0000
0000
0000
0001
0000
0000
0000
0001
0000
1000
0010
0100
0000
,
0101
0000
0000
0000
0000
0000
0000
0000
0000
0110
0000
0000
0000
0000
0000
0000
0000
0000
1001
0000
0000
0000
0000
0000
1000
0000
0000
0000
0000
0000
0001
0000
0100
0000
0001
0000
0100
0000
0000
0000
0000
0000
0001
0000
0000
0000
0000
0000
,
1000
0000
0001
0000
0010
0000
0001
0000
0100
1000
0100
0000
0001
0000
0100
0000
,
0001
0100
0000
0100
0000
0100
0010
0000
1000
0010
0000
0010
0000
0010
0100
0000
,
0001
0000
0100
0000
0010
0000
1000
0000
0001
0100
0001
0000
0010
0000
1000
0000
,
0010
0100
0000
0100
0010
0000
0010
0001
0000
0001
0000
0001
0010
0000
0100
0000
,
1000
0000
0001
0000
1000
0000
0010
0000
0100
0001
0100
0000
0010
0000
1000
0000
,
1000
0001
0000
0001
0010
0000
1000
0010
0000
0100
0000
1000
0000
0001
0100
0001
,
0100
0000
0010
0000
0100
0000
1000
0000
0100
0001
0100
0000
0010
0000
1000
0000
,
0100
0010
0000
0010
0001
0000
0100
1000
0000
1000
0000
0100
0001
0010
0001
0100
,
0010
0000
1000
0000
0100
0000
1000
0000
0100
0010
0100
0000
0100
1000
0100
2000
,
0200
0000
0000
0000
0010
0000
0000
0000
0001
0000
0000
0000
0010
3300
0000
0000
,
0001
0000
0100
0000
0010
0000
1000
0000
0100
1000
0001
0000
0100
0001
0100
0000
,
0002
0000
0000
0000
2003
0000
0000
0000
3002
0003
0000
0001
0010
0000
0010
0000
,
0100
0000
1000
0000
0001
0000
1000
0000
0001
0100
0010
0000
1000
0000
0010
0200
,
0020
0000
0000
0000
1000
0000
0000
0000
0001
0330
0000
0010
0100
0000
0001
0010
,
0001
1000
0100
1000
1100
0100
1000
0001
,
1000
0000
0101
0000
0000
0000
0011
0000
0000
0000
1001
0000
0000
0010
1000
0001
,
1000
0100
0000
0100
0000
0010
0001
0000
0100
0010
0000
0010
0000
1000
0010
0000
,
0100
0001
0000
0100
0000
0001
0010
0000
0001
0100
0000
1000
0000
0100
0001
0000
,
0010
0100
0000
0100
0000
1000
0010
0000
0010
0100
0000
0100
0000
0010
0100
0000
,
0001
0100
0000
0010
0000
0100
0001
0000
1000
0100
0000
0010
0000
0100
1000
0000
,
1000
0100
0000
0100
0000
0001
0100
0000
0100
1000
0000
1000
0000
0010
0001
0000
,
1000
0001
0000
0010
0000
0010
1000
0000
1000
0100
0000
0010
0000
0100
0001
0000
,
0100
0010
0000
1000
0000
1000
0010
0000
0001
0010
0000
0100
0000
1000
0010
0000
,
0100
0001
0000
1000
0000
0001
1000
0001
0100
0000
0001
0000
0010
0001
0100
0001
,
1000
0100
0000
0100
0000
0010
0001
0000
0100
0010
0000
0010
0000
1000
0010
0000
,
0100
0001
0000
0100
0000
0001
0010
0000
0001
0100
0000
1000
0000
0100
0001
0000
,
0010
0100
0000
0100
0000
1000
0010
0000
0010
0100
0000
0100
0000
0010
0100
0000
,
0001
0100
0000
0010
0000
0100
0001
0000
1000
0100
0000
0010
0000
0100
1000
0000
,
1000
0100
0000
0100
0000
0001
0100
0000
0100
1000
0000
1000
0000
0010
0001
0000
,
0010
1000
0000
0100
0000
0100
1000
0000
1000
0001
0000
0010
0000
0100
0001
0000
,
0001
0100
1001
0010
0100
0001
1001
0100
,
0010
0000
1100
0000
0000
0000
0011
0000
0000
0000
1001
0000
0000
0010
1000
0000
,
0010
1000
0000
1000
0010
0000
0010
0100
0000
0100
0010
0000
0010
1000
0010
0000
,
0010
0100
0000
0100
0001
0000
0001
0100
0000
0100
0001
0000
0010
0001
1000
0000
,
1000
0100
0000
0100
0010
0000
0010
0001
0000
0001
0010
0000
0010
0001
1000
0100
,
0010
0001
0000
0001
0100
0000
0100
0010
0000
0010
1000
0000
0010
1000
0100
0000
,
0010
0001
0000
0001
0010
0000
0010
1000
0000
1000
0010
0000
0001
1000
0100
0000
,
0010
0001
0000
0001
1000
0000
1000
0010
0000
0010
0100
0000
0001
1000
0100
0000
,
0100
0001
0000
0001
0100
0000
0100
1000
0000
1000
0100
0000
0010
0001
1000
0000
,
1001
0100
0001
1000
0001
0100
0010
0100
,
2002
0000
0000
0000
0000
0000
3003
0010
,
1001
0000
0000
0000
;

//---------------dance-single - E.Cohn----------------
#NOTES:
     dance-single:
     E.Cohn:
     Easy:
     4:
     0.304,0.387,0.192,0.010,0.000,191.000,19.000,1.000,0.000,0.000:
0000
0000
0000
0000
,
0000
0000
0000
0000
,
0000
0000
0000
0000
,
0000
0000
0000
0000
,
1000
0000
0000
0000
,
0001
0000
0000
0000
,
0010
0000
0000
0000
,
0100
0000
0000
0000
,
1001
0000
0000
0010
,
0110
0000
0000
1000
,
1100
0000
0000
0001
,
0101
0000
0000
0010
,
1001
0000
0000
0000
,
1010
0000
0000
0000
,
0101
0000
0000
0000
,
1001
0000
0000
0000
,
0110
0000
0000
0000
,
1000
0000
0001
0000
,
1001
0000
0000
1000
0001
0000
0001
0000
,
0001
0000
0000
0010
0100
0000
1000
0000
,
1000
0000
0000
0100
0010
0000
0010
0000
,
0001
0000
0000
0100
0001
0000
0001
0000
,
0010
0000
0000
0001
0100
0000
0100
0000
,
0010
0000
0000
0010
0100
0000
0100
0000
,
0001
0000
0000
1000
0100
0000
0010
0000
,
0001
0000
1001
0101
,
1000
0100
0010
0001
,
1000
0100
0010
0001
,
1000
0010
0100
0001
,
1000
0010
0100
0001
,
1000
0100
0010
0001
,
1000
0000
0100
0000
0010
0000
0001
1000
,
0001
0010
0101
1000
,
1100
0000
0001
0100
,
0001
0001
0001
1001
,
1000
1000
1000
1001
,
0010
0010
0010
0110
,
0100
0100
0100
0110
,
1000
0100
1000
0000
0001
0100
0001
0000
,
1000
0010
0100
0000
0001
0100
0010
0000
,
1000
0100
0010
0000
0010
0100
1000
0000
,
0010
0001
0010
0000
1000
0100
0010
0000
,
0010
0010
0001
0010
,
0100
0100
0010
0100
,
1000
1000
1000
1000
,
0100
0100
0010
0100
,
1000
0100
1000
0000
0001
0100
0001
0000
,
1000
0010
0100
0000
0001
0100
0010
0000
,
1000
0100
0010
0000
0010
0100
1000
0000
,
1000
0001
0000
0001
0000
0001
0000
0001
,
0100
0000
0100
0000
0000
0010
0000
0000
,
0000
0000
1000
0000
0000
0001
0000
1000
,
0100
0000
0010
0000
0000
0001
0000
0000
,
0000
0000
1000
0000
0000
0100
0000
0010
,
0000
0000
0001
0000
0000
0100
0000
0000
,
0000
0000
0100
0000
0000
0010
0000
0100
,
0001
0000
0010
0000
0000
0100
0000
0100
,
0000
0010
0001
0010
0100
1000
0100
0010
,
0002
0000
0000
0000
0000
0000
0000
0003
,
1010
0000
0000
0000
;

//---------------dance-single - W. Smith----------------
#NOTES:
     dance-single:
     W. Smith:
     Beginner:
     1:
     0.205,0.238,0.091,0.000,0.000,133.000,9.000,0.000,0.000,0.000:
0000
0000
0000
0000
,
0000
0000
0000
0000
,
0000
0000
0000
0000
,
0000
0000
0000
0000
,
0000
0010
0000
0000
,
0000
0100
0000
0000
,
0000
1000
0000
0000
,
0000
0001
0000
1000
,
1001
0100
0000
0100
,
1000
0010
0000
1000
,
1000
0100
0000
0010
,
0001
1000
0000
0100
,
0100
0010
0000
0001
,
1000
0100
1000
0001
,
0001
0010
0001
1000
,
0001
0000
0100
0000
,
1001
0000
0000
0000
,
1000
0000
0001
0000
,
0001
1000
0100
0000
,
1000
0000
0001
0000
,
1000
0010
0010
0000
,
0100
0000
0100
0000
,
0010
0100
0100
0000
,
0001
0000
1000
0000
,
0010
0000
0000
0000
,
0100
0000
0000
0000
,
0100
0010
0010
0000
,
1000
0000
0010
0000
,
1000
0100
1000
0000
,
0001
0000
1000
0000
,
0100
0010
0001
0000
,
0100
0000
0100
0000
,
0010
1000
0100
0000
,
0110
0000
0000
0000
,
1000
0010
1000
0010
,
0010
0000
0010
0000
,
1000
0001
0100
0010
,
1000
0000
0100
0100
,
0010
0010
0001
0010
,
0100
0000
0010
0001
,
0100
0010
0000
1000
,
1000
0000
0100
0000
,
0010
0100
0010
0000
,
0100
1000
0100
0000
,
1000
0001
1000
0000
,
1000
0000
0000
0000
,
0010
0100
0010
0000
,
1000
0001
0100
0001
,
0100
0000
0000
0001
,
1001
0000
0000
0000
,
1001
0010
0000
0000
,
0100
0010
0000
0000
,
1000
0001
0000
0000
,
0001
0010
0000
0000
,
0100
0110
0000
0000
,
0010
0110
0000
0000
,
1000
0001
0000
0000
,
0000
0001
0001
1000
,
1001
0000
0000
0000
,
1001
0000
0000
0000
;
