#TITLE:Bubble Bobble;
#SUBTITLE:- Main Theme;
#ARTIST:Taito;
#TITLETRANSLIT:;
#SUBTITLETRANSLIT:;
#ARTISTTRANSLIT:;
#CREDIT:;
#BANNER:bubble.png;
#BACKGROUND:bubble-bg.png;
#LYRICSPATH:;
#CDTITLE:;
#MUSIC:bubble.mp3;
#OFFSET:-0.980;
#SAMPLESTART:1.280;
#SAMPLELENGTH:12.000;
#SELECTABLE:YES;
#BPMS:0.000=135.000;
#STOPS:;
#BGCHANGES:;
// cache tags:
#FIRSTBEAT:1.000;
#LASTBEAT:208.000;
#SONGFILENAME:Songs/Games/Bubble bobble/bubble.sm;
#HASMUSIC:1;
#HASBANNER:1;
#MUSICLENGTH:94.563;
// end cache tags

//---------------dance-single - ----------------
#NOTES:
     dance-single:
     :
     Easy:
     4:
     0.284,0.381,0.190,0.032,0.000,167.000,18.000,3.000,0.000,0.000:  // measure 1
0000
0000
0000
0000
,  // measure 2
0001
1000
0100
1000
,  // measure 3
0010
0100
0101
0010
,  // measure 4
1000
0100
1000
0010
,  // measure 5
1000
0100
0010
0001
,  // measure 6
0100
0100
0010
1000
,  // measure 7
0100
0010
0101
0010
,  // measure 8
1000
0100
1000
0010
,  // measure 9
0100
0001
0010
0000
,  // measure 10
1001
0000
0100
0000
,  // measure 11
1001
0000
0010
0000
,  // measure 12
1001
0000
1000
0000
,  // measure 13
1001
0000
0001
0000
,  // measure 14
0001
0010
0100
1000
,  // measure 15
0010
1000
0100
1000
,  // measure 16
0010
0010
0100
0100
,  // measure 17
0001
0010
0100
1000
,  // measure 18
0110
0000
1000
0000
,  // measure 19
0110
0000
0001
0000
,  // measure 20
0110
0000
0100
0000
,  // measure 21
0110
0000
0010
0000
,  // measure 22
0010
1000
0100
1000
,  // measure 23
0010
0100
0001
0010
,  // measure 24
0001
0100
0010
1000
,  // measure 25
0100
1000
0010
0100
,  // measure 26
0001
0000
0001
0000
,  // measure 27
1000
0000
1000
0000
,  // measure 28
0001
0000
0100
0000
,  // measure 29
0001
0001
0001
0001
,  // measure 30
1000
0000
0100
0000
,  // measure 31
0010
0000
0001
0000
,  // measure 32
1000
0000
0001
0000
,  // measure 33
1000
1000
1000
1000
,  // measure 34
0100
1000
0100
1000
,  // measure 35
0010
1000
0010
1000
,  // measure 36
0100
0001
0100
0001
,  // measure 37
0010
0001
0010
0001
,  // measure 38
0200
0000
0010
0300
,  // measure 39
0010
0010
0010
0010
,  // measure 40
0200
0000
0010
0300
,  // measure 41
1001
1001
1100
0101
,  // measure 42
1100
1000
0100
0010
,  // measure 43
0001
1000
0100
0010
,  // measure 44
0001
0100
1010
0100
,  // measure 45
1000
0010
0001
0100
,  // measure 46
0001
0010
0100
1000
,  // measure 47
0010
0010
0100
0001
,  // measure 48
0010
0100
1010
0100
,  // measure 49
0001
0010
0100
1000
,  // measure 50
0010
1000
0200
0000
,  // measure 51
0000
0000
0310
0010
,  // measure 52
0010
0010
1001
0000
;

//---------------dance-single - ----------------
#NOTES:
     dance-single:
     :
     Medium:
     6:
     0.370,0.381,0.286,0.021,0.000,216.000,27.000,2.000,0.000,0.000:  // measure 1
0000
0000
0000
0000
,  // measure 2
0001
0001
0001
0000
1000
1000
1000
0000
,  // measure 3
0010
0010
1001
0000
,  // measure 4
1000
0001
1000
0000
0001
1000
0001
0000
,  // measure 5
1100
0101
1100
0000
,  // measure 6
0001
0001
0001
0000
1000
1000
1000
0000
,  // measure 7
0010
0010
1001
0000
,  // measure 8
0100
0010
0100
0000
0010
0100
0010
0000
,  // measure 9
1100
0101
1100
0000
,  // measure 10
0000
0001
1000
0010
0100
0000
0000
0000
,  // measure 11
0000
1000
0001
0010
0100
0000
0000
0000
,  // measure 12
0000
0001
1000
0010
0100
0000
0000
0000
,  // measure 13
0000
0100
0010
1000
0001
0000
0000
0000
,  // measure 14
1000
1000
0100
0100
,  // measure 15
0010
0001
1100
0001
,  // measure 16
0100
0010
1000
0100
,  // measure 17
2000
0000
0000
3000
,  // measure 18
0000
0001
1000
0100
0010
0000
0000
0000
,  // measure 19
0000
1000
0001
0100
0010
0000
0000
0000
,  // measure 20
0000
0010
1000
0100
0010
0000
0000
0000
,  // measure 21
0000
0001
0100
0010
1000
0000
0000
0000
,  // measure 22
0001
0001
1000
1000
,  // measure 23
0100
0000
1010
0000
0001
0000
1000
0010
,  // measure 24
0100
0000
0100
0001
0010
0000
1100
0000
,  // measure 25
0201
0001
0001
0301
,  // measure 26
0010
1000
0000
0001
0000
0100
0000
0001
,  // measure 27
0000
0010
0000
0100
0000
1000
0000
0000
,  // measure 28
0001
0100
0000
0010
0000
1000
0000
0100
,  // measure 29
0000
1000
0000
0010
0000
0100
0000
0001
,  // measure 30
0010
0100
0000
1000
0010
0100
0000
0001
,  // measure 31
0000
1000
0000
0100
0000
1000
0000
0010
,  // measure 32
0100
0001
0000
1000
0100
0010
0000
0001
,  // measure 33
0000
0100
0000
0010
0000
1000
0000
0100
,  // measure 34
0010
0001
0010
0001
,  // measure 35
1000
1000
1000
1000
,  // measure 36
0010
1000
0010
1000
,  // measure 37
0001
0001
0001
0001
,  // measure 38
0100
0010
0000
0000
0100
0010
0000
0000
,  // measure 39
1000
0001
1000
0001
,  // measure 40
0100
0010
0000
0000
0100
0010
0000
0000
,  // measure 41
1001
1001
1001
1001
,  // measure 42
1001
0010
1000
0100
,  // measure 43
0001
0001
0001
0000
1000
1000
1000
0000
,  // measure 44
0010
0100
1001
0000
,  // measure 45
0001
1000
0100
0000
0001
1000
0100
0000
,  // measure 46
0010
0001
1100
0000
,  // measure 47
0010
0010
0010
0000
0100
0100
0100
0000
,  // measure 48
0001
1100
0101
0000
,  // measure 49
0001
1000
0100
0000
0100
1000
0001
0000
,  // measure 50
0100
0010
0100
0010
0100
0000
0000
0000
,  // measure 51
1001
0000
1100
1100
,  // measure 52
0101
0101
1100
0000
;

//---------------dance-single - ----------------
#NOTES:
     dance-single:
     :
     Hard:
     9:
     0.560,0.522,0.338,0.074,0.116,332.000,32.000,7.000,0.000,0.000:  // measure 1
0000
0010
1000
0001
,  // measure 2
0010
0000
0001
0000
1000
0000
0000
1000
0010
0000
1000
0000
0001
0000
0001
0000
,  // measure 3
0010
0000
0100
0000
1000
0100
0000
0000
0011
0000
0000
0000
1100
0000
0010
0001
,  // measure 4
0010
0000
0100
0000
1000
0000
0010
0000
1000
0000
0100
0010
0000
0000
0001
0000
,  // measure 5
1000
0000
0001
0000
1000
0100
0000
0000
0011
0000
1000
0000
1000
0000
1000
0000
,  // measure 6
0010
0000
0001
0000
0100
0000
0000
0010
1000
0000
0100
0000
0010
0001
0000
0000
,  // measure 7
1000
0000
0010
0000
0100
0001
0000
0000
0110
0000
0000
0000
1001
0000
0010
1000
,  // measure 8
0010
0000
0100
0000
0010
0000
1000
0000
0100
0000
0010
0001
0000
0000
0100
0000
,  // measure 9
0010
0000
1000
0000
0100
0010
0000
0000
1001
0000
0001
0000
0010
0000
0100
0000
,  // measure 10
1000
0001
0001
0001
0001
1000
0010
0100
,  // measure 11
0001
1000
1000
1000
1000
0001
0010
0100
,  // measure 12
1000
0010
0010
0010
0010
1000
0010
0100
,  // measure 13
0001
0100
0100
0100
0100
0001
0010
0100
,  // measure 14
1000
1000
0000
0010
0000
0100
0001
0000
,  // measure 15
0200
0310
1100
0010
,  // measure 16
0001
0000
0000
0100
0000
0100
0010
0000
,  // measure 17
2002
0000
0000
0000
3003
0010
0010
0010
,  // measure 18
0010
1000
0001
0100
0010
1000
1000
1000
,  // measure 19
1000
0010
0100
0001
0010
0100
0100
0100
,  // measure 20
0100
1000
0010
0100
0010
0001
0001
0001
,  // measure 21
0001
1000
0010
0100
0001
0010
0100
1000
,  // measure 22
0010
0010
0000
0001
0000
1000
0100
0000
,  // measure 23
0010
1100
0010
0001
,  // measure 24
1000
0000
0000
0100
0000
0010
0100
0010
,  // measure 25
0200
0001
0010
0310
,  // measure 26
0001
1000
0000
0001
1000
0001
0000
0010
,  // measure 27
0000
1100
0000
0010
0000
0101
0000
0001
,  // measure 28
1000
0001
0000
1000
0001
1000
0000
0010
,  // measure 29
0000
0101
0000
0010
0000
1100
0000
0010
,  // measure 30
0001
1000
0100
0010
0001
1000
0100
0010
,  // measure 31
0001
0010
0100
1000
0001
0010
0100
1000
,  // measure 32
1000
0100
0010
0001
1000
0100
0010
0001
,  // measure 33
0001
0010
0100
1000
0001
0010
0100
1000
,  // measure 34
0010
0010
0000
0001
1000
0100
0000
0011
,  // measure 35
0000
0011
0000
0011
0000
0011
0000
0010
,  // measure 36
0100
0100
0000
0001
1000
0100
0000
1010
,  // measure 37
0000
1010
0000
1010
0000
1010
0000
0100
,  // measure 38
0010
0001
0000
1000
0010
0100
0000
0001
,  // measure 39
0000
1000
0000
0001
0000
1000
0000
0010
,  // measure 40
1000
0100
0000
0010
0001
0100
0000
1000
,  // measure 41
0101
1100
0101
1100
,  // measure 42
1010
0001
1000
0010
,  // measure 43
0100
0000
0001
0000
0010
0000
0000
0001
1000
0000
0010
0000
0100
0000
0001
0000
,  // measure 44
0100
0000
0010
0000
1000
0100
0000
0000
0011
0000
0000
0000
1100
0000
0010
0100
,  // measure 45
0010
0000
1000
0000
0001
0000
0100
0000
0010
0000
1000
0100
0000
0000
0001
0000
,  // measure 46
1000
0000
0100
0000
0010
0001
0000
0000
1100
0000
0010
0000
0001
0000
1000
0000
,  // measure 47
0010
0000
0100
0000
0010
0000
0000
0100
0010
0000
1000
0000
0001
0100
0000
0000
,  // measure 48
0010
0000
1000
0000
0100
0010
0000
0000
0101
0000
0000
0000
1010
0000
0001
1000
,  // measure 49
0001
0000
0100
0000
0010
0000
1000
0000
0100
0000
0010
0001
0000
0000
0010
0000
,  // measure 50
1000
0000
0100
0000
0010
0001
0000
0000
2002
0000
0000
0000
0000
0000
0000
0000
,  // measure 51
0000
0000
3003
0000
0010
1000
0010
1000
,  // measure 52
0010
1000
0010
1000
0200
0000
0000
0000
,  // measure 53
0300
0000
0000
0000
;
