#TITLE:Palindrome;
#SUBTITLE:;
#ARTIST:Sanxion7;
#TITLETRANSLIT:;
#SUBTITLETRANSLIT:;
#ARTISTTRANSLIT:;
#CREDIT:;
#BANNER:Palindrome-banner.png;
#BACKGROUND:Palindrome-bg.png;
#LYRICSPATH:;
#CDTITLE:;
#MUSIC:2005-06_Sanxion7_-_Palindrome.mp3;
#OFFSET:0.000;
#SAMPLESTART:23.980;
#SAMPLELENGTH:12.020;
#SELECTABLE:YES;
#BPMS:0.000=165.000,100.000=160.000,128.000=165.000,132.000=155.000,164.000=160.000,168.000=165.000;
#STOPS:231.500=0.360
;
#BGCHANGES:;
// cache tags:
#FIRSTBEAT:0.000;
#LASTBEAT:233.000;
#SONGFILENAME:Songs/StepMix 1.0/Palindrome/2005-06_Sanxion7_-_Palindrome.sm;
#HASMUSIC:1;
#HASBANNER:1;
#MUSICLENGTH:97.546;
// end cache tags

//---------------dance-single - ----------------
#NOTES:
     dance-single:
     :
     Easy:
     5:
     0.287,0.416,0.318,0.021,0.000,163.000,31.000,2.000,0.000,0.000:
0000
0000
0000
0000
,
0000
0000
0000
0000
,
0000
0000
0000
0000
,
0000
0000
0000
0000
,
1000
0000
0010
0000
,
0001
0000
0010
0000
,
0100
0000
1000
0000
,
0010
0000
0000
0000
,
1001
0100
0001
0100
,
0010
1000
0100
0100
,
1001
1000
0100
0010
,
0001
0001
1000
0000
,
0010
0000
1000
0000
,
0001
0000
1000
1000
,
0100
0010
1000
0000
,
0001
0000
1000
0000
,
0001
0000
1000
0000
,
1001
0000
1100
0000
0000
0001
0000
0000
,
0100
0000
1000
0000
0000
0001
0000
0000
,
1001
0000
0100
0000
0000
0001
0000
0000
,
1000
0000
0100
0000
0000
0010
0000
0000
,
1001
0000
1010
0000
0000
0010
0000
0000
,
1001
0000
0011
0000
0000
0100
0000
0000
,
1001
0000
0110
0000
0000
1001
0000
0000
,
1000
0100
0010
0001
,
1001
1000
0000
0001
,
0000
0001
0000
0110
,
0000
0010
0000
0100
,
0000
0100
0000
1001
,
0000
1000
0100
1000
,
0000
0001
0000
1000
,
0100
0001
0010
1000
,
0001
0010
0100
1000
,
2002
0000
0000
0000
,
3003
0000
1000
0000
,
0001
0000
1000
0000
,
0001
0000
0100
0000
1000
0000
0010
1000
,
0001
0000
1000
0000
,
0001
0100
1000
0100
,
1001
0000
1010
0000
,
0101
0000
1100
0000
,
0101
0100
1000
0010
,
1001
0000
0010
0000
0000
1000
0000
0010
,
0000
0000
1000
0100
,
0001
0000
0010
0000
0000
0100
0000
0010
,
0000
0000
0000
0000
1000
0100
0010
0000
,
0001
0000
0001
0000
0000
1000
0000
0001
,
0000
0000
1000
0100
,
1001
0000
0110
0000
0000
1100
0000
0011
,
0000
0000
0001
1000
0001
0000
0010
0000
,
0110
0000
0001
0000
0000
1000
0010
0001
,
0000
0000
1000
0001
,
0001
0000
1000
0000
0000
0010
0100
1000
,
0000
0000
0000
0000
1000
0010
0000
1000
,
0001
0000
1000
0000
0000
0010
0000
0100
,
0000
0000
0000
0000
1000
0100
0000
0010
,
0001
0000
1010
0000
0000
0101
0000
1010
,
0000
0000
0010
0100
1000
0001
1000
0000
,
1001
0000
0000
0000
;

//---------------dance-single - ----------------
#NOTES:
     dance-single:
     :
     Beginner:
     3:
     0.174,0.208,0.154,0.051,0.000,99.000,15.000,5.000,0.000,0.000:
0000
0000
0000
0000
,
0000
0000
0000
0000
,
0000
0000
0000
0000
,
0000
0000
0000
0000
,
1000
0000
0000
0000
,
0001
0000
0000
0000
,
0100
0000
1000
0000
,
0010
0000
0000
0000
,
1001
0000
0001
0000
,
0010
0000
0100
0000
,
1001
0000
0001
0000
,
0001
0000
1000
0000
,
0010
0000
1000
0000
,
0001
0000
1000
0000
,
0100
0000
1000
0000
,
0001
0000
1000
0000
,
0001
0000
1000
0000
,
1001
0000
0001
0000
,
1000
0000
0001
0000
,
1001
0000
0001
0000
,
1000
0000
0100
0000
,
1001
0000
0010
0000
,
1001
0000
0100
0000
,
1001
0000
1000
0000
,
1000
0000
0010
0000
,
1001
0000
1000
0000
,
0001
0000
0001
0000
,
0110
0000
0010
0000
,
0100
0000
0100
0000
,
1001
0000
1000
0000
,
1000
0000
0001
0000
,
1000
0000
0001
0000
,
1000
0000
0001
0100
,
2000
0000
0000
3000
,
0200
0000
0000
0300
,
0020
0000
0000
0030
,
0000
0000
1000
0000
,
2002
0000
0000
3003
,
0000
0100
0000
0100
,
0000
0000
1000
0000
,
0001
0000
0100
0000
,
0001
0000
1000
0000
,
1001
0000
0000
1000
,
0000
0000
1000
0000
,
0001
0000
0100
0000
,
0000
0000
1000
0000
,
0001
0001
0000
1000
,
0000
0000
1000
0100
,
1001
0000
0000
0000
,
0010
0001
0001
0000
,
0110
0000
0000
0000
,
0001
0000
1000
0000
,
0001
0000
0000
0100
,
0000
0000
1000
0000
,
0001
1000
0000
0010
,
0000
0000
1000
0000
,
0001
0000
1000
0000
,
1000
0000
1000
1000
,
1001
0000
0000
0000
;

//---------------dance-single - ----------------
#NOTES:
     dance-single:
     :
     Medium:
     6:
     0.425,0.476,0.338,0.174,0.036,240.000,33.000,17.000,0.000,0.000:
0000
0000
0000
0000
,
0000
0000
0000
0000
,
0000
0000
0000
0000
,
0000
0000
0000
0000
,
1000
0000
0001
0000
0010
0000
0100
0010
,
0001
0000
0000
0100
1000
0000
0010
0000
0000
0100
0001
0000
,
0100
0000
0000
0001
0000
1000
0010
0001
0000
0000
0001
0000
,
0010
0000
0000
0000
1000
0000
0000
0000
0100
0000
0000
0000
,
1001
0000
0100
0000
0001
0000
0100
1000
,
0110
0000
1000
0010
0100
1000
0100
0000
,
1001
0000
1000
0000
0100
0001
0000
1000
,
0001
0000
0001
1000
1000
0010
0000
0100
,
0010
0000
0000
0000
1000
0100
0010
0000
,
0001
0000
0000
0000
1000
0010
1000
0000
,
0100
0100
0010
0000
1000
0000
0000
1000
,
0001
1000
0010
0000
1000
0010
0100
0000
,
0001
0100
0001
0000
1000
0100
0010
0001
,
1001
0000
1100
0000
0000
0001
0100
0010
,
0100
0000
1000
0000
0000
0001
1000
0010
,
1001
0000
0100
0000
0000
0001
0010
0100
,
1000
0000
0100
0000
0000
0010
0010
0100
,
1001
0000
1010
0000
0000
0010
0100
0001
,
1001
0000
0011
0000
0000
0100
0001
1000
,
1001
0000
0110
0000
0000
1001
0000
1000
,
1000
0001
0100
0000
0010
0000
0001
0000
,
1001
0001
1000
0100
,
0010
1000
0100
0010
,
0110
1000
0010
0010
,
0100
1000
0011
0010
,
1001
0100
1000
0100
,
1000
0100
0001
0100
,
1000
0100
0001
0010
,
1000
0001
0010
0100
,
2002
0000
0000
3003
0220
0000
0000
0330
,
2200
0000
0000
3300
0202
0000
0000
0303
,
0000
0022
0000
0000
0000
0000
0000
0000
,
0033
0000
0100
0000
1000
0000
0010
1000
,
0002
0000
1000
0003
,
0001
0200
1300
0100
,
2002
0003
0200
3000
,
0002
0300
0020
0033
,
0001
0010
0100
0100
1000
0010
0010
0100
,
1001
0000
0010
0000
0000
1000
0100
0010
,
0000
0000
0000
0000
1000
0001
0100
0010
,
0001
0000
0010
0000
0000
0100
0001
0010
,
0000
0000
0000
0000
1000
0100
0010
0000
,
0001
1000
0001
0000
0000
1000
0010
0001
,
0000
0000
0000
0000
1000
0100
0100
0000
,
1001
0000
0110
0000
0000
1100
0001
0011
,
0000
0000
0001
1000
0001
0000
0010
0100
,
0110
1000
0001
0000
0000
1000
0010
0001
,
0000
0000
0000
0000
1000
0100
0001
0010
,
0001
1000
1000
0000
0000
0010
0100
1000
,
0000
0000
0000
0000
1000
0010
0000
1000
,
0001
0001
1000
0000
0000
0010
0100
0100
,
0000
0000
0000
0000
1000
0100
0000
0010
,
0001
0000
1010
0000
0000
0101
0000
1010
,
0000
0000
0000
0100
1000
0001
1000
0001
,
1001
0000
0000
0000
;

//---------------dance-double - ----------------
#NOTES:
     dance-double:
     :
     Easy:
     5:
     0.284,0.418,0.308,0.021,0.000,162.000,30.000,2.000,0.000,0.000:
00000000
00000000
00000000
00000000
,
00000000
00000000
00000000
00000000
,
00000000
00000000
00000000
00000000
,
00000000
00000000
00000000
00000000
,
10000000
00000000
00100000
00000000
,
00010000
00000000
00001000
00000000
,
01000000
00000000
10000000
00000000
,
00100000
00000000
00000000
00000000
,
10010000
01000000
00010000
00000100
,
00000100
00000001
00000010
00000010
,
00011000
10000000
01000000
00100000
,
00010000
00010000
10000000
00000000
,
00100000
00000000
00001000
00000000
,
00010000
01000000
10000000
10000000
,
01000000
00100000
10000000
00000000
,
00010000
00000000
00001000
00000000
,
00000100
00000000
00000001
00000000
,
00001001
00000000
00010010
00000000
00000000
00010000
00000000
00000000
,
01000000
00000000
10000000
00000000
00000000
00010000
00000000
00000000
,
00101000
00000000
00010000
00000000
00000000
00010000
00000000
00000000
,
00001000
00000000
00000100
00000000
00000000
00000010
00000000
00000000
,
10010000
00000000
10100000
00000000
00000000
00100000
00000000
00000000
,
10010000
00000000
00010100
00000000
00000000
00000010
00000000
00000000
,
00011000
00000000
01000010
00000000
00000000
00001001
00000000
00000000
,
00000001
00000100
00000010
00001000
,
00011000
00000000
00001000
00000000
,
00000001
00000000
00010000
00000000
,
01100000
00000000
00100000
00000000
,
00010000
00000000
00000100
00000000
,
00010100
00000000
00000001
00000100
,
00001000
00000000
00010000
00000000
,
10000000
01000000
00010000
00000010
,
00000001
00001000
00100000
01000000
,
20000002
00000000
00000000
00000000
00000000
00000000
00000000
30000003
,
00000000
00000000
10000000
00000000
,
00010000
00000000
00001000
00000000
,
00000100
00000000
00000010
00000000
00000100
00000000
00001000
00100000
,
00010000
00000000
00000100
00000000
,
00010000
01000000
10000000
01000000
,
10010000
00000000
00100010
00000000
,
01000100
00000000
00010001
00000000
,
00010000
01000000
10000000
00100000
,
00011000
00000000
00100000
00000000
00000000
00010000
00000000
00100000
,
00000000
00000000
00001000
00000100
,
00000010
00000000
00000001
00000000
00000000
00000100
00000000
00010000
,
00000000
00000000
00000000
00000000
10000000
01000000
00100000
00000000
,
00010000
00000000
00010000
00000000
00000000
10000000
00000000
00010000
,
00000000
00000000
10000000
01000000
,
00110000
00000000
00100100
00000000
00000000
01001000
00000000
00110000
,
00000000
00000000
00010000
00001000
00010000
00000000
00100000
00000000
,
01100000
00000000
00010000
00000000
00000000
10000000
00100000
00010000
,
00000000
00000000
00001000
00000001
,
00000001
00000000
00001000
00000000
00000000
00100000
01000000
10000000
,
00000000
00000000
00000000
00000000
10000000
00100000
00000000
10000000
,
00010000
00000000
10000000
00000000
00000000
00100000
00000000
00000100
,
00000000
00000000
00000000
00000000
00001000
00000100
00000000
00000010
,
00000001
00000000
00001010
00000000
00000000
01001000
00000000
10100000
,
00000000
00000000
00000000
01000000
00100000
00010000
00000100
00000000
,
00000000
00011000
00000000
00000000
;

//---------------dance-single - ----------------
#NOTES:
     dance-single:
     :
     Hard:
     8:
     0.510,0.505,0.123,0.113,0.149,325.000,12.000,11.000,0.000,6.000:
0000
0000
0000
0000
,
0000
0000
0000
0000
,
0000
0000
0000
0000
,
1001
0100
0010
0001
1000
0100
0010
0000
,
0010
0001
0100
1000
0100
0100
0010
0000
,
1000
0100
0100
0010
0100
0100
1000
0100
,
0010
0010
0001
0010
0100
0100
1001
0000
,
1000
0100
0100
0010
0010
0010
0001
1000
,
1000
1000
1000
1000
1000
1000
1000
1000
,
1001
1000
0100
0010
,
0001
0000
0100
0000
0000
1000
0100
1000
,
0100
0010
1000
0001
,
0100
0000
1000
0100
0001
0100
1000
0010
,
0001
0010
1000
0000
0010
0000
1000
0000
,
0100
0010
0001
1000
,
0001
0010
0001
0010
0001
0010
0100
0010
,
0100
0010
0100
0010
1000
0010
1000
0010
,
1010
0000
0001
0000
0000
0001
0010
0001
,
1000
0000
0001
0000
0000
1000
0100
1000
,
0001
0000
0010
0000
0000
0000
0001
0010
,
0001
1000
0100
0010
0001
0000
0100
0010
,
1000
0001
0100
0010
1000
0001
1000
0001
,
1000
0001
1001
0000
1000
0000
0100
0000
,
0010
0000
0001
0001
0000
0001
0000
1000
,
0000
1000
0001
1000
0100
0010
0001
0010
,
0100
1000
0010
0001
0010
1000
0100
0001
,
0100
1000
0001
1000
0000
1000
0000
1000
,
0000
1000
0100
0010
0001
0100
1000
0100
,
0001
0010
0100
1000
0100
0001
0010
0100
,
1002
0000
0000
1000
0013
0100
1000
0000
,
0001
0100
1000
0010
,
1000
0100
1000
0100
0010
0001
0010
0001
,
0100
0100
0100
0100
,
1000
0000
1000
0000
1000
0000
0001
0000
0000
0000
0000
0000
,
0010
0000
0010
0000
0010
0000
0100
0000
0000
0000
0000
0000
,
1000
0000
0100
0000
0010
0000
0001
0000
1000
0000
0100
0000
,
0010
0000
0001
0000
0100
0000
1000
0000
0000
1000
0000
1000
,
0000
1000
0000
0100
0000
0100
0000
0010
0000
0001
0000
0001
,
0000
0010
0000
1000
0000
0100
0010
0000
0010
0000
0001
0000
,
2000
0002
3200
0023
,
2300
0230
3020
0302
,
0030
1000
1000
1003
,
1000
0000
0100
0000
0010
0000
0010
0000
0001
0000
0100
0000
1000
0100
1000
0000
,
0100
0001
0010
0100
1000
0100
0010
0000
,
1000
0000
0100
0000
0100
0000
0010
0000
0001
0000
0100
0000
0010
1000
0010
0000
,
1000
0100
0010
0001
0010
0100
0100
0000
,
1000
0000
0100
0000
0010
0000
0001
0000
0010
0000
0100
0000
,
1000
0100
0010
0001
0010
0100
1000
0100
,
1000
0000
0100
0000
1000
0000
0100
0000
1000
0000
0100
0000
,
0110
0011
1100
0011
,
2002
0000
0000
3003
,
1000
0100
0001
0100
1000
0010
0001
0010
,
1000
0000
0001
0000
0000
1000
0000
0100
,
0000
0000
0001
0010
1000
0010
0001
1000
,
0001
0000
0010
0000
0000
1000
0000
0100
,
0000
0000
0001
0010
1000
0010
0001
0010
,
1000
0000
0010
0000
0000
1000
0000
0100
,
0000
0000
1000
0100
0010
0001
0100
1000
,
0101
0000
0000
0000
;

//---------------dance-single - ----------------
#NOTES:
     dance-single:
     :
     Challenge:
     10:
     0.608,0.684,0.133,0.113,0.374,391.000,13.000,11.000,0.000,6.000:
0000
0000
0000
0000
,
0000
0000
0000
0000
,
0000
0000
0000
0000
,
1001
0000
0100
0001
0010
0000
0001
0000
1000
0010
0100
0000
0010
0000
0000
0000
,
0010
0100
0001
0000
0100
0000
1000
0000
0100
0010
0100
0000
0010
0000
1000
0010
,
1000
0000
0100
0010
0100
0000
0010
0000
0100
0000
0100
0000
1000
0000
0100
0000
,
0010
0001
0010
0000
0001
0000
0010
0000
0100
0001
0100
0000
1001
0000
0000
0000
,
1000
0000
0100
0010
0100
0000
0010
0001
0010
0100
0010
0000
0001
0000
1000
0100
,
1000
0000
1000
0010
1000
0000
1000
0001
1000
0000
0001
1000
0001
0000
1000
0000
,
1001
0000
1000
0100
0100
0010
0010
0000
,
0001
1000
0100
0000
0000
1000
0100
1000
,
0100
0000
0000
0000
0010
0000
0100
0000
1000
0000
0010
0100
0001
0000
0000
0000
,
0100
0000
1000
0100
0001
0100
1000
0010
,
0001
0010
1000
0100
0010
0000
1000
0100
,
0100
0010
0010
1000
0001
0000
1000
1000
,
0001
0000
0010
0000
0001
0000
0010
0000
0001
0100
0010
0000
0100
0000
0010
0000
,
0100
0000
0010
0000
0100
0000
0010
0100
1000
0000
0010
0000
1000
0000
0010
0000
,
1010
0000
0001
0000
0000
0001
0010
0001
,
1000
0100
0010
0000
0001
0000
0000
0000
0000
0000
1000
0010
0100
0000
1000
0000
,
0001
0000
0010
0000
0000
0000
0001
0010
,
0001
0100
1000
0000
0100
0000
0010
0000
0001
0000
0000
0000
0100
0000
0010
0001
,
1000
0000
0001
0000
0100
0000
0010
0000
1000
0100
0001
0010
1000
0010
0001
0100
,
1000
0000
0001
0000
1001
0000
0000
0000
1000
0000
0000
0000
0100
0010
0000
0000
,
0010
0000
0000
0000
0001
1000
0001
0000
0000
0000
0001
0000
0000
0000
1000
0000
,
0000
1000
0001
1000
0100
0010
0001
0010
,
0100
1000
0010
0001
0010
1000
0100
0001
,
0100
1000
0001
1000
0000
1000
0000
1000
,
0000
1000
0100
0010
0001
0100
1000
0100
,
0001
0010
0100
1000
0100
0001
0010
0100
,
1002
0000
0000
1000
0013
0100
1000
0000
,
0001
1000
0000
0000
0100
0000
0010
0000
1000
0100
0000
0000
0010
0000
0001
0000
,
1000
0100
1000
0100
0010
0001
0010
0001
,
0100
0000
0010
0000
0100
0000
1000
0000
0100
0001
0010
0000
0100
1000
0000
0000
,
1001
0000
0000
0000
1000
0000
0000
0000
1000
0000
0000
0000
0001
0000
0000
0000
0000
0000
1000
0000
0000
0100
0000
0000
,
0010
0000
0000
0000
0010
0000
0000
0000
0010
0000
0000
0000
0100
0000
0000
0000
0000
0000
0010
0000
0000
0100
0000
0000
,
1000
0000
0100
0000
0010
0000
0001
0000
1000
0000
0100
0000
,
0010
0000
0000
0000
0001
0000
0000
0000
0100
0000
0000
0000
1000
0000
0000
0000
0000
0000
1000
0100
0000
0000
1000
0010
,
0000
0000
1000
0000
0000
0000
0100
0000
0000
0000
0100
0001
0000
0000
0010
0000
0000
0000
0001
0000
0000
0000
0001
0000
,
0000
0100
0010
0000
0000
0000
1000
0000
0000
0000
0100
0000
0010
0000
0000
0000
0010
0000
0000
0000
0001
0000
0000
0000
,
2000
0010
0000
0002
0000
0000
3200
0000
0000
0023
0000
0000
,
2300
0230
3020
0302
,
0030
0000
0000
1000
0010
0000
1000
0100
0000
1003
0100
0010
,
1000
0000
0100
0000
0010
0000
0010
0000
0001
0000
0100
0000
1000
0100
1000
0000
,
0100
0001
0010
0100
1000
0100
0010
0000
,
1000
0000
0100
0001
0100
0000
0010
0000
0001
0000
0100
0000
0010
1000
0010
0000
,
1000
0000
0100
0000
0010
0000
0001
0000
0010
0000
0100
1000
0100
0000
0000
0000
,
1000
0000
0100
0000
0010
0000
0001
0000
0010
0000
0100
0000
,
1000
0100
0010
0001
0010
0100
1000
0100
,
1000
0000
0000
0000
0100
0000
0000
0000
1000
0000
0000
0000
0100
0000
0000
0000
1000
0000
0000
0000
0100
0010
0000
0000
,
0110
0011
1100
0011
,
2002
0000
0000
3003
,
1000
0100
0001
0100
1000
0010
0001
0010
,
1000
0000
0001
0000
0000
1000
0000
0100
,
0000
0000
0001
0010
1000
0010
0001
1000
,
0001
0000
0010
0000
0000
1000
0000
0100
,
0000
0000
0001
0010
1000
0010
0001
0010
,
1000
0000
0010
0000
0000
1000
0000
0100
,
0000
0000
0000
0000
1000
0000
0100
0000
0010
0000
0001
0000
0100
0010
1000
0000
,
0101
0000
0000
0000
;

//---------------dance-double - ----------------
#NOTES:
     dance-double:
     :
     Beginner:
     3:
     0.177,0.209,0.154,0.051,0.000,101.000,15.000,5.000,0.000,0.000:
00100000
00000000
00000000
00000000
,
00000000
00000000
00000000
00000000
,
00000000
00000000
00000000
00000000
,
00000000
00000000
00000000
00000000
,
00100000
00000000
00000000
00000000
,
00000100
00000000
00000000
00000000
,
00010000
00000000
00100000
00000000
,
00001000
00000000
00000000
00000000
,
00100100
00000000
00000100
00000000
,
00001000
00000000
00010000
00000000
,
00100100
00000000
00000100
00000000
,
00000100
00000000
00100000
00000000
,
00001000
00000000
00100000
00000000
,
00000100
00000000
00100000
00000000
,
00010000
00000000
00100000
00000000
,
00000100
00000000
00100000
00000000
,
00000100
00000000
00100000
00000000
,
00100100
00000000
00000100
00000000
,
00100000
00000000
00000100
00000000
,
00100100
00000000
00000100
00000000
,
00100000
00000000
00010000
00000000
,
00100100
00000000
00001000
00000000
,
00100100
00000000
00010000
00000000
,
00100100
00000000
00100000
00000000
,
00100000
00000000
00001000
00000000
,
10100000
00000000
00100000
00000000
,
00000100
00000000
00000100
00000000
,
00011000
00000000
00001000
00000000
,
00010000
00000000
00010000
00000000
,
00000101
00000000
00100000
00000000
,
00100000
00000000
00000100
00000000
,
00100000
00000000
00000100
00000000
,
00100000
00000000
00000100
00010000
,
00200000
00000000
00000000
00300000
,
00020000
00000000
00000000
00030000
,
00002000
00000000
00000000
00003000
,
00000000
00000000
00100000
00000000
,
00022000
00000000
00000000
00000000
,
00033000
00010000
00000000
00010000
,
00000000
00000000
00100000
00000000
,
00000100
00000000
00010000
00000000
,
00000100
00000000
00100000
00000000
,
00101000
00000000
00000000
00100000
,
00000000
00000000
00100000
00000000
,
00000100
00000000
00010000
00000000
,
00000000
00000000
00100000
00000000
,
00000100
00000010
00000000
00100000
,
00000000
00000000
00100000
00010000
,
00011000
00000000
00000000
00000000
,
00001000
00000100
00000100
00000000
,
00100010
00000000
00000000
00000000
,
00000100
00000000
00100000
00000000
,
00000100
00000000
00000000
00010000
,
00000000
00000000
00100000
00000000
,
00000100
00100000
00000000
01000000
,
00000000
00000000
10000000
00000000
,
00000001
00000000
00100000
00000000
,
00100000
00000000
00100000
00100000
,
00001000
00000110
00000000
00000000
;

//---------------dance-double - ----------------
#NOTES:
     dance-double:
     :
     Medium:
     7:
     0.422,0.476,0.328,0.174,0.036,239.000,32.000,17.000,0.000,0.000:
00000000
00000000
00000000
00000000
,
00000000
00000000
00000000
00000000
,
00000000
00000000
00000000
00000000
,
00000000
00000000
00000000
00000000
,
10000000
00000000
00010000
00000000
00100000
00000000
01000000
00100000
,
00010000
00000000
00000000
00000100
00001000
00000000
00000010
00000000
00000000
00000100
00000001
00000000
,
00000100
00000000
00000000
00010000
00000000
10000000
00100000
00010000
00000000
00000000
00010000
00000000
,
00100000
00000000
00000000
00000000
10000000
00000000
00000000
00000000
01000000
00000000
00000000
00000000
,
00011000
00000000
00000100
00000000
00000001
00000000
00000100
00001000
,
00000110
00000000
00001000
00000010
00000100
00001000
00000100
00000000
,
00011000
00000000
10000000
00000000
01000000
00010000
00000000
00001000
,
00010000
00000000
00001000
10000000
10000000
00100000
00000000
01000000
,
00100000
00000000
00000000
00000000
10000000
01000000
00100000
00000000
,
00010000
00000000
00000000
00000000
10000000
00100000
00001000
00000000
,
00000100
00000100
00000010
00000000
00000001
00000000
00000000
00001000
,
00000001
00001000
00000010
00000000
00001000
00000010
00000100
00000000
,
00000001
00000100
00000001
00000000
00000010
00000001
00001000
00000100
,
00000010
00000000
00000011
00000000
00000000
00000001
00000100
00000010
,
00000100
00000000
00001000
00000000
00000000
00010000
10000000
00100000
,
10010000
00000000
01000000
00000000
00000000
00010000
00100000
01000000
,
10000000
00000000
01000000
00000000
00000000
00100000
00100000
01000000
,
00011000
00000000
00001010
00000000
00000000
00000010
00000100
00000001
,
00001001
00000000
00000011
00000000
00000000
01000000
00000001
00001000
,
00011000
00000000
00101000
00000000
00000000
10010000
00000000
10000000
,
10000000
00010000
01000000
00000000
00100000
00000000
00010000
00000000
,
00010001
00010000
00001000
00000100
,
00000010
10000000
01000000
00100000
,
01100000
10000000
00100000
00100000
,
01000000
10000000
00001100
00001000
,
00100100
01000000
10000000
00010000
,
00100000
00010000
00000100
00010000
,
00100000
00010000
00010000
00100000
,
10000000
00010000
00100000
01000000
,
20020000
00000000
00000000
30030000
00202000
00000000
00000000
00303000
,
00000000
00020200
00000000
00030300
00000202
00000000
00000000
00000303
,
00000000
00000022
00000000
00000000
00000000
00000000
00000000
00000000
,
00000033
00000000
00000100
00000000
00001000
00000000
00000010
00001000
,
00020000
00000000
10000000
00030000
,
00010000
00000200
00001300
00000100
,
00200200
00000300
00020000
00300000
,
00000200
00030000
00002000
00003300
,
00000100
00001000
00010000
00010000
00100000
00001000
00001000
00010000
,
00100100
00000000
00001000
00000000
00000000
01000000
00100000
00010000
,
00000000
00000000
00000000
00000000
00001000
00000001
00000100
00000010
,
00000001
00000000
00000010
00000000
00000000
01000000
00010000
00100000
,
00000000
00000000
00000000
00000000
10000000
01000000
00100000
00000000
,
00010000
10000000
00010000
00000000
00000000
00001000
00000010
00000001
,
00000000
00000000
00000000
00000000
00001000
00000100
00000100
00000000
,
00011000
00000000
00110000
00000000
00000000
11000000
00010000
00110000
,
00000000
00000000
00010000
10000000
00010000
00000000
00100000
01000000
,
01100000
10000000
00010000
00000000
00000000
10000000
00100000
00010000
,
00000000
00000000
00000000
00000000
00001000
00000100
00000001
00000010
,
00000001
00001000
00001000
00000000
00000000
00000010
00000100
00001000
,
00000000
00000000
00000000
00000000
01000000
00010000
00000000
01000000
,
00001000
00001000
01000000
00000000
00000000
00010000
00100000
00100000
,
00000000
00000000
00000000
00000000
00100000
00010000
00000000
00001000
,
00000100
00000000
00101000
00000000
00000000
00010100
00000000
00101000
,
00000000
00000000
00000000
00010000
00100000
00000100
00100000
00000000
,
00100100
00000000
00000000
00000000
;

//---------------dance-double - Copied from----------------
#NOTES:
     dance-double:
     Copied from:
     Hard:
     9:
     0.523,0.505,0.113,0.133,0.149,333.000,11.000,13.000,0.000,6.000:
00000000
00000000
00000000
00000000
,
20000000
01000000
00100000
00010000
,
30000002
00000100
00000010
00001000
,
00001003
00010000
00001000
00000100
00100000
00010000
00001000
00000000
,
00001000
00000100
00000100
00001000
00000100
00000100
00000010
00000000
,
00001000
01000000
01000000
00100000
01000000
01000000
10000000
01000000
,
00010000
00010000
00001000
00010000
00100000
00100000
01001000
00000000
,
01000000
00001000
00001000
00000100
00000100
00000100
00000010
00010000
,
00010000
10000000
10000000
10000000
00001000
00001000
00001000
00001000
,
00001001
10000000
01000000
00100000
,
00010000
00000000
01000000
00000000
00000000
10000000
01000000
10000000
,
01000000
00000010
00001000
00000001
,
00000100
00000000
00001000
00000100
00000001
00000100
00001000
00000010
,
00000001
00000010
00001000
00000000
00100000
00000000
10000000
00000000
,
01000000
00100000
00010000
10000000
,
00010000
00100000
00010000
00100000
00010000
00100000
01000000
00100000
,
01000000
00100000
01000000
00100000
10000000
00100000
10000000
00100000
,
10100000
00000000
00010000
00000000
00000000
00000001
00000010
00000001
,
00001000
00000000
00000001
00000000
00000000
00001000
00000100
00001000
,
00000001
00000000
00000010
00000000
00000000
00000000
00010000
00100000
,
00010000
10000000
01000000
00100000
00010000
00000000
01000000
00100000
,
10000000
00010000
01000000
00100000
10000000
00010000
10000000
00010000
,
10000000
00010000
10010000
00000000
10000000
00000000
01000000
00000000
,
00100000
00000000
00010000
00010000
00000000
00010000
00000000
00001000
,
00000000
00001000
00000001
00001000
00000100
00000010
00000001
00000010
,
00000100
00001000
00000010
00000001
00000010
00001000
00000100
00000001
,
00000100
00001000
00000001
00001000
00000000
00001000
00000000
00001000
,
00000000
00001000
00000100
00000010
00000001
00000100
00001000
00000100
,
00010000
00100000
01000000
10000000
01000000
00010000
00100000
01000000
,
10020000
00000000
00000000
10000000
00130000
01000000
10000000
00000000
,
00010000
00000100
00001000
00000010
,
10000000
01000000
10000000
01000000
00100000
00010000
00100000
00010000
,
01000000
01000000
01000000
01000000
,
10000000
00000000
10000000
00000000
10000000
00000000
00010000
00000000
00000000
00000000
00000000
00000000
,
00100000
00000000
00010000
00000000
00001000
00000000
00000100
00000000
00000000
00000000
00000000
00000000
,
00000001
00000000
00000100
00000000
00000010
00000000
00010000
00000000
10000000
00000000
01000000
00000000
,
00100000
00000000
00010000
00000000
00000100
00000000
00001000
00000000
00000000
10000000
00000000
01000000
,
00000000
00100000
00000000
01000000
00000000
01000000
00000000
00100000
00000000
00010000
00000000
00001000
,
00000000
00000010
00000000
00001000
00000000
00000100
00000010
00000000
00000010
00000000
00010000
00000000
,
00200000
00000200
00320000
00002300
,
00230000
00023000
00302000
00030200
,
00003000
00100000
00100000
00100300
,
01000000
00000000
00100000
00000000
00010000
00000000
00010000
00000000
00001000
00000000
00100000
00000000
01000000
00100000
01000000
00000000
,
00100000
00010000
00100000
01000000
10000000
01000000
00100000
00000000
,
00001000
00000000
00000100
00000000
00000100
00000000
00000010
00000000
00000001
00000000
00000100
00000000
00000010
00001000
00000010
00000000
,
00001000
00000100
00000010
00000001
00000010
00000100
00000100
00000000
,
00001000
00000000
01000000
00000000
00100000
00000000
00010000
00000000
00100000
00000000
01000000
00000000
,
10000000
01000000
00100000
00010000
00000010
00000100
00001000
00000100
,
00001000
00000000
00000100
00000000
00010000
00000000
01000000
00000000
10000000
00000000
01000000
00000000
,
01100000
00011000
00100100
00010001
,
00200200
00000000
00000000
00000000
00000000
00000000
00000000
00000000
00000000
00000000
00300300
00000000
,
00100000
00010000
00000100
01000000
10000000
00100000
00010000
00100000
,
10000000
00000000
00010000
00000000
00000000
00001000
00000000
00000100
,
00000000
00000000
00000001
00000010
00001000
00000010
00000001
00001000
,
00000001
00000000
00000010
00000000
00000000
10000000
00000000
01000000
,
00000000
00000000
00010000
00100000
10000000
00100000
00010000
00100000
,
10000000
00000000
00100000
00000000
00000000
10000000
00000000
01000000
,
00000000
00000000
10000000
01000000
00100000
00010000
00001000
00010000
,
10000001
00000000
00000000
00000000
;

//---------------dance-double - Copied from Copied f----------------
#NOTES:
     dance-double:
     Copied from Copied f:
     Challenge:
     10:
     0.612,0.684,0.113,0.133,0.369,394.000,11.000,13.000,0.000,6.000:
00000000
00000000
00000000
00000000
,
20000000
01000000
00100000
00010000
,
30000002
00000100
00000010
00001000
,
00001003
00000000
00010000
00000000
00001000
00000000
00000100
00010000
00100000
00000000
00010000
00000000
00001000
00000000
00000000
00000000
,
00001000
00000000
00000100
00000010
00000100
00000000
00001000
00000000
00000100
00000001
00000100
00000000
00000010
00000000
00000000
00000000
,
00001000
00100000
01000000
00000000
01000000
00000000
00100000
00000000
01000000
00010000
01000000
00000000
10000000
00000000
01000000
00000000
,
00010000
00001000
00010000
00000000
00001000
00000000
00010000
00000000
00100000
00000010
00100000
00000000
01001000
00000000
00000000
00000000
,
01000000
00000000
00001000
01000000
00001000
00000000
00000100
00100000
00000100
00000000
00000100
00000000
00000010
00000000
00010000
00000001
,
00010000
00000000
10000000
01000000
10000000
00100000
10000000
00000000
00001000
00000100
00001000
00000010
00001000
00000000
00001000
00000000
,
00001001
00000000
00000000
00000000
10000000
01000000
00100000
00000000
01000000
00000000
00010000
00000000
00100000
00001000
00000010
00000000
,
00010000
00000000
00000100
00000000
00000010
00000000
00000000
00000000
00000000
00000000
10000000
00000000
01000000
00000000
10000000
00100000
,
01000000
00000000
00000000
00000000
00000010
00000000
00100000
00000000
00001000
00000000
00000000
00000010
00000001
00000000
00000000
00000000
,
00000100
00000000
00001000
00000100
00000001
00000100
00001000
00000010
,
00000001
00000000
00000010
00000000
00001000
01000000
00000000
00000000
00100000
00000000
00000000
00000000
10000000
01000000
00000000
00000000
,
01000000
00000000
00100000
00000000
00100000
00001000
00000000
00000000
00010000
00000000
01000000
00000000
10000000
01000000
00000000
00000000
,
00010000
00100000
00010000
00100000
00010000
00100000
01000000
00100000
,
01000000
00000000
00100000
00000000
01000000
00000000
00100000
00000000
10000000
00000000
00100000
00000000
10000000
00000000
00100000
00010000
,
10100000
00000000
00000000
00000000
00010000
00000000
00000000
00000000
00000000
00000000
00000001
00000000
00000010
00000000
00000001
00000100
,
00001000
00000000
00000000
00000000
00000001
00000000
00000000
00000000
00000000
00000000
00001000
00000000
00000100
00000000
00001000
00000010
,
00000001
00000000
00000000
00000000
00000010
00000000
00000000
00000000
00000000
00000000
00000000
00000000
00010000
10000000
00100000
00000000
,
00010000
00000000
10000000
00000000
01000000
00000000
00100000
00001000
00010000
00000000
00000000
00000000
01000000
00000000
00100000
00000000
,
10000000
01000000
00010000
00000000
01000000
00000000
00100000
00000000
10000000
00000000
00010000
00000000
10000000
00000000
00010000
00000000
,
10000000
01000000
00010000
00000000
10010000
00000000
00000000
00000000
10000000
00000000
00000000
00000000
01000000
00000000
00000000
00000000
,
00100000
00000000
00000000
00000000
00010000
00001000
00010000
00000000
00000000
00000000
00010000
00000000
00000000
00000000
00001000
00000000
,
00000000
00000000
00001000
00000100
00000001
00000000
00001000
00000000
00000100
00000000
00000010
00000000
00000001
00000000
00000010
00000000
,
00000100
00001000
00000010
00000001
00000010
00001000
00000100
00000001
,
00000100
00000000
00001000
00000000
00000001
00000000
00001000
00000100
00000010
00000000
00001000
00100000
10000000
00000000
00001000
00000000
,
00000000
00000000
00001000
00000001
00000100
00000000
00000010
00000000
00000001
00000000
00000100
00000000
00001000
00000000
00000100
00000000
,
00010000
00000000
00100000
00000000
01000000
00000000
10000000
00000000
01000000
00100000
00010000
00000000
00100000
00000000
01000000
00000000
,
10020000
00000000
00100000
10000000
00130000
01000000
10000000
00000000
,
00010000
00000000
00000100
00100000
00001000
00000000
00000010
00000000
,
10000000
01000000
10000000
01000000
00100000
00010000
00100000
00010000
,
01000000
00000000
00100000
00000000
01000000
00000000
00010000
00000000
01000000
00000000
10000000
00000000
01000000
00100000
00010000
00000000
,
10000000
00000000
10000000
00000000
10000000
00000000
00010000
00000000
00000000
00000000
00000000
00000000
,
00100000
00000000
00010000
00000000
00001000
00000000
00000100
00000000
00000000
00000000
00000000
00000000
,
00000001
00000000
00000000
00000000
00000100
00000000
00000000
00000000
00000010
00000000
00000000
00000000
00010000
00000000
00000000
00000000
10000000
00100000
00000000
00000000
01000000
00000000
00000000
00000000
,
00100000
00000000
00000000
00000000
00010000
00000000
00000000
00000000
00000100
00000000
00000000
00000000
00001000
00000000
00000000
00000000
00000000
00000000
10000000
00100000
00000000
00000000
01000000
00000000
,
00000000
00100000
00000000
01000000
00000000
01000000
00000000
00100000
00000000
00010000
00000000
00001000
,
00000000
00000010
00000000
00001000
00000000
00000100
00000010
00000100
00000010
00000000
00010000
00000000
,
00200000
00000200
00320000
00002300
,
00230000
00023000
00302000
00030200
,
00003000
00000000
00100000
00010000
00100000
01000000
00100300
00000000
,
01000000
00000000
00100000
00000000
00010000
00001000
00010000
00000000
00001000
00000000
00100000
00000000
01000000
00100000
01000000
00000000
,
00100000
00010000
00100000
01000000
10000000
01000000
00100000
00000000
,
00001000
00000000
00000100
00000010
00000100
00000000
00000010
00000000
00000001
00000000
00000100
00000000
00000010
00001000
00000010
00000000
,
00001000
00000000
00000100
00000000
00000010
00000000
00000001
00000000
00000010
00000000
00000100
00001000
00000100
00000000
00000000
00000000
,
00001000
00000000
01000000
00000000
00100000
00000000
00010000
00000000
00100000
00000000
01000000
00000000
,
10000000
01000000
00100000
00010000
00000010
00000100
00001000
00000100
,
00001000
00000000
00000100
00000000
00010000
00000000
01000000
00000000
10000000
00000000
01000000
00000000
,
01100000
00011000
00100100
00010001
,
00200200
00000000
00000000
00000000
00000000
00000000
00000000
00000000
00000000
00000000
00300300
00000000
,
00100000
00000000
00010000
00000000
00000100
00000000
01000000
00000000
10000000
00000000
00100000
00000000
00010000
00000000
00100000
01000000
,
10000000
00000000
00010000
00000000
00000000
00001000
00000000
00000100
,
00000000
00000000
00000001
00000010
00001000
00000010
00000001
00001000
,
00000001
00000000
00000010
00000000
00000000
10000000
00000000
01000000
,
00000000
00000000
00010000
00100000
10000000
00100000
00010000
00100000
,
10000000
00000000
00100000
00000000
00000000
10000000
01000000
01000000
,
00000000
00000000
10000000
01000000
00100000
00010000
00001000
00010000
,
10000001
00000000
00000000
00000000
;
