#TITLE:Sonar Scurry;
#SUBTITLE:;
#ARTIST:Digitaliz;
#TITLETRANSLIT:;
#SUBTITLETRANSLIT:;
#ARTISTTRANSLIT:;
#CREDIT:;
#BANNER:Sonar Scurry.png;
#BACKGROUND:Sonar Scurry- bg.png;
#LYRICSPATH:;
#CDTITLE:HS2logo.png;
#MUSIC:Sonar Scurry.ogg;
#OFFSET:-0.035;
#SAMPLESTART:40.940;
#SAMPLELENGTH:12.000;
#SELECTABLE:YES;
#DISPLAYBPM:160.000;
#BPMS:0.000=160.000,335.250=-80.000,343.500=74.800,353.000=160.000;
#STOPS:75.500=1.480
;
#BGCHANGES:;
// cache tags:
#FIRSTBEAT:3.500;
#LASTBEAT:351.417;
#SONGFILENAME:Songs/StepMix 1/Sonar Scurry/Sonar Scurry.sm;
#HASMUSIC:1;
#HASBANNER:1;
#MUSICLENGTH:128.875;
// end cache tags

//---------------dance-single - ----------------
#NOTES:
     dance-single:
     :
     Hard:
     9:
     0.556,1.000,0.295,0.178,0.074,441.000,38.000,23.000,46.000,0.000:
0000
0000
0000
0000
0000
0000
0000
1001
,
0000
0000
0000
0000
,
0000
0000
0000
0000
0000
0000
0000
0110
,
0000
0000
0000
0000
,
0002
0000
0000
0000
0000
0000
0000
0100
,
0000
0000
0000
0000
,
0003
0000
0000
0000
0000
0000
0000
1010
,
0000
0000
0000
0000
,
0020
0000
0000
0000
0000
0000
0000
0100
,
0000
0000
0000
0000
,
2030
3020
0230
0302
2003
3200
2300
3020
,
0230
0302
0023
2030
3020
0032
0203
0320
,
0230
0302
2003
0000
0000
0000
0000
0010
,
0000
0000
0000
0000
,
3000
0000
0000
0000
0000
0000
0000
0110
,
0000
0000
0000
0000
,
2200
0000
0000
0000
0000
0000
0000
0000
0000
0000
0000
0000
0000
0000
0000
0000
0000
0000
0000
0000
3300
0011
0000
0000
,
0000
0000
0000
0000
,
0000
0000
0000
0000
0000
0000
0000
0000
0000
0000
0000
0000
0000
0000
0000
0000
0000
0000
0000
0000
0000
0000
0000
0000
0000
0000
0000
0000
1001
MMMM
0000
0000
,
0001
0000
0100
0000
0000
0000
0001
0000
0100
0000
0000
0000
0001
1000
0001
0000
,
0000
0001
0010
0000
0001
1000
0001
0010
,
0100
0000
1000
0000
0000
0000
1000
0100
1000
0000
0000
0000
1000
0000
0100
0000
,
0000
1000
0100
0000
0010
0001
0010
0100
,
0010
0001
0000
0010
0001
1000
0100
1000
,
0000
0010
0000
0010
0100
0001
1000
0100
,
0000
0100
0000
0100
0010
0100
0001
1000
,
0000
1000
0000
1000
0001
0010
0100
0010
,
0011
0100
0000
0001
0100
0001
1000
0001
,
0000
0001
0000
0010
0100
1000
0010
0100
,
0000
0001
0000
0001
1000
0010
0001
0010
,
0000
0001
0000
0001
0100
1000
0100
0010
,
0100
1000
0000
0100
1000
0001
0010
0001
,
0000
0100
0000
0100
0010
1000
0001
0010
,
0000
0010
0000
0010
0100
0010
1000
0001
,
0000
0001
0000
0001
1000
0100
0010
0100
,
1001
1001
0000
0100
0010
0100
0010
0100
,
0000
0010
0000
0100
0010
0100
0010
0100
,
0000
0001
0000
1000
0001
1000
0001
1000
,
0000
0001
0000
1000
0001
1000
0001
1000
,
0010
0010
0000
1001
0100
1001
0010
1001
,
0000
1001
0000
1001
0100
1001
0010
1001
,
0000
0010
0000
0010
1001
0100
1001
0010
,
0000
0010
0000
0010
1001
0100
1001
0010
,
0001
0000
1000
0010
0010
0000
0100
0001
,
0000
1000
1000
0000
0001
0000
0100
1000
,
0000
0010
0010
0000
0100
0000
0001
1000
,
0000
0001
0001
0000
0011
0000
0100
0010
,
1000
0100
1000
0010
1000
0001
0010
0100
,
0100
0000
0100
0010
0001
1000
0100
1000
,
0100
0000
0010
0001
0010
0001
1000
0010
,
0010
0000
0100
0001
0100
0010
1000
0100
,
1001
0000
0001
0000
0001
0000
1000
0000
0010
0000
0100
0000
0001
0000
1000
0100
,
0010
0000
0000
0000
0001
0000
0010
0000
1000
0000
0010
0000
0001
0000
0100
1000
,
0100
0000
0000
0000
0010
0000
1000
0000
0010
0000
0100
0000
0001
0000
1000
0001
,
1000
0000
0000
0000
0010
0000
0100
0000
0010
0000
0001
0000
1000
0000
0001
1000
,
0001
1001
0000
0000
0011
0000
0000
1100
,
0000
0000
0110
0000
0100
0010
0100
1000
,
0100
1100
0000
0000
0011
0000
0000
1001
,
0000
0000
1010
0000
0010
1000
0100
0001
,
0100
0000
0000
1000
0000
0000
000M
0000
00M0
010M
0000
0000
10MM
0000
0000
000M
00M0
0000
010M
0000
00M0
100M
0000
0000
,
00MM
0000
0000
010M
00M0
0000
100M
0000
00M0
000M
0000
0000
01MM
0000
0000
1000
0000
0000
0010
0000
0000
M100
0000
0000
,
0001
0000
0000
0100
0000
0000
M000
0000
00M0
M001
0000
0000
M1M0
0000
0000
M000
00M0
0000
M001
0000
00M0
M100
0000
0000
,
M0M0
0000
0000
M001
00M0
0000
M100
0000
00M0
M000
0000
0000
M0M1
0000
0000
0100
0000
0000
0010
0000
0000
100M
0000
0000
,
1010
0010
0100
0001
0100
0010
1000
0001
,
0100
0010
1000
0100
1000
0010
0001
0010
,
0100
0001
1000
0100
1000
0010
0001
0010
,
0001
1000
0010
0100
0001
1000
0100
0010
,
0001
1000
0001
1000
0010
0100
0010
0100
,
0000
0100
0001
0100
0010
0100
0001
1000
,
0000
0010
0100
0001
1000
0010
0100
0001
,
0000
0000
0001
0000
1000
0000
0100
0000
1000
0000
0010
0000
0100
0000
1000
0001
,
0100
0010
0000
0010
0100
0010
0001
0010
,
0000
0010
0100
0010
0010
0010
0100
1000
,
0000
1000
0000
1000
0001
1000
0010
1000
,
0000
1000
0001
1000
1000
1000
0001
1000
,
1001
0000
0101
0000
0010
1000
0001
0100
,
0000
0010
0101
0000
0001
1000
0001
0010
,
0000
0100
0110
0000
0010
0001
1000
0100
,
0000
0010
0011
0000
0001
1000
0010
0100
,
0010
0001
1000
0010
,
0100
0000
0001
0000
1000
0010
0001
0010
,
1000
0100
0001
0010
,
0100
0000
0001
0000
0001
0100
1000
0100
,
0000
0000
0000
0000
0000
0000
0000
0110
,
0000
0000
0000
0000
,
0000
0000
0000
0000
,
0000
0000
0000
0000
,
0000
0000
0000
0000
0000
0000
0000
0000
0000
0000
0000
0000
0000
0000
0000
0000
0000
0000
0000
0000
0000
0000
0000
0000
0000
0000
0000
0000
0000
0000
0000
0000
0000
0000
0000
0000
0000
0000
0000
0000
0000
0MM0
0000
0000
0000
0000
0000
0000
;

//---------------dance-single - ----------------
#NOTES:
     dance-single:
     :
     Beginner:
     1:
     0.126,0.193,0.000,0.000,0.000,114.000,0.000,0.000,0.000,0.000:
0000
0000
0000
0000
,
0000
0000
0000
0000
,
0000
0000
0000
0000
,
0000
0000
0000
0000
,
0000
0000
0000
0000
,
0010
0000
0000
0000
,
0000
0000
0000
0010
,
0000
0000
0000
0000
,
0000
0000
0000
0000
,
0010
0000
0000
0000
,
0000
0000
0000
0000
,
1000
0000
0000
0000
,
0000
0000
0000
0000
,
0001
0000
0000
0000
,
0000
0000
0000
0000
,
0100
0000
0000
0000
,
0000
0000
0000
0000
,
0001
0000
0000
0000
,
0000
0000
0000
1000
,
0000
0000
0000
0000
,
0001
0000
0000
0000
,
0000
0000
0000
1000
,
0000
0000
0000
0000
,
0001
0001
0000
0000
,
1000
0000
0000
0000
,
0010
0000
0000
0000
,
0100
0000
0000
0000
,
0001
1000
0000
0000
,
0010
0000
0000
0000
,
0100
0000
0000
0000
,
0001
0000
0000
0000
,
1000
0100
1000
0000
,
0001
0000
0000
0000
,
0010
0100
0010
0000
,
0001
0000
0000
0000
,
1000
0100
1000
0000
,
0010
0000
0000
0000
,
0001
0100
0001
0000
,
1000
0000
0000
0000
,
0010
0000
0010
0000
,
0010
0000
0010
0000
,
1000
0000
1000
0000
,
1000
0000
0001
0000
,
1000
0000
0100
0000
,
0010
0000
0100
0000
,
1000
0000
0001
0000
,
0100
0000
0001
0000
,
1000
1000
0000
0000
,
0010
0010
0000
0000
,
0100
0001
0000
0000
,
0001
1000
0000
0000
,
0100
0100
0000
0000
,
0010
0010
0000
0000
,
1000
0001
0000
0000
,
0001
1000
0000
0000
,
0010
0000
0000
0000
,
0100
0000
0000
0000
,
0010
0000
0000
0000
,
0001
0000
0000
0000
,
1000
1000
0000
0000
,
0001
0001
0000
0000
,
1000
1000
0000
0000
,
0100
0100
0000
0000
,
0010
0000
0000
0000
,
1000
0000
0000
0000
,
0100
0000
0000
0000
,
0001
0000
0000
0000
,
1000
0001
1000
0000
,
0010
0000
0000
0000
,
0100
0001
0100
0000
,
0010
0000
0000
0000
,
1000
0000
0010
0000
,
0100
0000
0001
0000
,
1000
0000
0010
0000
,
0001
0000
0100
0000
,
1000
0000
0000
0000
,
0010
0000
0000
0000
,
0100
0000
0000
0000
,
0001
0000
0000
0000
,
0010
0000
0001
0000
,
0010
0000
0001
0001
,
1000
0000
0100
0000
,
1000
0000
0010
0010
;

//---------------dance-single - ----------------
#NOTES:
     dance-single:
     :
     Easy:
     5:
     0.215,0.320,0.186,0.124,0.000,154.000,24.000,16.000,0.000,0.000:
0000
0000
0000
0000
0000
0000
0000
0010
,
0000
0000
0000
0000
,
0000
0000
0000
0000
,
0000
0000
0000
0000
,
0000
0000
0000
0000
0000
0000
0000
0001
,
0000
0000
0000
0000
,
0000
0000
0000
0000
0000
0000
0000
1000
,
0000
0000
0000
0000
,
0000
0000
0000
0000
0000
0000
0000
0001
,
0000
0000
0000
0000
,
0000
0000
0000
0000
0000
0000
0000
0010
,
0000
0000
0000
0000
,
0000
0000
0000
0000
0000
0000
0000
1000
,
0000
0000
0000
0000
,
0000
0000
0000
0000
0000
0000
0000
0010
,
0000
0000
0000
0000
,
0000
0000
0000
0000
0000
0000
0000
0001
,
0000
0000
0000
0000
,
0000
0000
0000
0000
0000
0000
0000
1001
,
0000
0010
0010
0010
,
0010
0010
0010
0110
,
0100
0100
0100
0100
,
0100
0100
0100
0110
,
0001
0000
1000
0000
,
1100
0000
0001
0000
,
1100
0000
0001
0000
,
1100
0000
0001
0000
,
0010
0010
0000
0000
,
0101
0000
0001
0000
,
0101
0000
0001
0000
,
0101
0000
0010
0000
,
2000
3000
0000
0000
,
0002
0003
0000
0000
,
0200
0300
0000
0000
,
0020
0030
0000
1000
,
0010
0010
0000
0000
,
0100
0100
0000
0000
,
0001
1000
0000
0001
,
0000
1000
0010
0100
,
0001
0001
0001
0001
,
1000
1000
1000
1000
,
0001
0001
0001
0001
,
1000
1000
1000
1000
,
0110
0000
0000
0000
,
0002
0000
0000
0000
,
2003
0000
0000
3000
,
0010
0000
0010
0000
,
0100
0001
0100
0010
,
1000
0000
1000
0000
,
0010
0100
0001
0010
,
0100
0000
1000
0000
,
0001
0100
1000
0100
,
0001
0000
1000
0000
,
0001
0010
1000
0010
,
0001
0000
0110
0000
,
1100
0000
0101
0000
,
0110
0000
1100
0000
,
0110
0000
0101
0000
,
1001
0000
0010
0010
,
1000
0000
0001
0000
,
2000
3100
0020
0031
,
1000
0000
0010
0000
,
0200
0301
2000
3010
,
0100
0000
0001
0000
,
1000
1000
1001
1001
,
0010
0000
0100
0000
,
0001
0000
1000
0010
,
1000
0000
0000
0000
,
1001
0000
0000
0010
,
0110
0000
0000
0000
,
1001
0000
0000
1000
,
1010
0000
0000
0000
,
0001
0000
0000
0100
,
0010
0000
0000
0000
,
1000
0000
0000
0100
,
0020
0000
0000
0000
,
0032
0000
0000
0000
,
2003
0000
0000
0000
,
3020
0000
0000
0000
,
0230
0000
0000
0000
,
0301
0000
0001
0000
,
2000
0000
0000
0000
,
3010
0000
0010
0000
;

//---------------dance-single - ----------------
#NOTES:
     dance-single:
     :
     Medium:
     7:
     0.349,0.443,0.225,0.078,0.004,276.000,29.000,10.000,4.000,0.000:
0000
0000
0000
0000
0000
0000
0000
0110
,
0000
0000
0000
0000
,
0000
0000
0000
0000
0000
0000
0000
1100
,
0000
0000
0000
0000
,
0000
0000
0000
0000
0000
0000
0000
0101
,
0000
0000
0000
0000
,
0000
0000
0000
0000
0000
0000
0000
1001
,
0000
0000
0000
0000
,
0000
0000
0000
0000
0000
0000
0000
0110
,
0000
0000
0000
0000
,
0000
0000
0000
0000
0000
0000
0000
1001
,
0000
0000
0000
0000
,
0000
0000
0000
0000
0000
0000
0000
1100
,
0000
0000
0000
0000
,
0000
0000
0000
0000
0000
0000
0000
0011
,
0000
0000
0000
0000
,
0000
0000
0000
0000
0000
0000
0000
1010
,
0000
0000
0000
0000
,
0000
0000
0000
0000
0000
0000
0000
0101
,
0010
1000
0000
0010
1000
0000
0010
1000
,
0000
0010
1000
0000
0010
1000
0010
1000
,
0010
0100
0000
0010
0100
0000
0010
0100
,
0000
0010
0100
0000
0010
0100
0010
0100
,
0001
0000
1000
0000
0001
0010
0001
1000
,
0000
1000
0001
0000
0001
1000
0001
1000
,
0000
0010
0000
0010
0100
0010
0100
0010
,
0000
1000
0000
1000
0001
0010
0001
0010
,
0000
0100
0000
0100
1000
0010
0100
0001
,
0000
0010
0000
0010
0100
1000
0010
0100
,
0000
0001
0000
0001
0010
0100
1000
0010
,
0000
0100
0000
0100
0001
0010
0001
0010
,
0100
1000
0010
0100
,
0001
1000
0010
0100
,
0001
1000
0010
0100
,
0001
1000
0010
0100
,
0001
0000
0001
0000
0010
0001
0010
0001
,
0000
1000
0000
1000
0010
0100
0001
0010
,
0000
0100
0000
0100
1000
0010
0100
0001
,
0000
0010
0000
0010
0100
0010
0100
0010
,
0000
0000
0000
0000
,
0001
0000
0000
0000
,
1000
0000
0000
0000
,
0101
0000
0000
0000
,
1010
0010
0000
0000
,
1001
0010
0000
0000
,
0101
1000
0000
0000
,
0110
0100
0000
0000
,
0001
1000
0001
0000
0010
0001
0010
0000
,
0100
1000
0100
0000
0010
0001
0010
0000
,
0100
1000
0010
0000
0100
0001
0010
0000
,
0100
1000
0010
0000
0100
0001
0100
0000
,
0102
1000
0100
1000
,
0100
0000
1000
0000
0010
0000
0010
0003
,
2100
0010
0100
0010
,
0100
0000
0001
0000
0010
0000
0010
3000
,
0210
0001
0010
0001
,
0010
0001
0010
0301
,
0102
1000
0100
1000
,
0010
0000
0100
0000
1000
0000
1000
0003
,
1000
0000
0100
0000
0010
0001
0010
0000
,
0100
0000
1000
0000
0010
0100
0010
0000
,
0100
0000
0001
0000
0010
0001
0010
0000
,
0100
0000
1000
0000
0010
0100
0010
0000
,
1001
0001
0000
0000
,
1001
1000
0000
0000
,
0110
0100
0000
0000
,
0110
0001
0000
0000
,
1000
0100
1000
0000
0010
0000
0010
0000
,
0100
0001
0100
0000
0010
0000
0010
0000
,
1000
0100
1000
0000
0010
0000
0010
0000
,
0001
0001
1000
1000
,
2002
0000
0000
3003
,
0220
0000
0000
0000
0000
0030
0300
0000
,
0001
0001
1000
1000
,
0010
0000
0100
0000
0001
0010
0001
0000
,
1000
0100
0010
0010
,
0001
0000
1000
0000
0010
0010
0010
0000
,
0100
0000
0001
0000
0010
0010
0010
0000
,
0100
0000
1000
0000
0010
0010
0010
0000
,
0110
0000
0001
0000
,
1001
0000
0100
0100
,
1001
0000
0010
0000
,
0110
0000
0002
2000
,
0000
3003
0000
0000
0000
0000
0000
0MM0
,
0000
0000
0000
0000
,
0000
0000
0000
0000
,
0000
0000
0000
0000
,
0000
0000
0000
0000
0000
0000
0000
0000
0000
0000
0000
0000
0000
0000
0000
0000
0000
0000
0000
0000
0000
0000
0000
0000
0000
0000
0000
0000
0000
0000
0000
0000
0000
0000
0000
0000
0000
0000
0000
0000
0000
M00M
0000
0000
0000
0000
0000
0000
;
