#TITLE:Trigun;
#SUBTITLE:- H.T.;
#ARTIST:今堀恒雄;
#TITLETRANSLIT:;
#SUBTITLETRANSLIT:;
#ARTISTTRANSLIT:Tsuneo Imahori;
#CREDIT:Anime Toshokan;
#BANNER:Trigun - H.T.png;
#BACKGROUND:Trigun - H.T bg.png;
#LYRICSPATH:;
#CDTITLE:dejiko.png;
#MUSIC:Trigun - H.T.mp3;
#OFFSET:-4.436;
#SAMPLESTART:5.150;
#SAMPLELENGTH:9.800;
#SELECTABLE:YES;
#DISPLAYBPM:196.000;
#BPMS:0.000=196.620,44.000=195.210,72.000=194.060,80.000=196.590,116.000=195.830,172.000=196.770,204.000=195.570,220.000=195.390,244.000=196.520;
#STOPS:;
#BGCHANGES:0.000=Trigun - H.T.avi=1.000=0=0=1,
268.000=Trigun - H.T bg.png=1.000=0=0=1,
99999=-nosongbg-=1.000=0=0=0 // don't automatically add -songbackground-
;
// cache tags:
#FIRSTBEAT:2.500;
#LASTBEAT:276.000;
#SONGFILENAME:Songs/DDR Anime 1st Mix/Trigun - H.T/Trigun - H.T.sm;
#HASMUSIC:1;
#HASBANNER:1;
#MUSICLENGTH:91.010;
// end cache tags

//---------------dance-single - CHALLENGE----------------
#NOTES:
     dance-single:
     CHALLENGE:
     Challenge:
     9:
     0.724,0.834,0.363,1.000,0.044,333.000,33.000,95.000,0.000,0.000:
0000
0000
0000
0000
0000
0010
0100
0010
,
1000
0001
1000
0001
0200
0300
0010
1000
,
0001
1000
0001
0000
0000
0100
0010
0100
,
0010
1000
0100
0002
0000
0003
0200
0300
,
0000
1000
0000
1000
0000
0100
0010
1000
,
0001
1000
0001
1000
0200
0300
0010
1000
,
0001
1000
0001
0100
0000
0010
0100
0010
,
1000
0001
1000
0002
0003
0200
0300
0000
,
0000
1001
0000
2002
3003
0100
0010
1000
,
0001
1000
0001
0010
0200
0300
1000
0001
,
1000
0001
0100
0010
0000
0010
0100
0010
,
1000
0001
1000
0002
0003
0001
0200
0300
,
0000
0110
0000
0220
0330
0010
1000
0001
,
1000
0001
0010
1000
0200
0300
0001
1000
,
0001
0100
0010
1000
0000
0100
0010
1000
,
0001
1000
0010
0002
0003
0001
0200
0300
,
2002
0000
3003
0000
0220
0000
0330
0000
1000
0001
1000
0001
1000
0001
1000
0001
,
2020
0030
0002
0000
0000
0003
0200
0000
,
0000
0000
0000
0000
0000
3300
0000
0000
,
0022
0030
2000
0000
0000
3000
0200
0000
,
0000
0000
0000
0303
0000
0000
0000
0000
,
2020
0030
0002
0000
0000
0003
0200
0000
,
0000
0000
3300
0000
0000
2000
0002
3003
,
2002
3003
0220
0330
0000
1000
0001
0100
,
0010
1000
0001
2002
3003
2002
3003
0000
,
0010
1000
0001
0100
,
0010
0001
1000
0100
,
1000
0001
1000
0001
,
1001
2002
0000
3003
0000
2002
3003
0000
,
0100
0001
1000
0010
,
0100
1000
0001
0010
,
0001
1000
0001
1000
,
1001
2002
0000
3003
0000
2002
3003
0000
,
0010
0010
0010
0010
,
0100
0100
0100
0100
,
0001
1000
0001
1000
,
1001
2002
0000
3003
0000
2001
3001
0100
,
0010
0000
1000
0100
0001
0000
0001
0001
,
0100
1000
0020
0000
0030
1000
0001
0010
,
0002
0000
0000
0003
0000
0001
0100
0001
,
0200
0300
1000
0100
1000
0100
1000
0000
,
0020
0001
0030
0000
0100
1000
0000
1000
,
0100
0010
0000
0000
0010
0010
0100
0010
,
0001
1000
0001
0200
0300
0010
1000
0001
,
1000
0001
0100
0010
0000
0010
0100
0010
,
1000
0001
1000
0002
0003
0001
0200
0300
,
0000
1000
0000
1000
0000
0010
1000
0001
,
1000
0001
1000
0200
0300
0010
1000
0001
,
1000
0001
0010
1000
0000
0100
0010
1000
,
0001
1000
0100
0002
0003
0001
0200
0300
,
0000
0100
0010
0001
0100
0010
1000
0001
,
1000
0001
0010
1000
0200
0300
0001
1000
,
0001
1000
0010
0001
0000
0100
0010
1000
,
0001
1000
0100
0002
0003
0001
0200
0300
,
0000
0110
0000
0220
0330
1000
0001
1000
,
0001
0100
0100
0010
0010
0000
1000
0001
,
1000
0001
0100
0010
0000
0010
1000
0001
,
1000
0010
0100
0002
0003
0001
0200
0300
,
2002
0000
3003
0000
0220
0000
0330
0000
0100
0010
0100
0010
0100
0010
0100
0010
,
2020
0030
0002
0000
0000
0003
0200
0000
,
0000
0000
0000
3300
0000
0000
0000
0000
,
0022
0030
2000
0000
3000
0000
0200
0000
,
0000
0000
0000
0303
0000
0000
0000
0000
,
2020
0030
0002
0000
0000
0003
0200
0000
,
0000
0000
0000
3300
0000
0000
0000
0000
,
2002
0000
3003
0220
0330
0001
0100
0010
,
1000
0001
0000
2002
3003
2002
0000
3003
,
0020
0000
0000
0000
,
0000
0000
0000
0000
,
0130
0000
0000
0000
;
