#TITLE:Rurouni Kenshin;
#SUBTITLE:- Sobakasu;
#ARTIST:Judy And Mary;
#TITLETRANSLIT:;
#SUBTITLETRANSLIT:;
#ARTISTTRANSLIT:;
#CREDIT:Anime Toshokan;
#BANNER:Rurouni Kenshin - Sobakasu.png;
#BACKGROUND:Rurouni Kenshin - Sobakasu bg.png;
#LYRICSPATH:;
#CDTITLE:dejiko.png;
#MUSIC:Rurouni Kenshin - Sobakasu.mp3;
#OFFSET:-3.662;
#SAMPLESTART:16.330;
#SAMPLELENGTH:11.300;
#SELECTABLE:YES;
#DISPLAYBPM:170.000;
#BPMS:0.000=169.860,32.000=168.520,40.000=170.830,56.000=169.590,68.000=170.380,116.000=171.410,132.000=169.560,148.000=169.230,164.000=171.800,180.000=169.470,196.000=170.060,208.000=170.720,212.000=171.530,232.000=168.530,268.000=170.870,285.000=163.000,290.000=129.760,294.000=118.140;
#STOPS:;
#BGCHANGES:35.000=Rurouni Kenshin - Sobakasu.avi=1.000=0=0=1,
286.000=Rurouni Kenshin - Sobakasu bg.png=1.000=0=0=1,
99999=-nosongbg-=1.000=0=0=0 // don't automatically add -songbackground-
;
// cache tags:
#FIRSTBEAT:12.000;
#LASTBEAT:297.000;
#SONGFILENAME:Songs/DDR Anime 3rd Mix/Rurouni Kenshin - Sobakasu/Rurouni Kenshin - Sobakasu.sm;
#HASMUSIC:1;
#HASBANNER:1;
#MUSICLENGTH:110.341;
// end cache tags

//---------------dance-single - BASIC----------------
#NOTES:
     dance-single:
     BASIC:
     Easy:
     4:
     0.280,0.336,0.145,0.018,0.000,198.000,16.000,2.000,0.000,0.000:
0000
0000
0000
0000
,
0000
0000
0000
0000
,
0000
0000
0000
0000
,
0000
0000
0000
0000
,
0000
0000
0000
0000
,
1000
0000
0001
0000
,
1000
0000
0001
1000
,
0010
0100
0010
0100
,
0010
0100
0010
0000
,
0000
0001
1000
1001
,
0000
0010
1000
0101
,
0000
0001
1000
0100
,
0010
0001
0100
0001
,
0000
0001
0010
0110
,
0000
0001
1000
1010
,
0000
0001
1000
0010
,
0100
0001
1000
0110
,
0000
0010
0100
0110
,
0000
0100
0001
1010
,
0000
0001
1000
0010
,
0100
0001
1000
0100
,
0010
0000
0000
1000
,
0000
1000
0000
0001
,
0000
0001
0000
0100
,
0000
0100
0000
0010
,
0000
0010
0000
1000
,
0000
0100
0000
0001
,
0000
0100
1000
0001
,
0000
0001
1000
0010
,
0000
0100
0001
1000
,
0000
0010
0001
1000
,
0010
0100
0001
1000
,
0000
1000
0001
1000
,
0000
0010
0100
0001
,
1000
0100
0010
0001
,
1001
0000
0110
0000
,
1001
0000
0110
0000
,
1010
0000
0101
0000
,
1100
0000
0011
0000
,
0001
1000
0010
0100
,
0001
1000
0100
0010
,
0001
1000
0010
0100
,
0001
0100
0001
1000
,
0100
0010
0001
1000
,
0000
0001
0100
0010
,
0000
1000
0100
0001
,
0000
0001
1000
0010
,
0100
0000
0001
1000
,
0100
0010
0001
1000
,
0100
0010
0001
1000
,
0010
1000
0100
1000
,
0001
0010
0001
0100
,
0000
0010
1000
0100
,
0000
0010
0001
0100
,
0000
0001
1000
0010
,
0100
0001
1000
0100
,
0010
0001
1000
0010
,
0100
0001
0100
0001
,
1000
0000
0010
0000
,
0100
0000
0001
0000
,
1000
0000
0100
0000
,
0010
0000
0001
0000
,
1000
1000
0001
0001
,
0100
0100
0010
0000
,
0010
0000
0010
0000
,
1000
0000
0001
0000
,
1000
0000
0010
0000
,
0100
0000
0010
0000
,
0100
0000
0001
0000
,
1000
0000
0001
0000
,
1000
0001
1000
0001
,
2002
0000
0000
0000
,
0000
0000
0000
0000
,
0000
0000
0000
0000
,
0000
3003
0000
0000
;

//---------------dance-single - ANOTHER----------------
#NOTES:
     dance-single:
     ANOTHER:
     Medium:
     7:
     0.471,0.538,0.553,0.100,0.014,292.000,61.000,11.000,0.000,0.000:
0000
0000
0000
0000
,
0000
0000
0000
0000
,
0000
0000
0000
0000
,
0000
0000
0000
0000
,
0000
0000
0000
0000
,
1000
0100
1000
0001
0100
0001
1000
0010
,
1000
0001
1000
0100
,
0010
0000
0001
0000
1000
0001
0000
1000
,
0001
0000
0000
0000
,
0010
1000
0100
0000
1010
0000
0101
0000
,
1000
0001
0100
0000
0110
0000
0101
0000
,
0001
1000
0001
0000
0010
0100
0010
0000
,
0001
1000
0100
0010
0001
0000
1001
0000
,
1001
0000
0001
1000
0100
0000
0101
0000
,
1100
0000
1000
0001
0100
0000
0010
1000
,
0001
0100
0001
0000
1000
0100
0010
0000
,
0001
0100
0010
0000
1000
0100
0001
0000
,
0110
0000
0110
0000
1000
0001
0100
0000
,
0011
0000
1010
0000
0001
0100
1000
0000
,
1000
0100
0001
0000
1000
0100
0001
0000
,
0001
1000
0100
1000
0000
0001
0000
0010
,
0010
0000
0001
0001
1000
0000
0100
0100
,
0010
1001
0101
1010
,
0000
1100
0011
1100
,
0011
0101
1010
0101
,
2002
0000
0000
0000
0000
3003
0000
0000
,
0220
0000
0000
0330
,
0001
1000
0100
0001
,
0100
0000
0000
0010
0000
0000
0001
0000
0000
1000
0000
0200
,
0000
0010
1000
0010
,
0000
0001
0010
0301
,
0000
0001
1000
0010
,
0001
0000
0000
1000
0000
0000
0100
0000
0000
0001
0000
0002
,
0000
1000
0100
1000
,
0003
0000
0000
0100
0000
0000
0001
0000
1000
0000
0000
0000
,
0100
1000
0010
0000
0000
0100
0001
0000
,
1000
0100
0010
0000
0000
0100
0100
0000
,
0001
1000
0001
0000
0000
0100
0100
0000
,
0001
1000
0001
1000
0001
1000
0001
1000
,
0002
0003
0101
1001
,
1100
0000
0001
1000
0100
0000
0011
0000
,
0101
0000
0001
0100
1000
0000
1100
0000
,
0110
0101
0011
1100
,
2002
0000
0000
3003
,
0110
0000
0001
0010
1000
0000
0101
0000
,
1010
0000
1000
0001
0100
0000
0001
1000
,
0100
0000
0001
0001
1000
0000
0100
0100
,
0010
0000
0001
1000
0010
0000
0001
1000
,
0001
0000
1001
0000
0110
0000
0010
0100
,
0010
0000
0110
0000
1001
0000
0010
0001
,
1000
0000
0010
0100
0001
0000
1010
0000
,
0110
0101
0000
1000
,
0000
0001
0001
0001
,
0000
1000
1000
1000
,
0010
0100
0001
0100
0001
1000
0100
0000
,
0010
0001
1000
0100
0010
0001
0100
0000
,
0001
1000
0010
0000
0100
0001
1000
0000
,
0001
0010
1000
0100
,
0010
0000
0101
1010
,
0101
0000
1100
0011
,
1100
0000
0011
0110
,
1100
0000
1001
0101
,
1100
0000
0011
1010
,
0110
0000
0001
1000
,
0100
0010
0001
0100
,
0010
0100
0001
0010
,
1000
0001
0100
1000
,
0001
0100
0001
1000
,
0100
0010
0001
1000
,
0001
0100
0010
1000
,
0100
0010
0100
0010
,
2002
0000
0000
0000
,
0000
0000
0000
0000
,
0000
0000
0000
0000
,
0000
3003
0000
0000
;

//---------------dance-single - MANIAC----------------
#NOTES:
     dance-single:
     MANIAC:
     Hard:
     9:
     0.549,0.572,0.163,0.018,0.630,404.000,18.000,2.000,0.000,0.000:
0000
0000
0000
0000
,
0000
0000
0000
0000
,
0000
0000
0000
0000
,
1000
0000
0100
0010
0000
0001
0100
0000
0010
1000
0000
0100
,
0010
0000
0001
1000
0000
0100
0000
0000
0000
0000
0000
0000
,
0010
0000
0010
0001
0000
0001
1000
0000
1000
0100
0000
0100
,
0010
0000
0010
0001
0000
1000
0000
0000
0001
1000
0000
0001
,
1000
0000
0001
1000
0000
0010
0100
0000
0010
0100
0000
0010
,
0100
0000
0010
0000
0100
0000
0000
0000
0001
0000
0001
0000
,
0000
0000
0010
1000
0000
0100
0010
0000
0001
0100
0000
0000
,
1000
0000
0100
0010
0000
0001
0100
0000
0010
1000
0000
0000
,
0001
0000
0000
1000
0000
0100
0010
0000
0000
0001
0000
1000
,
0100
0000
0000
0001
0000
0000
1000
0000
0100
0000
0000
0010
,
0000
0000
0000
0001
0000
0001
0000
0000
1000
0000
0000
0010
,
0100
0000
0001
1000
0000
0100
0010
0000
0001
0100
0000
0000
,
0001
0000
0000
1000
0000
0100
0010
0000
0001
0100
0000
1000
,
0100
0000
0001
0100
0000
1000
0100
0000
0000
0001
0000
0000
,
0000
0000
0001
1000
0000
0100
0010
0000
0001
1000
0000
0000
,
0010
0000
0001
1000
0000
0100
0010
0000
0001
0100
0000
0000
,
0001
1000
0100
0000
0010
0001
1000
0000
,
0010
0100
0001
1000
0000
0100
0000
1001
,
0000
0000
0001
1000
0001
0000
0100
0000
,
0010
0000
0010
1000
0000
0000
0001
0000
0001
1000
0000
0000
,
0000
0000
0000
0010
0000
0100
0010
0000
1000
0001
0000
0100
,
0010
0000
0100
0001
0000
1000
0100
0000
0010
0100
0000
1000
,
0001
0000
0000
1000
0000
0000
0100
0000
0010
0100
0000
0000
,
0001
0000
0000
1000
0000
0000
0001
0000
0010
0100
0000
0000
,
0010
0100
0000
0100
0010
0000
1000
0001
,
0000
0001
1000
0000
0010
0100
0001
0000
,
1000
0100
0000
0001
0100
0000
1000
0100
,
0000
0001
0100
0000
0010
0100
0010
1000
,
0001
0100
0000
0001
0100
0000
0010
0100
,
0000
0010
0100
0000
0001
1000
0100
0000
,
0010
0001
0000
1000
0100
0000
0010
0001
,
0000
1000
0100
0000
0010
0001
0010
0001
,
1001
0000
0000
0001
0000
0000
1000
0000
0100
1000
0000
0000
,
0001
0000
0000
1000
0000
0000
0001
0000
0100
0001
0000
0000
,
1000
0000
0001
1000
0000
0010
1000
0000
0000
0001
0000
0000
,
0010
0000
0001
0100
0000
0001
1000
0000
0000
0010
0000
0000
,
0100
0010
0100
0000
0000
0000
0010
0000
0000
0010
0100
0000
,
0001
0000
1000
0001
0000
0100
0010
0000
1000
0100
0000
0010
,
0001
0000
1000
0100
0000
0001
0100
0000
1000
0010
0000
0001
,
0010
0000
1000
0100
0000
0010
0001
0000
0001
1000
0000
0100
,
0010
0000
0001
0000
0000
0000
0000
0000
0000
0000
0000
0000
,
0110
0000
0001
0100
0010
0000
1000
0000
,
1010
0000
0100
0010
0001
0000
0001
0000
,
1001
0110
0101
1100
,
0011
0000
0000
0001
0000
0000
1000
0000
0010
0100
0000
0000
,
0001
0000
1000
0100
0000
0010
0001
0000
0100
0010
0000
0000
,
1000
0000
0001
1000
0000
1000
0001
0000
0001
0100
0000
0000
,
0010
0100
0000
0001
1000
0000
0100
0000
,
0010
0000
1001
0000
0000
0000
0000
0000
0000
0000
0000
0000
,
0001
0000
0000
1000
0000
0100
0010
0000
0010
0001
0000
0000
,
1000
0000
0000
0010
0000
0100
0001
0000
0001
1000
0000
0000
,
1000
0000
0100
0010
0000
0001
0100
0000
0010
1000
0000
0100
,
0010
0000
0001
0100
0000
0010
0000
0000
0000
1000
0000
0000
,
0001
0000
1000
0001
0000
1000
0000
0000
0001
0100
0000
0000
,
0010
1000
0100
0000
0010
0001
0100
0000
,
1001
0000
0010
0001
0000
1000
0100
0000
0010
0001
0000
0100
,
0010
0000
1000
0001
0000
0100
0000
0000
0000
0000
0000
0000
,
1000
0000
0100
0001
0000
0100
1000
0000
0100
0001
0000
0100
,
1000
0000
0010
0100
0000
0001
0000
0000
0000
0000
0000
0000
,
1000
0000
0001
0100
0000
0010
1000
0000
0100
0010
0000
0100
,
0010
0000
0100
0010
0000
0000
1001
0000
0000
0110
0000
0000
,
0101
1100
0011
1010
,
0001
0100
0000
0000
0000
1000
0100
0000
0000
0010
0001
0000
,
0000
0000
0100
0010
0000
0000
0001
0000
0010
0001
0000
0000
,
0010
0000
1000
0010
0000
0000
0001
0000
1000
0001
0000
0000
,
0010
0000
0100
0010
0000
0000
1000
0000
0100
1000
0000
0000
,
0010
0000
0001
0000
1000
0000
0100
0000
0010
0000
0001
0000
,
0010
0000
0100
0000
0010
0000
0001
0000
0100
0000
0010
0000
,
0100
0000
0001
0000
0100
0000
2002
0000
0000
0000
0000
0000
,
0000
0000
0000
0000
,
0000
0000
0000
0000
,
0000
3003
0000
0000
;

//---------------dance-single - BEGINNER----------------
#NOTES:
     dance-single:
     BEGINNER:
     Beginner:
     2:
     0.186,0.336,0.082,0.018,0.000,133.000,9.000,2.000,0.000,0.000:
0000
0000
0000
0000
,
0000
0000
0000
0000
,
0000
0000
0000
0000
,
0000
0000
0000
0000
,
0000
0000
0000
0000
,
1000
0000
0001
0000
,
1000
0000
0001
0000
,
0010
0000
0010
0000
,
0010
0000
0010
0000
,
0000
0001
1000
0000
,
0000
0010
1000
0000
,
0000
0001
1000
0000
,
0010
0000
0100
0000
,
0000
0001
0010
0000
,
0000
0001
1000
0000
,
0000
0001
1000
0000
,
0100
0000
1000
0000
,
0000
0010
0100
0000
,
0000
0100
0001
0000
,
0000
0001
1000
0000
,
0100
0000
1000
0000
,
0010
0000
0000
1000
,
0000
1000
0000
0001
,
0000
0001
0000
0100
,
0000
0100
0000
0010
,
0000
0010
0000
1000
,
0000
0100
0000
0001
,
0000
0100
1000
0000
,
0000
0001
1000
0000
,
0000
0100
0001
0000
,
0000
0010
0001
0000
,
0010
0000
0001
0000
,
0000
1000
0001
0000
,
0000
0010
0100
0000
,
1000
0000
0010
0000
,
1001
0000
0110
0000
,
1001
0000
0110
0000
,
1010
0000
0101
0000
,
1100
0000
0011
0000
,
0001
0000
0010
0000
,
0001
0000
0100
0000
,
0001
0000
0010
0000
,
0001
0000
0001
0000
,
0100
0000
0001
0000
,
0000
0001
0100
0000
,
0000
1000
0100
0000
,
0000
0001
1000
0000
,
0100
0000
0001
0000
,
0100
0000
0001
0000
,
0100
0000
0001
0000
,
0010
0000
0100
0000
,
0001
0000
0001
0000
,
0000
0010
1000
0000
,
0000
0010
0001
0000
,
0000
0001
1000
0000
,
0100
0000
1000
0000
,
0010
0000
1000
0000
,
0100
0000
0100
0000
,
1000
0000
0010
0000
,
0100
0000
0001
0000
,
1000
0000
0100
0000
,
0010
0000
0001
0000
,
1000
0000
0001
0000
,
0100
0000
0010
0000
,
0010
0000
0010
0000
,
1000
0000
0001
0000
,
1000
0000
0010
0000
,
0100
0000
0010
0000
,
0100
0000
0001
0000
,
1000
0000
0001
0000
,
1000
0000
1000
0000
,
2002
0000
0000
0000
,
0000
0000
0000
0000
,
0000
0000
0000
0000
,
0000
3003
0000
0000
;
