#TITLE:LOVE YOU LIKE A FOOL;
#SUBTITLE:;
#ARTIST:JESSICA FOLKER;
#TITLETRANSLIT:;
#SUBTITLETRANSLIT:;
#ARTISTTRANSLIT:;
#CREDIT:;
#BANNER:Love You Like A Fool.png;
#BACKGROUND:Love You Like A Fool-bg.png;
#LYRICSPATH:;
#CDTITLE:./CDTitles/euromix2.png;
#MUSIC:Love You Like A Fool.mp3;
#OFFSET:-1.154;
#SAMPLESTART:37.810;
#SAMPLELENGTH:12.000;
#SELECTABLE:YES;
#BPMS:0.000=183.390;
#STOPS:;
#BGCHANGES:;
// cache tags:
#FIRSTBEAT:16.000;
#LASTBEAT:268.000;
#SONGFILENAME:Songs/euromix/Love You Like A Fool/Love You Like A Fool.sm;
#HASMUSIC:1;
#HASBANNER:1;
#MUSICLENGTH:89.346;
// end cache tags

//---------------dance-single - ----------------
#NOTES:
     dance-single:
     :
     Easy:
     4:
     0.285,0.375,0.045,0.000,0.000,174.000,4.000,0.000,0.000,0.000:  // measure 1
0000
0000
0000
0000
,  // measure 2
0000
0000
0000
0000
,  // measure 3
0000
0000
0000
0000
,  // measure 4
0000
0000
0000
0000
,  // measure 5
0001
0000
0001
0000
,  // measure 6
0001
0000
0000
0000
,  // measure 7
0010
0000
0000
0000
,  // measure 8
0100
0000
0000
0000
,  // measure 9
1001
0000
0100
0000
,  // measure 10
1000
0000
0100
0000
,  // measure 11
0001
0000
0100
0000
,  // measure 12
0010
1000
1000
0000
,  // measure 13
0001
0000
0100
0000
,  // measure 14
1000
0000
0100
0000
,  // measure 15
0001
0001
1000
0000
,  // measure 16
1000
1000
0001
0000
,  // measure 17
1000
0100
1000
1000
,  // measure 18
0001
0100
0001
0001
,  // measure 19
0010
1000
0001
0100
,  // measure 20
0010
1000
0001
0100
,  // measure 21
0001
1000
0001
1000
,  // measure 22
0100
0001
0100
0100
,  // measure 23
1000
1000
0100
0000
,  // measure 24
0001
0001
0100
0000
,  // measure 25
1000
1000
0001
0001
,  // measure 26
1000
1000
0001
0001
,  // measure 27
0100
0100
0010
0010
,  // measure 28
0100
0010
0100
0010
,  // measure 29
0001
1000
0100
0000
,  // measure 30
1000
0001
0100
0000
,  // measure 31
0100
0000
0100
0000
,  // measure 32
0100
0100
0100
0000
,  // measure 33
1001
0000
0100
0000
,  // measure 34
0001
0100
0100
0000
,  // measure 35
1001
0000
0100
0000
,  // measure 36
1000
0100
0100
0000
,  // measure 37
0010
0100
0001
0001
,  // measure 38
1000
0100
0001
0100
,  // measure 39
1000
0100
0100
0001
,  // measure 40
0100
0100
0100
0100
,  // measure 41
0110
0010
1000
0010
,  // measure 42
0100
0001
0100
0001
,  // measure 43
0001
0010
0100
1000
,  // measure 44
1000
0010
0100
0001
,  // measure 45
0001
0010
0100
1000
,  // measure 46
1000
0010
0100
0001
,  // measure 47
0001
0001
0001
0000
,  // measure 48
0001
0001
0001
0000
,  // measure 49
1000
0000
0100
0000
,  // measure 50
0001
0000
0000
0000
,  // measure 51
1000
0000
0100
0000
,  // measure 52
0001
0000
0100
0000
,  // measure 53
1000
0000
0100
0000
,  // measure 54
0001
0000
0100
0000
,  // measure 55
1000
0000
0100
0000
,  // measure 56
1000
0000
0100
0000
,  // measure 57
0001
0000
0100
0000
,  // measure 58
0001
0000
0100
0000
,  // measure 59
0010
0000
0010
0000
,  // measure 60
0010
0000
1000
0000
,  // measure 61
0100
0000
0001
0000
,  // measure 62
0010
0000
1000
0000
,  // measure 63
0100
0000
0001
0000
,  // measure 64
1000
0000
0100
0000
,  // measure 65
0001
0000
0100
0000
,  // measure 66
0010
0000
0000
0000
,  // measure 67
1000
0000
1000
0000
,  // measure 68
1000
0000
0000
0000
;

//---------------dance-single - ----------------
#NOTES:
     dance-single:
     :
     Medium:
     5:
     0.270,0.374,0.045,0.000,0.000,165.000,4.000,0.000,0.000,0.000:  // measure 1
0000
0000
0000
0000
,  // measure 2
0000
0000
0000
0000
,  // measure 3
0000
0000
0000
0000
,  // measure 4
0000
0000
0000
0000
,  // measure 5
0001
0000
0000
0001
0000
0000
0001
0000
,  // measure 6
0000
0001
0000
0000
0000
0000
0000
0000
,  // measure 7
1000
0000
0100
0001
,  // measure 8
1000
0001
0000
0010
,  // measure 9
1001
0100
0001
0100
,  // measure 10
1000
0100
0001
0100
,  // measure 11
0010
1000
0100
0001
,  // measure 12
0010
1000
0100
0001
,  // measure 13
0010
1000
0010
1000
,  // measure 14
0001
0000
0100
0000
0001
0000
0100
0010
,  // measure 15
0000
1000
0000
0001
1000
0000
0000
0010
,  // measure 16
0000
0001
0000
1000
0001
0000
0000
0000
,  // measure 17
1000
0100
0001
0100
,  // measure 18
1000
0100
0001
0100
,  // measure 19
0010
0100
0010
0001
,  // measure 20
0010
0100
0010
0001
,  // measure 21
1000
0100
0001
0100
,  // measure 22
0010
0000
0100
0000
0010
0000
1000
0010
,  // measure 23
0000
0100
0000
0001
0100
0000
0000
0010
,  // measure 24
0000
0100
0000
1000
0100
0000
0000
0000
,  // measure 25
0010
0000
0000
1000
0000
0000
0001
0000
,  // measure 26
0000
0100
0000
0000
0000
0000
0000
0000
,  // measure 27
0001
0000
0000
0001
0000
0000
1000
0000
,  // measure 28
0000
0100
0000
0000
0010
1000
0100
0000
,  // measure 29
0001
0000
0000
0100
0000
0000
0001
0000
,  // measure 30
0000
1000
0000
0000
0000
0000
0000
0100
,  // measure 31
1000
0000
0000
0000
,  // measure 32
0001
0000
0000
0000
,  // measure 33
0001
0000
1000
0100
0000
0000
0001
0000
,  // measure 34
0000
0000
0000
0000
,  // measure 35
0001
0000
0000
0100
,  // measure 36
0000
0000
0000
0000
,  // measure 37
0010
0000
1000
0001
0000
0000
0100
0000
,  // measure 38
0000
0000
0000
0000
,  // measure 39
0001
0000
0000
1000
0000
0000
0010
0000
,  // measure 40
0000
0101
0000
0000
0001
1000
0100
0000
,  // measure 41
1000
0000
0000
0001
,  // measure 42
0000
0000
0000
0000
,  // measure 43
0010
0000
0000
0001
0000
0000
1000
0000
,  // measure 44
0000
0000
0000
0000
,  // measure 45
0010
0000
0001
1000
0000
0000
0001
0000
,  // measure 46
0000
0000
0000
0000
,  // measure 47
0001
0000
0000
1000
0000
0000
1100
0000
,  // measure 48
0000
0000
0000
0000
0010
0001
0100
0000
,  // measure 49
0001
0000
0000
0100
0000
0000
1000
0000
,  // measure 50
0000
0100
0000
0000
0000
0000
0000
0000
,  // measure 51
1001
0000
0000
1000
0100
0000
0000
0000
,  // measure 52
0000
0000
0000
0000
0000
0000
0010
1000
,  // measure 53
0100
0000
0000
0001
0000
0000
0001
0000
,  // measure 54
0000
0001
0000
0000
0000
0000
0000
0000
,  // measure 55
1000
0000
0000
0100
0000
0000
0000
0000
,  // measure 56
0000
0000
0000
0000
0000
0000
0010
1000
,  // measure 57
0010
0000
0000
1000
0000
0000
0000
0000
,  // measure 58
0001
0000
0000
0100
0000
0000
0000
0000
,  // measure 59
0001
0000
0000
0010
0100
0000
0000
0000
,  // measure 60
0000
0000
0000
0000
0000
0000
0100
0001
,  // measure 61
1000
0000
0000
0100
0000
0000
0010
0000
,  // measure 62
0000
0001
0000
0000
0000
0000
0000
0000
,  // measure 63
0001
0000
0000
1000
0000
0000
0000
0000
,  // measure 64
0000
0000
0000
0000
0000
0000
0100
1000
,  // measure 65
0010
0000
0000
0000
,  // measure 66
0100
0000
0000
0000
,  // measure 67
0001
0100
0001
0100
0000
0000
1000
0000
;

//---------------dance-single - ----------------
#NOTES:
     dance-single:
     :
     Hard:
     7:
     0.491,0.486,0.022,0.000,0.000,305.000,2.000,0.000,0.000,0.000:  // measure 1
0000
0000
0000
0000
,  // measure 2
0000
0000
0000
0000
,  // measure 3
0000
0000
0000
0000
,  // measure 4
0000
0000
0000
0000
,  // measure 5
1000
0000
0000
0001
1000
0000
0001
0000
,  // measure 6
0000
0100
0001
0000
1000
0000
0100
0000
,  // measure 7
0001
0000
0000
1000
0001
0000
0100
0000
,  // measure 8
0000
0001
0100
0000
1000
0000
1000
0000
,  // measure 9
1001
0000
0010
0100
0000
0001
0100
0000
,  // measure 10
1000
0000
1000
0100
0000
0010
0100
0001
,  // measure 11
0010
0000
0100
1000
0000
1000
0001
0000
,  // measure 12
0010
0000
0100
0001
0000
1000
0001
0010
,  // measure 13
0100
0000
0001
0100
0000
1000
0010
0000
,  // measure 14
0100
0000
0100
0010
0000
0100
1000
0010
,  // measure 15
0000
1000
0000
1000
0001
0000
0010
0100
,  // measure 16
0000
1000
0000
0001
0010
0000
1000
0100
,  // measure 17
0010
0000
0100
1000
0000
1000
0010
0000
,  // measure 18
0100
0000
0001
0001
0000
1000
0010
0100
,  // measure 19
0001
0000
1000
0001
0000
0001
1000
0000
,  // measure 20
0100
0000
1000
0100
0000
1000
0001
0100
,  // measure 21
1000
0000
1000
0100
0000
0100
0010
0000
,  // measure 22
0001
0000
0100
0001
0000
1000
0001
1000
,  // measure 23
0000
0010
0000
1000
1000
0000
0010
0100
,  // measure 24
0000
0001
0000
1000
0100
0000
0010
0000
,  // measure 25
0001
1000
0000
0001
1000
0000
0100
0000
,  // measure 26
0100
0010
0000
0001
0100
0000
1000
0000
,  // measure 27
0001
0100
0000
0001
0010
0000
1000
0100
,  // measure 28
1000
0000
0001
0000
0100
0010
0100
0000
,  // measure 29
1000
0100
0000
0100
0010
0000
0010
0000
,  // measure 30
0001
0100
0000
1000
0100
0000
1000
0000
,  // measure 31
0001
0000
0100
0010
0000
1000
0000
1000
,  // measure 32
0000
1000
0100
0000
0100
0001
0010
0000
,  // measure 33
0001
0000
1000
0100
0000
0001
0000
0001
,  // measure 34
0000
0001
0010
0000
1000
0100
1000
0000
,  // measure 35
0010
0000
0001
1000
0000
1000
0000
1000
,  // measure 36
0000
0010
0100
0000
0001
0010
0100
0000
,  // measure 37
0001
0000
0010
0100
0000
1000
0000
0100
,  // measure 38
0000
0000
0001
0010
0000
1000
0000
0100
,  // measure 39
0000
0010
0001
0000
0001
0100
0000
1000
,  // measure 40
0000
1000
0100
0000
0001
1000
0001
0000
,  // measure 41
0010
0000
0100
0010
0000
0001
0000
0010
,  // measure 42
0000
0100
1000
0000
0010
0001
0100
0000
,  // measure 43
0010
0000
0001
1000
0000
0010
0000
1000
,  // measure 44
0000
0100
0010
0000
0001
0010
0100
0000
,  // measure 45
0001
0000
0001
0010
0000
0100
0000
1000
,  // measure 46
0000
0000
0100
1000
0000
0010
0000
0100
,  // measure 47
0000
1000
0100
0000
0001
0100
0000
1000
,  // measure 48
0000
0010
0010
0000
0100
0001
0000
1000
,  // measure 49
0100
0000
1000
0100
0000
0001
0100
0000
,  // measure 50
1000
0100
0000
0000
0000
0000
0000
0000
,  // measure 51
1001
0000
0000
0010
0100
0000
0001
0000
,  // measure 52
0010
0100
1000
0010
,  // measure 53
0100
0000
0000
0001
1000
0000
0010
0000
,  // measure 54
0100
1000
0010
0001
,  // measure 55
0100
0000
1000
0010
0100
0000
0001
0000
,  // measure 56
0010
0100
1000
0001
,  // measure 57
0100
0000
0010
1000
0100
0000
0001
0000
,  // measure 58
0100
0000
0001
0010
1000
0000
1000
0010
,  // measure 59
0100
0000
1000
0001
0100
0000
0100
0000
,  // measure 60
0010
0001
0100
1000
,  // measure 61
0100
0000
0000
0010
0100
0000
1000
0000
,  // measure 62
0010
0001
0100
0001
,  // measure 63
0100
0000
0010
1000
0100
0000
0001
0000
,  // measure 64
1000
0100
0001
0100
,  // measure 65
1000
0000
0010
1000
0001
0000
0010
0000
,  // measure 66
0100
0000
0001
0010
0100
0000
1000
0000
,  // measure 67
0001
0010
0001
0010
0100
0000
1000
0000
;
