#TITLE:GO!;
#SUBTITLE:;
#ARTIST:Aunit6666;
#TITLETRANSLIT:;
#SUBTITLETRANSLIT:;
#ARTISTTRANSLIT:;
#CREDIT:;
#BANNER:Go-banner.png.bmp;
#BACKGROUND:Go-bg.png.jpg;
#LYRICSPATH:;
#CDTITLE:;
#MUSIC:NG51277.mp3;
#OFFSET:0.000;
#SAMPLESTART:14.526;
#SAMPLELENGTH:12.000;
#SELECTABLE:YES;
#BPMS:0.000=160.000,1.000=190.000,2.000=240.001,3.000=300.000,4.000=340.000,5.000=350.000,6.000=370.000,7.000=400.000,8.000=429.999,9.000=439.999,10.000=469.999,11.000=509.998,20.000=430.000,136.000=215.000,138.000=430.000,194.000=215.000,198.250=215.000,222.000=430.000,230.000=215.000,242.000=430.000,250.000=215.002,290.000=290.002,291.000=330.002,292.000=370.001,293.000=420.000,294.000=470.000,295.000=499.999,296.000=549.999,297.000=599.998,298.000=649.998,299.000=699.997,300.000=739.997,301.000=779.997,302.000=829.996,303.000=879.995,304.000=950.015,305.000=1040.014,306.000=1099.997,356.000=215.001,365.000=430.002,395.000=215.001,396.000=107.501,398.000=215.001,417.000=160.001,417.500=191.001,418.000=80.001,418.500=70.001,419.000=40.001,419.500=80.001,420.000=130.001,420.500=190.001,421.000=120.001,421.500=150.001,422.000=100.001,423.000=30.001,428.000=215.001,456.000=107.501,464.000=215.001;
#STOPS:19.500=0.100
,356.000=6.400
;
#BGCHANGES:0.000=go-bg.png.jpg=1.000=0=0=1,
99999=-nosongbg-=1.000=0=0=0 // don't automatically add -songbackground-
;
// cache tags:
#FIRSTBEAT:0.000;
#LASTBEAT:478.000;
#SONGFILENAME:Songs/StepMix 2/Go!/NG51277.sm;
#HASMUSIC:1;
#HASBANNER:1;
#MUSICLENGTH:106.814;
// end cache tags

//---------------dance-single - ----------------
#NOTES:
     dance-single:
     :
     Easy:
     5:
     0.377,0.951,0.290,0.449,0.066,203.000,31.000,48.000,273.000,5.000:
1000
M000
0000
0000
0000
0000
0000
0000
,
0010
00M0
0000
0000
,
0000
0000
0000
0000
,
0100
0000
0000
0M00
0000
0000
0000
0000
,
0000
0000
0000
0000
,
0100
0000
0000
000M
,
0001
0000
0000
M000
,
1000
0000
0000
M000
,
1000
0000
0000
000M
,
0001
0000
0000
M000
,
1000
0000
0000
0M00
,
0100
0000
0000
0M00
,
0100
0000
0000
00M0
,
0010
0000
0000
000M
,
0001
0000
0000
M000
,
1000
0000
0000
0M00
,
0100
0000
0000
M000
,
1000
0000
00M0
0010
,
0010
0000
000M
0001
,
0001
MM00
0010
00MM
,
1000
MM00
0010
M00M
,
0100
MM00
0010
0MM0
,
0001
MMMM
0010
M00M
,
0100
MM00
0010
00MM
,
1000
MM00
0010
0MM0
,
0001
MM00
0010
00MM
,
0100
MMMM
0010
0000
,
M000
0M00
00M0
0M00
,
00M0
000M
00M0
0M00
,
2000
0000
3MM2
0MM0
2MM3
0000
3000
0000
,
0001
M0M0
0100
0M0M
,
0010
M0M0
0100
0MM0
,
1000
00MM
0100
MM00
,
0001
1000
0000
0000
0000
0000
0001
0000
,
0M00
00M0
0M00
00M0
0001
0000
1000
0000
,
0001
1000
0001
1000
,
0020
0000
0000
0000
0200
0000
0000
0030
,
0000
0000
0320
0000
0000
0000
2000
0030
,
0000
0000
3022
0000
,
0000
0000
0000
0000
0000
0000
0000
0033
,
0000
0000
2200
0000
,
0000
0000
0000
0000
0000
0000
0000
3300
,
0000
0000
100M
0000
,
01M0
0000
100M
0000
,
M001
0000
0M10
0000
,
01M0
0000
100M
0000
,
100M
0000
100M
0000
,
01M0
0000
0M10
0000
,
M001
0000
0110
1010
,
1001
0000
1100
0000
0011
00MM
00MM
00MM
,
00M0
0MM0
0MM0
M0M0
M0M0
M0M0
0MMM
0000
,
00MM
0MM0
0011
0000
,
0110
0000
1000
0001
,
1000
0100
0010
0100
,
1000
1000
1000
0010
,
0001
0000
1100
0000
,
0000
0000
1001
0000
,
0000
0000
0001
0010
,
0001
0010
0100
0010
,
1000
0100
1000
0010
,
0001
0000
0110
0000
,
0000
0000
1001
0000
,
0000
0000
0010
0001
,
0010
0100
0010
0001
,
0100
1000
2002
0000
,
0000
3003
0220
0000
,
M332
MM23
M23M
23M0
,
32M0
M32M
0M32
00M3
,
1010
0000
0110
0000
,
0011
0000
1001
0000
,
1100
0000
1000
0100
,
0010
0000
0001
2000
0000
0000
0000
0000
,
0000
0000
0000
0000
32M0
000M
M0M0
000M
,
00M0
M0M0
0000
M0M0
,
0000
000M
M00M
0000
0000
00M0
M00M
0000
,
0000
0000
M000
0000
000M
00M0
M000
00M0
,
000M
00M0
M00M
000M
000M
000M
M00M
00M0
,
00M0
00M0
M0M0
000M
00M0
000M
M000
000M
,
000M
00M0
M000
00M0
000M
00M0
M00M
0000
,
000M
M0M0
00M0
M0M0
,
000M
M0MM
000M
M00M
,
00M0
000M
M0M0
000M
00M0
0000
M0M0
00M0
,
00M0
00M0
M0M0
000M
00MM
00M0
M0MM
000M
,
000M
0000
000M
0000
M0M0
000M
00M0
000M
00M0
000M
00M0
000M
M0M0
000M
00M0
000M
,
00M0
000M
00M0
000M
M0M0
000M
00M0
000M
00M0
000M
00M0
000M
M0M0
000M
00M0
0000
,
0000
M0MM
0000
M0MM
,
0000
M0MM
0000
M0MM
,
0000
M0MM
0000
M0MM
,
0000
M0MM
M0MM
M0MM
,
M3MM
0010
0010
0010
,
0010
0010
0010
0010
,
0010
0011
0000
0000
,
0000
1100
0000
0000
,
0000
0110
0000
0000
,
0000
1001
0000
0000
,
0000
0011
0000
0000
,
0000
0101
0000
0000
,
0000
1010
0000
0000
,
0000
1001
0000
0000
,
2000
3020
0230
0302
1003
0000
0100
0000
,
1000
0100
0010
0100
,
0010
0001
0010
0100
,
0010
0001
0100
0010
,
1000
0100
0020
0002
,
0200
2333
0000
0000
,
0000
0000
0000
0002
,
0003
0000
0000
0002
0000
0000
0000
0000
0000
0000
0000
0000
0000
0000
0000
0000
,
3103
0000
0011
0000
,
0100
0000
0011
0000
,
0010
1000
0010
0000
,
0010
0001
0100
0000
,
1000
0000
0000
0000
,
0100
0010
0100
0001
,
0100
0000
0000
0000
,
2000
3000
2000
3000
0002
0003
0020
0030
,
0200
0300
0020
0030
0020
0030
0020
0030
,
0200
0300
0002
0003
,
2000
0000
3000
0000
2002
0000
0000
3003
,
0020
0000
0000
0000
,
0000
0000
0030
0000
;

//---------------dance-single - ----------------
#NOTES:
     dance-single:
     :
     Beginner:
     3:
     0.304,0.559,0.131,0.393,0.000,170.000,14.000,42.000,54.000,6.000:
1000
M000
0000
0000
0000
0000
0000
0000
,
1000
M000
0000
0000
,
0000
0000
0000
1000
,
0000
M000
0000
0000
0000
0000
0000
0000
,
0000
0000
0000
0000
,
1000
0000
0000
0000
,
0001
0000
0000
0000
,
1000
0000
0000
0000
,
0010
0100
0000
0000
,
0001
0000
0000
0000
,
1000
0000
0000
0000
,
0001
0000
0000
0000
,
0010
0100
0000
0000
,
1000
0000
0200
0000
,
0301
0000
0001
0000
,
0001
0000
0020
0000
,
1030
0000
1000
0000
,
1000
0000
0010
0000
,
1000
0000
0010
0000
,
0001
0000
0010
0000
,
0001
0000
0000
0000
,
0001
0000
0010
0000
,
0001
0000
0010
0000
,
0100
0000
0010
0000
,
1000
0000
0010
0000
,
0200
0320
0000
0000
,
0000
0000
0000
0000
0000
0000
0000
0030
,
1000
0200
0000
0000
,
0000
0000
0000
0000
0000
0000
0000
0300
,
0010
2000
0000
0000
,
0000
0000
0000
0000
0000
0000
0000
3000
,
2000
0000
0001
0000
,
0001
0000
0000
0000
,
0001
0000
0000
0000
0000
0000
0000
3000
,
MMMM
MMMM
MMMM
MMMM
0000
0000
0000
0000
,
0110
0000
0110
0000
,
0110
0000
0220
0000
,
0000
0000
0000
0000
0000
0000
0000
0330
,
1000
0000
0000
0010
,
0001
0000
0000
0010
,
0100
0000
0000
0100
,
0001
0000
0000
0010
,
1000
0000
0000
0001
,
0010
0000
0000
0100
,
0010
0000
0000
1000
,
0100
0000
0000
0001
,
0010
0000
0100
0020
,
0000
0000
0000
0000
,
0000
0000
0000
0030
MMMM
MMMM
MMMM
MMMM
,
MMMM
MMMM
MMMM
MMMM
0000
0000
0000
0000
,
0000
0000
0000
0000
0200
0302
0000
0000
,
0000
0000
0023
0230
0000
0000
0000
0000
,
0300
0000
1000
0000
,
1000
0000
0001
0000
,
0001
0000
0010
0000
,
0010
0000
2000
0000
,
0000
0000
0000
0000
,
0000
0000
0000
3000
0010
0000
0000
0000
,
0010
0000
0100
0000
,
0100
0000
0001
0000
,
0001
0000
0200
0000
,
0000
0000
0000
0000
,
0000
0000
0000
0300
0001
0000
0000
0000
,
0001
0000
0100
0000
,
0100
0000
1000
0000
,
0100
0000
0001
0000
,
0001
0000
2002
0100
,
0000
0000
0000
0010
,
0000
0000
0000
0100
,
0000
0000
0000
3103
,
0000
0000
0100
0100
,
0001
1000
0001
1000
,
0001
1000
0002
0000
,
0000
0000
0000
0000
,
0000
0000
0000
0000
,
0000
0000
0000
0000
,
0000
0000
0000
0000
,
0000
0000
0000
0000
,
0000
0000
0000
0000
,
0000
0000
0000
0000
,
0000
0000
0000
0000
,
0000
0000
0000
0000
,
0000
0000
0000
0000
,
0000
0000
0000
0000
,
0000
0000
0000
0000
,
0000
0000
0000
0000
,
0000
0000
0000
0000
,
0000
0000
0000
0000
,
0000
0000
0000
0000
,
MMM3
0220
0000
0000
,
0000
0000
0000
0000
,
0000
0330
1000
0000
0000
0000
0001
0000
,
0000
0000
0220
0000
0000
0000
0000
0330
,
0000
0001
0000
1000
,
0000
0000
0220
0000
0000
0000
0000
0330
,
0000
1000
0000
0010
,
0000
0001
0000
0100
,
0000
0000
0020
0000
0000
0000
0000
0030
,
0000
1000
0000
0000
,
2000
3002
0203
0000
,
0300
0100
0100
0100
,
0200
0000
0000
0000
,
0300
0110
0110
0110
,
0220
0000
0000
0330
,
0000
0222
0000
0000
,
0000
0000
0000
2333
,
0000
0000
0000
0000
0000
0000
0000
3000
,
0010
0000
0000
0100
,
0010
0000
0010
0100
,
0010
0010
0100
0010
,
0100
0000
1001
0000
,
2000
3002
0000
0000
,
0203
0310
0000
0200
,
0310
0000
0002
1003
,
0100
0010
1000
0100
,
0010
0001
1000
0100
,
0001
0000
1000
0000
,
0100
0000
0100
0000
,
0020
0000
0100
0000
,
0001
0000
0031
0000
;

//---------------dance-single - ----------------
#NOTES:
     dance-single:
     :
     Medium:
     7:
     0.543,1.000,0.459,0.702,0.183,281.000,49.000,75.000,182.000,6.000:
0011
MM00
0000
0000
0000
0000
0000
0000
,
0110
M00M
0000
0000
,
0000
0000
0000
1001
,
0000
0MM0
0000
0000
0000
0000
0000
0000
,
1001
0000
0020
0000
,
1030
0000
0100
0000
,
1000
0100
0010
0001
,
0100
0000
0010
0000
,
0001
0010
0100
1000
,
0010
0000
1000
0000
,
0100
0010
0100
1000
,
0110
0000
0011
0000
,
1100
0000
0000
0000
0220
0000
0000
0330
,
1100
0000
0110
0000
,
1100
0000
0000
0000
2002
0000
0000
3003
,
0010
0000
0100
0000
,
0001
0010
0100
1000
,
0002
0000
0023
0000
,
0230
0000
2300
0000
,
3001
0100
0010
1000
,
0010
0100
0001
0010
,
000M
00M0
0M00
00M0
,
M000
0M00
00M0
000M
,
1000
0010
0100
0001
,
0010
0100
0010
0100
,
MM00
0M0M
M0M0
0MM0
,
00MM
M00M
MM00
0MM0
,
2000
0100
0010
3001
,
0002
0010
0100
1003
,
0MM0
0000
0M0M
0000
,
MMMM
0000
MMMM
0000
,
1000
0000
1000
0100
,
0002
0000
0013
0000
,
0110
0000
0011
0000
,
2000
3200
0320
0230
0301
0000
0000
0000
,
1001
0000
1001
0000
,
1001
0000
0000
0000
0000
0000
0000
0000
0002
0003
0000
0000
0020
0030
0000
0000
,
0002
0000
0003
0000
0200
0300
0000
0000
2000
0000
0000
0000
3000
0000
0000
0000
,
0200
0300
0000
0000
0002
0000
0003
0000
0020
0000
0000
0030
0000
0000
0000
0000
,
0000
0000
0000
0001
0000
0000
0000
0010
,
0000
0000
0000
0100
0000
0000
0000
0010
,
0000
0000
0000
1000
0110
0000
0000
0000
,
1000
0000
0100
1000
,
0001
0010
0001
0010
,
0001
0010
M000
0M00
,
M000
0M00
00M0
0M00
,
00M0
MMMM
0001
0010
,
1000
0100
0001
0010
,
1000
0100
2000
0000
,
0000
0000
3000
0000
0110
0001
0000
0000
,
0000
1000
0000
0010
0000
0100
0000
0000
,
0000
0010
1000
1000
,
1000
0000
0000
0000
1000
0000
0000
0000
1000
0100
0010
0001
0000
0000
0000
0000
,
1000
0100
0010
0001
0000
0000
0000
0000
0110
0000
0000
0000
0011
0000
0000
0000
,
1100
0000
0000
0000
0000
0000
0000
0000
0010
0001
1000
0100
0000
0000
0000
0000
,
0010
0001
1000
0100
0000
0000
0000
0000
1001
0000
0MM0
0000
0MM0
0000
0MM0
0000
,
0MM0
0MM0
1001
0000
0220
0000
0000
0000
,
0000
0000
0000
0000
0000
0000
0330
0000
0100
0010
0001
0010
0000
0000
0000
0000
,
0100
0010
0001
0010
0000
0000
0000
0000
0100
0000
0000
0000
0010
0000
0000
0000
,
0001
0000
0000
0000
0100
1000
0100
0010
0000
0000
0000
0000
0100
1000
0100
0010
,
0000
0000
0000
0000
0110
M00M
M00M
M00M
,
MM00
MM00
MM11
0000
2200
0000
0000
0000
,
0000
0000
0000
0000
0000
0000
3300
0000
0020
0030
0000
2000
3000
0000
0000
0000
,
0200
0000
0000
0000
0300
0000
0000
0000
0000
0002
0000
0000
0000
0000
0003
0000
,
0000
0000
0200
2300
,
3020
0030
0002
0203
,
0320
0030
2002
3203
,
2300
3000
0220
0332
,
2003
3000
0001
0010
,
0001
0010
0001
0010
,
0100
1000
0220
0000
,
2332
0000
3203
00M0
,
0000
000M
0000
M000
,
000M
00M0
M000
00M0
,
M000
00M0
000M
00M0
,
000M
00M0
M000
00M0
,
M000
M0MM
M0MM
00M0
,
M000
0000
0000
M000
M000
00M0
00M0
000M
00M0
000M
M000
00M0
,
M000
00M0
000M
00M0
000M
M000
00M0
0000
0000
00M0
0000
0000
,
00M0
00M0
00MM
M00M
,
M00M
00M0
M000
00M0
,
M000
000M
00M0
M000
,
00M0
0000
0000
0000
0000
0000
M000
0000
0000
0000
0000
0000
M000
0000
0000
0000
0000
0000
M000
M000
00M0
000M
00M0
M000
,
00M0
000M
00M0
M000
00M0
000M
00M0
0000
00M0
0000
0000
00M0
0000
0000
0000
0000
0000
000M
0000
0000
0000
0000
0000
0000
,
00M0
00M0
00M0
000M
0000
0000
M000
0000
,
0000
000M
00M0
M000
0000
0000
00M0
0000
,
M000
000M
00M0
M000
,
00M0
M000
00M0
000M
,
M0MM
M0MM
M0MM
M0MM
,
M3MM
1000
1000
0100
,
0100
0010
0010
0001
,
0001
1000
0010
0100
,
0000
0001
0010
0001
,
0000
0010
1000
0100
,
1000
0100
0010
0001
,
0000
0010
0010
1001
,
0000
0100
0100
1001
,
0000
0001
0010
0100
,
1000
0100
0010
0000
,
2000
3000
0000
0000
0200
0300
0000
0000
0020
0000
0030
0000
0002
0000
0000
0003
0100
0000
0000
0000
0000
0000
0000
0000
0011
0000
0000
0000
0000
0000
0000
0000
,
0010
1100
0001
0101
,
0010
1010
0100
1001
,
0010
0110
0011
0110
,
0011
0000
2000
0000
,
0000
3002
0000
0000
,
0000
0000
0000
0203
,
0002
0003
0002
0303
,
2000
0000
0000
0000
,
3000
0000
0000
0000
,
1000
0010
0100
0001
,
0010
0001
0010
0100
,
0002
0000
0000
0000
,
0003
0000
0000
0000
,
0111
0000
0000
0000
,
2000
3000
0002
0003
0020
0030
0200
0300
0002
0000
2003
0000
3200
0000
0320
0000
,
2030
3002
0003
0000
1100
0000
0011
0000
,
1000
0100
0000
0101
,
0001
0010
0000
1010
,
2020
0000
0000
0000
,
0000
0000
3130
0000
;

//---------------dance-single - ----------------
#NOTES:
     dance-single:
     :
     Hard:
     8:
     0.749,1.000,0.730,0.936,0.112,374.000,78.000,100.000,161.000,25.000:
0101
20M0
0000
0000
0000
0000
0000
3000
,
0010
MM00
0000
0002
0000
0000
0000
0000
,
0000
0000
0000
0000
0000
0003
0010
0000
,
0000
0220
0000
0000
,
0330
1001
0000
0000
,
2000
0000
3000
0000
,
2000
0100
3010
0100
,
0002
0010
0103
1000
,
0002
0000
0003
0000
,
2000
0100
3001
0100
,
0020
0001
0130
1000
,
0011
0000
1001
0000
,
0110
0000
1100
0001
,
1001
0000
0011
0000
,
0110
0000
1001
0100
,
0011
0000
0101
0000
,
1010
0000
0110
1000
,
1001
0000
0101
0000
,
0011
0000
1100
0010
,
1000
0100
0010
0100
,
0010
0001
0010
1001
,
MMMM
M000
M000
M000
M0MM
M00M
MMMM
0000
,
MMMM
M00M
M00M
M00M
M00M
M00M
MMMM
0000
,
0001
0100
0010
0001
,
1000
0100
0001
0110
,
0MM0
0MM0
0MM0
0MM0
,
0MM0
0MM0
0000
0MM0
,
2000
3100
0020
0031
,
0200
1300
0020
1030
,
0001
1000
0001
1000
0001
1000
0001
1000
,
0010
1000
0010
2000
0000
0000
0000
3000
,
1100
0000
0100
0000
,
0101
0000
0010
0000
,
0001
0010
0001
0010
,
0001
1000
0001
1000
0200
0000
0000
0000
,
0002
0000
0003
0300
0000
0020
0000
0000
,
0000
0000
0030
0000
2000
0000
0001
3000
,
0010
0100
2002
0000
,
3203
0000
0000
0300
0002
0000
0000
0000
,
0200
0300
0000
0003
0020
0000
0000
0030
,
2000
0000
0000
0000
0000
0000
0000
0000
3000
0000
0000
0000
0200
0000
0000
0300
0000
0000
0000
0000
0000
0000
0000
0000
,
1001
0000
0100
0000
0100
0000
0020
0030
,
0000
0000
0100
0010
,
0001
0100
0010
0001
,
0010
0100
1000
0000
,
1100
0000
1110
0000
,
1111
0000
0010
0001
,
0100
0010
1000
1000
,
0100
0100
0001
0011
,
0111
0000
0000
0000
1111
0000
0000
0000
2000
0200
0020
0002
0000
0000
0000
0000
,
0000
0000
0000
3333
0000
0000
0000
0000
1000
0000
0000
0000
1000
0000
0000
0000
,
1000
0000
1000
0000
0001
0010
0001
0000
,
0010
0100
0010
0000
1000
0100
1000
0000
,
0010
0000
0100
0000
1000
0100
0010
0001
1000
0000
0100
0000
0010
0000
0000
0000
,
0001
0000
0010
0000
0001
0010
0100
1000
0000
0000
0000
0000
1010
0000
0000
0000
,
0101
0011
2000
0200
,
0020
0000
0002
0000
,
0000
0000
0000
3333
0010
0100
0010
0000
,
1000
0000
0100
0000
1000
0100
0010
0001
0100
0000
0010
0000
0100
0000
0000
0000
,
0001
0000
0010
0000
0001
0010
0100
1000
0000
0000
0000
0000
0011
0000
0000
0000
,
1001
1010
0002
0020
,
0200
0000
2000
0000
,
0000
0000
0000
3333
0010
0001
0010
0001
,
0100
0010
0100
0010
0010
0001
0010
0001
,
0010
0100
0010
0000
0200
0300
2000
3000
,
0011
0000
0000
0000
0200
0300
0002
0003
,
1100
0000
0000
0000
2020
3030
0100
0000
,
2020
0000
3030
0000
2020
3030
0100
0000
,
2020
0000
3030
0000
0100
0010
0001
0010
,
0100
0010
1000
0100
0010
0001
0010
0002
,
2000
3003
0011
1100
,
1010
0101
0110
1100
,
0101
0000
0220
0000
M000
000M
000M
M000
,
000M
0000
0000
M000
000M
000M
000M
M000
,
0000
M000
000M
M000
000M
0000
0000
000M
,
0000
M000
M000
M000
M000
000M
000M
0000
,
0000
M00M
M000
0000
M000
0000
000M
000M
,
M000
000M
0000
0000
M000
000M
M000
000M
,
M000
0000
000M
0000
000M
0000
000M
0000
000M
0000
M00M
0000
M00M
M000
M000
M000
,
0000
M00M
M00M
M00M
000M
0000
0000
0000
0000
0000
0000
0000
M000
0000
000M
0000
,
000M
000M
0000
M000
0000
000M
M000
000M
,
0000
0000
M000
0000
0000
M000
0000
M000
,
000M
0000
000M
M000
000M
0000
0000
M000
,
000M
0000
000M
000M
M000
0000
000M
0000
,
M000
000M
M000
0000
000M
M000
0000
M000
,
M000
000M
0000
000M
000M
M000
000M
M000
,
000M
0000
M000
000M
M000
0000
M000
M000
,
000M
000M
000M
0000
M000
000M
M000
000M
,
000M
000M
M000
M000
000M
000M
M000
000M
,
M33M
0000
1000
0010
0000
0010
0100
0001
,
0000
0001
1000
0010
0000
0010
0100
0001
,
0000
0001
2000
0000
0200
0000
0020
0000
,
0000
0000
0002
0000
0000
0000
0000
3333
,
0000
0020
0200
0002
,
0000
0000
2000
0000
0000
0000
0000
3333
,
0000
0002
0200
0020
,
0000
0000
2000
0000
0000
0000
0000
3333
,
0000
0000
0000
1110
,
0000
0000
0000
0000
,
1000
0100
1000
0100
0010
0100
0010
0001
0001
0000
1000
0000
0001
0000
0000
0000
,
0001
0100
0001
0000
1001
0000
1000
0000
,
1000
0000
0110
0000
1000
0001
1000
0000
,
1000
0010
1000
0000
0110
0000
0011
0000
,
0110
2002
0110
0000
,
0000
0000
0110
0000
,
0000
0000
0000
0000
3003
0000
0200
0320
,
0030
0000
0000
0000
0000
0000
0200
0000
0000
0000
0000
0000
0000
0000
0000
0000
0000
0000
0000
0000
0000
0000
0000
0000
0300
0000
0000
0000
0000
0000
0000
0000
0020
0000
0000
0000
0000
0000
0000
0000
0000
0000
0000
0000
0000
0000
0000
0000
0030
0000
0000
0000
0000
0000
0000
0000
0000
0000
0000
0000
0200
0000
0000
0000
0000
0000
0000
0000
0000
0000
0000
0000
0300
0000
0000
0000
0000
0000
0000
0000
0020
0000
0000
0000
0000
0000
0000
0000
0000
0000
0000
0000
0000
0000
0000
0000
0030
0000
0000
0000
0000
0000
0000
0000
0000
0000
0000
0000
0000
0000
0000
0000
0000
0000
0000
0000
0000
0000
0000
0000
0000
0000
0000
0000
0000
0000
0000
0000
0000
0000
0000
0000
0000
0000
0000
0000
0000
0000
0000
0000
0000
0000
0000
0000
2220
0000
0000
0000
0000
0000
0000
0000
0000
0000
0000
0000
0000
0000
0000
0000
0000
0000
0000
0000
0000
0000
0000
0000
3330
0000
0000
0000
0000
0000
0000
0000
0000
0000
0000
0000
0000
0000
0000
0000
0000
0000
0000
0000
0000
0000
0000
0000
,
2002
0000
0000
0000
0000
0000
0000
3003
,
0110
0110
0110
1001
,
0001
1000
0001
1000
0001
1000
0001
1000
,
0001
1000
0001
0100
0010
0001
0010
0001
,
1100
0101
1010
0110
,
0011
0101
1010
0110
,
2002
0000
0110
0000
0110
0000
0110
3003
,
2000
3200
2300
3020
0230
0302
0023
0230
,
0302
2003
3020
0230
0320
2030
3200
0300
,
0100
0001
0010
0001
,
0100
0000
0001
0000
0010
0000
0100
0000
1000
0100
1000
0000
0010
0100
0010
0000
,
2000
0200
0000
0000
0000
0000
0000
0000
,
0000
0000
33M1
0000
;

//---------------dance-single - ----------------
#NOTES:
     dance-single:
     :
     Challenge:
     10:
     0.908,1.000,0.899,1.000,0.463,458.000,96.000,118.000,198.000,13.000:
200M
320M
230M
320M
,
230M
000M
320M
000M
,
0000
0302
0000
0003
,
0020
0000
0000
0000
,
0200
0000
0000
0330
,
1001
0100
0010
0100
,
0001
0010
0100
0010
,
0100
1001
0100
0010
,
0100
1001
0100
0010
,
1000
0100
0010
1000
0100
0010
0001
0000
,
0010
0001
0010
0220
,
1000
0000
1000
0330
,
M001
0000
M001
0000
,
M11M
0000
1MM1
0000
,
MM11
0000
MM11
0M00
,
10M0
0100
001M
0001
0010
0001
0010
0002
,
0100
0000
0103
0000
,
0001
0010
0100
1000
,
0100
0000
1000
0000
0200
0000
0320
0030
,
1001
1000
0001
0000
,
0110
0100
1000
0000
,
0110
0001
0100
0000
,
0110
0001
0100
0000
,
0110
2222
0000
0000
0000
0000
0000
3333
,
0110
0001
0010
0001
,
0100
0010
2000
3100
,
1000
0010
0002
0103
,
0010
0100
1000
0001
,
0020
0230
0300
0101
,
2000
3000
0001
0100
,
0010
1010
0002
2103
,
3000
0001
0010
0001
,
0200
0310
0010
1000
,
0100
2002
0100
0000
,
3013
0100
0010
0001
0010
0000
0010
0000
,
0010
0010
0010
0010
,
1010
1010
1010
1010
,
1010
0000
1010
0000
2020
0000
0000
3030
,
0200
0302
2003
3020
,
0230
0302
0023
0230
,
0320
2030
3200
0320
,
0230
0302
0023
0230
,
0302
0000
0000
0003
2200
0000
0000
3300
,
2020
0000
0000
3030
0202
0000
0000
0303
,
0022
0000
0000
0033
0202
0000
0000
0303
,
2020
0000
0000
3030
2200
0000
0000
3300
,
0220
0000
0000
0330
2002
0000
0000
3003
,
0022
0000
0000
0033
0220
0000
0000
0000
,
0000
0000
0000
0330
0001
1000
0001
1000
,
0001
1000
0001
2000
0002
3000
0103
0000
,
0110
1100
0101
0110
,
0010
0000
0000
1010
0000
0000
M000
0M00
00M0
000M
00M0
0M00
,
M000
0000
0M00
0000
00M0
0000
000M
0000
00M0
0000
0M00
0000
M002
0000
0M00
0010
M000
0000
0003
0000
0000
0010
0000
0000
,
0200
0010
0300
0010
2000
0010
3000
0010
,
0002
0010
0003
0010
0020
0100
0030
0100
,
0200
0000
0300
0000
1000
0100
0010
0001
,
0010
0100
1000
0100
0010
0001
0010
0100
,
1000
0100
0010
0001
2000
0100
3000
0100
,
0020
0100
0030
0100
0200
0010
0300
0010
,
0002
0010
0003
0010
2000
0010
3000
0010
,
0200
0000
0300
0000
1000
0100
0010
0001
,
0010
0100
1000
0100
0010
0001
0010
0100
,
1000
0100
0010
0001
1100
0000
0110
0000
,
0011
1001
0110
0011
,
1010
0000
0000
0000
0000
0000
0000
0000
0000
0000
0000
0000
0110
0000
0000
0000
0000
0000
0000
0000
0000
0000
0000
0000
0010
0000
0000
0001
0000
0000
0010
0000
0000
0100
0000
0000
M020
0000
0000
0000
M000
0000
0000
0000
M000
0000
0000
0000
,
M000
0000
0000
0000
M000
0000
0030
0000
0000
0000
0000
0000
0000
0000
0000
0000
0000
0000
0000
0000
0000
0000
0000
0000
0100
0000
0000
0010
0000
0000
0100
0000
0000
1000
0000
0000
020M
0000
0000
0000
000M
0000
0000
0000
000M
0000
0000
0000
,
000M
0000
0000
0000
000M
0000
0300
0000
0000
0000
0000
0000
0000
0000
0000
0000
0000
0000
0000
0000
0000
0000
0000
0000
0100
0000
0000
0001
0000
0000
0010
0000
0000
0100
0000
0000
20M0
0000
0000
0000
00M0
0000
0000
0000
00M0
0000
0000
0000
,
00M0
0000
0000
0000
00M0
0000
3000
0000
0000
0000
0000
0000
0000
0000
0000
0000
0000
0000
0000
0000
0000
0000
0000
0000
0001
0000
0000
1000
0000
0000
0100
0000
0000
0010
0000
0000
M002
0000
0000
0000
M000
0000
0000
0000
M000
0000
0000
0000
,
M000
0000
M000
0003
0000
0000
0000
0000
0000
0000
0000
0000
1000
0000
0000
0020
0000
0000
0130
0000
0000
0020
0000
0000
,
0031
0020
0130
0020
0130
2000
3100
0020
,
0130
2000
3100
0020
1031
0000
1000
0000
,
1000
0000
0000
0000
0001
0000
0000
0000
1000
0100
0010
0001
0010
0100
1000
0100
,
0010
0001
0010
0100
1000
0100
0010
0001
M020
0000
0000
0000
0M00
0000
0000
0000
,
M000
0M00
M000
000M
,
M200
000M
M000
M000
,
M000
0000
M000
M000
000M
0000
000M
000M
,
000M
M000
000M
0000
000M
M000
M000
M000
,
000M
M000
000M
0000
000M
0000
000M
0000
,
M000
0000
000M
M000
000M
M000
0000
000M
,
0000
000M
M000
000M
M000
M000
M000
M000
,
000M
000M
M000
0000
000M
M000
000M
0000
,
000M
000M
000M
0000
M000
000M
M000
000M
,
M000
0000
0000
M000
0000
0000
M000
0000
0000
000M
0000
0000
M000
0000
0000
000M
0000
0000
000M
M000
000M
M000
000M
M000
,
000M
0000
0000
0000
000M
0000
M000
0000
0000
0000
0000
0000
0000
0000
0000
M000
0000
0000
0000
0000
0000
M000
0000
0000
0000
0000
0000
000M
0000
0000
0000
0000
0000
000M
0000
0000
M000
0000
0000
000M
0000
0000
0000
0000
0000
M000
0000
0000
,
0000
0000
000M
M000
M000
M000
000M
M000
,
0000
000M
000M
000M
M000
000M
M000
0000
,
M000
000M
M000
000M
M000
0000
M000
000M
,
000M
M000
000M
M000
000M
M000
0000
M000
,
M000
M000
M00M
M00M
M00M
M00M
M00M
M00M
,
M33M
0000
0000
0000
1000
0000
0010
0000
1000
0000
0010
0000
0100
0000
0001
0010
,
0100
0010
0100
1000
0001
0000
0010
0000
0100
0000
0010
0000
0001
0000
0020
0000
,
0000
1031
M00M
0110
,
0MM0
0101
0M0M
1010
,
M0M0
1100
MM00
0MM0
,
0101
0M0M
1010
M0M0
,
0110
0MM0
0011
00MM
,
1001
M00M
0110
0MM0
,
2000
3200
0320
0230
,
0320
0000
0032
0000
0000
0000
0000
0003
,
1000
0000
0000
0000
0000
0000
0000
0000
0100
0000
0000
0000
0010
0000
0000
0000
0000
0000
0000
0000
0002
0000
0000
0003
1010
0000
0000
0000
0000
0000
0000
0000
0000
0000
0000
0000
0110
0000
0000
0000
0000
0000
0000
0000
0000
0000
0000
0000
,
1100
0011
0110
0101
,
1010
0110
0011
0110
,
1001
0110
0011
0110
,
1001
1100
0110
1010
,
0202
0000
0000
0000
0000
0000
0000
0000
0000
0000
0000
0000
0000
0000
0000
0000
0000
0000
0000
0000
0000
0000
0000
0000
0000
0000
0000
0000
0000
0000
0000
0000
0000
0000
0000
0000
0000
0000
0000
0000
0000
0000
0000
0000
0000
0000
0000
0000
0303
0000
0000
0000
0000
0000
0000
0000
0000
0000
0000
0000
0000
0000
0000
0000
0000
0000
0000
0000
0000
0000
0000
0000
0000
0000
0000
0000
0000
0000
0000
0000
0000
0000
0000
0000
0000
0000
0000
0000
0000
0000
0000
0000
0000
0000
0000
0000
0110
0000
0000
0000
0000
0000
0000
0000
0000
0000
0000
0000
0000
0000
0000
0000
0011
0000
0000
0000
0000
0000
0000
0000
0000
0000
0000
0000
0000
0000
0000
0000
2200
0000
0000
0000
0000
0000
0000
0000
0000
0000
0000
0000
0000
0000
0000
0000
3300
0000
0000
0000
0000
0000
0000
0000
0010
0000
0000
0000
0000
0000
0000
0000
0001
0000
0000
0000
0000
0000
0000
0000
0000
0000
0000
0000
0000
0000
0200
0000
0000
0000
0000
0000
0000
0000
0000
0000
0000
0000
0000
0000
0000
0000
0000
0000
,
0000
0000
0000
0000
0000
0000
0000
0000
0000
0000
0000
0000
0000
0000
0000
0000
0000
0000
0000
0000
0000
0000
0000
0000
0000
0000
0000
0000
0000
0000
0000
0000
0000
0000
0000
0000
0000
0000
0000
0000
0000
0000
0000
0000
0000
0000
0000
0000
0000
0000
0000
0000
0000
0000
0000
0000
0000
0000
0000
0000
0000
0000
0000
0000
0000
0000
0000
0000
0000
0000
0000
0000
0000
0000
0000
0000
0000
0000
0000
0000
0000
0000
0000
0000
0000
0000
0000
0000
0000
0000
0000
0000
0000
0000
0000
0000
0000
0000
0000
0000
0000
0000
0000
0000
0000
0000
0000
0000
0000
0000
0000
0000
0000
0000
0000
0000
0000
0000
0000
0000
0000
0000
0000
0000
0000
0000
0300
0000
0000
0000
0000
0000
0000
0000
0000
0000
0000
0000
0000
0000
0000
0000
0000
0000
0010
0000
0000
0000
0000
0000
0000
0000
0000
0000
0000
0000
0000
0000
0000
0000
0001
0000
0000
0000
0000
0000
0000
0000
0000
0000
0000
0000
0000
0000
0000
0000
0010
0000
0000
0000
0000
0000
0000
0000
0000
0000
0000
0000
0000
0000
0000
0000
,
0100
0000
0010
0000
0001
0000
0010
0000
0100
0000
0010
0000
0100
0000
1000
0000
0100
0000
0020
0000
0000
0000
0000
0030
,
1000
0110
0002
0000
,
0013
0110
2000
0000
,
3010
0001
0010
0100
0010
0001
0010
0100
0010
0100
1000
0100
,
1000
0100
0010
0100
0010
0001
0010
0100
0010
0001
0010
0000
,
0000
0000
0100
0000
,
0000
0100
0000
0000
,
0100
0110
1110
1111
,
1000
0100
0010
0001
0010
0100
1000
0100
0010
0001
0010
0100
1000
0100
0010
0001
,
0010
0100
1000
0100
0010
0001
0010
0100
1000
0100
0010
0001
0010
0100
0020
0030
,
1000
1100
1010
1001
,
0001
0011
0101
1001
,
2000
0200
0020
0002
0000
0000
0000
0000
0000
0000
0000
0000
0000
0000
0000
0000
,
0000
3333
1111
0000
;
