#TITLE:Inuyasha;
#SUBTITLE:- My Will;
#ARTIST:Dreams;
#TITLETRANSLIT:;
#SUBTITLETRANSLIT:;
#ARTISTTRANSLIT:;
#CREDIT:Anime Toshokan;
#BANNER:Inuyasha - My Will.png;
#BACKGROUND:Inuyasha - My Will bg.png;
#LYRICSPATH:;
#CDTITLE:dejiko.png;
#MUSIC:Inuyasha - My Will.mp3;
#OFFSET:-0.034;
#SAMPLESTART:53.080;
#SAMPLELENGTH:15.100;
#SELECTABLE:YES;
#BPMS:0.000=126.520;
#STOPS:;
#BGCHANGES:;
// cache tags:
#FIRSTBEAT:16.000;
#LASTBEAT:196.000;
#SONGFILENAME:Songs/DDR Anime 4th Mix/Inuyasha - My Will/Inuyasha - My Will.sm;
#HASMUSIC:1;
#HASBANNER:1;
#MUSICLENGTH:94.780;
// end cache tags

//---------------dance-single - BASIC----------------
#NOTES:
     dance-single:
     BASIC:
     Easy:
     3:
     0.216,0.233,0.000,0.042,0.000,139.000,0.000,4.000,0.000,0.000:
0000
0000
0000
0000
,
0000
0000
0000
0000
,
0000
0000
0000
0000
,
0000
0000
0000
0000
,
1000
0001
0100
0010
,
0001
0000
0010
0000
,
0100
1000
0010
0001
,
0010
0100
1000
0001
,
0100
0010
0000
0100
,
1000
0010
0001
0000
,
0010
1000
0010
1000
,
0100
0000
0000
0000
,
0001
0000
0010
1000
,
0010
0100
0010
0100
,
0020
0030
1000
0001
,
0010
0100
0000
1000
,
0001
0100
0010
0000
,
1000
0001
0010
0100
,
0020
0000
0000
0030
,
1000
0001
0020
0000
,
0030
1000
0001
0100
,
0010
1000
0010
1000
,
0010
0000
0100
0001
,
0010
0100
0010
0000
,
1000
0001
1000
0000
,
0010
0100
1000
0000
,
0010
0100
0010
0000
,
0001
1000
0001
0000
,
0100
1000
0010
1000
,
0010
0001
0010
0001
,
0010
0001
0100
0001
,
0100
0001
1000
0000
,
1000
0001
1000
0000
,
0010
0100
0010
0000
,
0001
0010
0001
0010
,
0001
0100
0001
0000
,
1000
0100
1000
0010
,
0100
0010
0100
0001
,
1000
0000
0000
1000
,
0010
1000
0000
0000
,
0001
0010
0100
0010
,
0200
0000
0310
0000
,
1000
0001
0010
0100
,
1000
0000
0001
0000
,
0010
0000
0100
0000
,
1000
0000
0001
0000
,
0010
0000
0100
0000
,
1000
0000
0001
0000
,
0100
1000
0001
1000
,
0001
0000
0000
0000
;

//---------------dance-single - ANOTHER----------------
#NOTES:
     dance-single:
     ANOTHER:
     Medium:
     5:
     0.321,0.336,0.032,0.042,0.000,206.000,3.000,4.000,0.000,0.000:
0000
0000
0000
0000
,
0000
0000
0000
0000
,
0000
0000
0000
0000
,
0000
0000
0000
0000
,
1000
0100
1000
0100
1000
0000
0010
0000
,
1000
0000
0010
0100
0000
0000
0001
0000
,
1000
0010
0100
0010
,
1000
0001
1010
0101
,
0010
1000
0010
0100
0000
0001
0000
0010
,
0000
0000
0010
1000
0000
0000
0010
1000
,
0010
0000
0100
0010
0000
0010
1000
0001
,
0010
1100
0010
1000
,
0001
0010
0100
1000
,
0010
0000
0001
0000
0010
0000
0100
1000
,
0100
0000
0010
1000
0010
0000
1000
0000
,
0001
0010
0100
0000
0010
0000
1000
0000
,
0010
0100
0000
0010
0000
1000
0010
0200
,
0000
0301
0000
1000
0000
0010
0100
0010
,
1000
0001
0001
1000
,
1000
0001
0001
1000
,
1000
0000
0010
0000
0100
0010
1000
0001
,
0000
0100
0000
0010
0000
1000
0010
0100
,
0002
0000
0000
0000
0013
0000
0100
0010
,
1000
0000
0010
0100
0000
0010
0100
0010
,
0000
1000
0000
0001
0000
0010
0100
1000
,
0000
0001
0000
0010
0000
0100
0010
1000
,
0001
0000
0000
0010
1000
0000
0000
0002
,
1000
0000
0000
1003
0010
0000
0000
0000
,
0010
1000
0001
0010
,
0100
0010
1000
0001
,
0010
0100
1000
0010
,
0100
0010
1000
0001
,
0010
1000
0001
0000
0000
0000
0010
1000
,
0000
0000
0010
0100
0000
0000
0000
0001
,
0010
0000
0100
1000
0000
0010
0100
0001
,
1000
0000
0000
0010
0100
0000
0000
0000
,
0010
1000
0001
1000
,
0100
0010
1000
0001
,
1000
0010
0100
0010
,
1000
0001
0010
1000
,
0010
0000
1000
0001
0000
0010
1000
0010
,
0100
0000
0000
0010
1000
0000
0000
0001
,
0010
0000
0100
1000
0000
0010
0100
0001
,
1000
0000
0000
0010
0100
0000
0000
0000
,
0010
1000
0001
0010
0000
0100
0010
0000
,
0000
1000
0010
0000
0000
0000
0020
0000
,
1030
0001
0010
0100
0000
1000
0010
0000
,
0000
0100
0010
0000
0001
0000
1000
0000
,
0001
1000
0010
0100
,
0010
0000
0000
0000
;

//---------------dance-single - MANIAC----------------
#NOTES:
     dance-single:
     MANIAC:
     Hard:
     7:
     0.440,0.439,0.053,0.169,0.000,271.000,5.000,16.000,0.000,0.000:
0000
0000
0000
0000
,
0000
0000
0000
0000
,
0000
0000
0000
0000
,
0000
0000
0000
0000
,
1000
0100
0010
0001
0000
0001
1000
0100
,
0001
0000
0100
1000
0000
0100
0010
0001
,
1000
0100
1000
0001
0100
0001
0010
0001
,
1000
0100
1000
0001
0011
0000
1010
0000
,
1000
0100
0001
0100
1000
0010
1000
0100
,
0001
0100
1000
0100
0010
0001
0100
0000
,
0010
0100
0010
0100
0001
0010
0100
0010
,
1002
0000
0000
1003
,
0010
0010
0000
0000
1000
0100
0010
0001
,
0010
0001
1000
0010
0001
0010
1000
0100
,
1010
0000
0000
0000
1000
0010
0100
0001
,
0000
0000
0200
0000
0020
0000
0000
0330
0000
0000
0100
0000
0010
0000
1000
0000
,
0000
0001
0000
0010
0000
0100
0010
1000
,
0000
0001
0000
0200
0300
0010
1000
0010
,
0200
0000
0000
0300
0010
0000
0000
0000
0100
0000
0000
0000
0010
0000
0100
0000
,
0010
0000
0000
0000
2000
0000
0000
3000
0002
0000
0000
0000
1003
0000
0000
0000
,
0200
0000
0000
0000
0310
1000
0001
0010
,
0000
0100
0000
0010
0000
0010
1000
0001
,
0010
0000
0000
0000
0200
1000
0000
1300
,
0010
0000
0001
0010
0100
1000
0001
0010
,
0000
2000
0000
3020
0000
0130
0010
2000
,
0000
3000
0001
0000
0000
0000
0100
0000
0000
0000
0010
0000
1000
0000
0010
0000
,
0100
0000
0000
0010
0100
0000
0000
0010
,
1000
0000
0000
0001
1000
0000
0000
0000
,
0010
1000
0001
0010
0100
1000
0010
0100
,
0010
1000
0100
0010
0001
0100
0010
1000
,
0100
0010
0001
0100
0010
1000
0010
0100
,
0001
0010
0100
1000
0010
0100
0001
1000
,
0010
0100
0010
0000
0000
0000
0010
1000
,
0000
0000
0001
0010
0000
0000
0000
0000
,
0010
1000
0001
0010
0100
1000
0010
0100
,
0001
0000
0000
0010
0100
0000
0000
0000
,
0010
1000
0001
0100
0010
0010
0001
0010
,
0100
1000
0010
0100
0001
0010
0100
0010
,
0001
0100
0010
1000
0100
0010
0001
0100
,
0010
1000
0100
0010
0001
0200
0010
0300
,
1000
0000
0000
0000
0010
0000
0200
0000
0000
0300
0001
0000
0100
0000
0010
0000
,
1000
0000
0000
0010
0100
0000
0000
0000
,
0001
1000
0010
0100
0001
0010
0100
1000
,
0012
0000
0000
0013
0200
0000
0000
0000
,
0301
1000
0010
0100
0001
0010
0100
1000
,
0010
0100
0010
0100
0010
1000
0100
0010
,
0001
0100
0010
0010
0100
0100
0010
0100
,
0001
0010
0100
1000
0010
0100
0001
0010
,
0100
0010
1000
0001
,
0010
0000
0000
0000
;

//---------------dance-single - BEGINNER----------------
#NOTES:
     dance-single:
     BEGINNER:
     Beginner:
     1:
     0.136,0.129,0.000,0.021,0.000,88.000,0.000,2.000,0.000,0.000:
0000
0000
0000
0000
,
0000
0000
0000
0000
,
0000
0000
0000
0000
,
0000
0000
0000
0000
,
1000
0000
0100
0000
,
0001
0000
0010
0000
,
0100
0000
0010
0000
,
0010
0000
1000
0000
,
0100
0000
0000
0100
,
1000
0000
0001
0000
,
0010
0000
0010
0000
,
0100
0000
0000
0000
,
0001
0000
0010
0000
,
0010
0000
0010
0000
,
0010
0000
1000
0000
,
0010
0000
0000
1000
,
0001
0000
0010
0000
,
1000
0000
0010
0000
,
0020
0000
0000
0030
,
1000
0000
0020
0000
,
0030
1000
0001
0000
,
0010
0000
0010
0000
,
0010
0000
0100
0000
,
0010
0000
0010
0000
,
1000
0000
1000
0000
,
0010
0000
1000
0000
,
0010
0000
0010
0000
,
0001
0000
0001
0000
,
0100
0000
0010
0000
,
0010
0000
0010
0000
,
0010
0000
0100
0000
,
0100
0000
1000
0000
,
1000
0000
1000
0000
,
0010
0000
0010
0000
,
0001
0000
0001
0000
,
0001
0000
0001
0000
,
1000
0000
1000
0000
,
0100
0000
0100
0000
,
1000
0000
0000
1000
,
0010
0000
0000
0000
,
0001
0000
0100
0000
,
0100
0000
0010
0000
,
1000
0000
0010
0000
,
1000
0000
0001
0000
,
0010
0000
0100
0000
,
1000
0000
0001
0000
,
0010
0000
0100
0000
,
1000
0000
0001
0000
,
0100
0000
0001
0000
,
0001
0000
0000
0000
;
