#TITLE:Kanon;
#SUBTITLE:- Last Regrets [Xmas Dance Mix];
#ARTIST:Key;
#TITLETRANSLIT:;
#SUBTITLETRANSLIT:;
#ARTISTTRANSLIT:;
#CREDIT:Anime Toshokan;
#BANNER:Kanon - Last Regrets [Xmas Dance Mix].png;
#BACKGROUND:Kanon - Last Regrets [Xmas Dance Mix] bg.png;
#LYRICSPATH:;
#CDTITLE:dejiko.png;
#MUSIC:Kanon - Last Regrets [Xmas Dance Mix].mp3;
#OFFSET:1.728;
#SAMPLESTART:92.310;
#SAMPLELENGTH:15.300;
#SELECTABLE:YES;
#DISPLAYBPM:125.000;
#BPMS:0.000=125.000,164.000=122.080,168.000=125.000;
#STOPS:;
#BGCHANGES:31.000=Kanon - Last Regrets [Xmas Dance Mix].avi=1.000=0=0=1,
283.750=Kanon - Last Regrets [Xmas Dance Mix] bg.png=1.000=0=0=1,
99999=-nosongbg-=1.000=0=0=0 // don't automatically add -songbackground-
;
// cache tags:
#FIRSTBEAT:14.750;
#LASTBEAT:291.000;
#SONGFILENAME:Songs/DDR Anime 2nd Mix/Kanon - Last Regrets [Xmas Dance Mix]/Kanon - Last Regrets [Xmas Dance Mix].sm;
#HASMUSIC:1;
#HASBANNER:1;
#MUSICLENGTH:148.819;
// end cache tags

//---------------dance-single - BASIC----------------
#NOTES:
     dance-single:
     BASIC:
     Easy:
     3:
     0.195,0.220,0.000,0.155,0.003,180.000,0.000,23.000,0.000,0.000:
0000
0000
0000
0000
,
0000
0000
0000
0000
,
0000
0000
0000
0000
,
0000
0000
0000
0000
0000
0000
0000
0000
0000
0000
0000
0020
0000
0000
0000
0000
,
0000
0000
0000
0000
,
0000
0000
0000
0000
,
0000
0000
0000
0000
,
0000
0000
0000
0030
,
2000
0000
0000
0000
,
0000
0000
0000
3000
,
0002
0000
0000
0000
,
0000
0000
0000
0003
,
2000
0000
0000
0000
,
0000
0000
0000
3000
,
0002
0000
0000
0003
,
2000
0000
0000
3000
,
1000
0100
0001
0010
,
0001
0000
0100
0010
,
1000
0001
0100
0010
,
0000
1000
0100
0010
,
1000
0100
0001
0000
,
0001
0100
1000
0010
,
1000
0100
0002
0000
,
0000
0000
0000
0000
,
0003
1000
0100
0010
,
1000
0100
0001
1000
,
0100
0010
0001
1000
,
0001
0100
0010
0001
,
0100
0100
0010
0010
,
0001
0001
1000
1000
,
0010
0001
0100
1000
,
0001
1000
0010
1000
,
0010
0001
0010
0001
,
0100
1000
0100
0001
,
0100
1000
0100
1000
,
0010
0001
0100
1000
,
0010
0001
0100
1000
,
0010
0001
0100
1000
,
0010
0001
0100
0010
,
1000
0001
1000
0200
,
0300
0020
0000
0000
,
0030
0002
0003
2000
,
3000
0200
0300
2000
,
3000
0002
0000
0000
,
0000
0003
0000
1000
,
0000
0001
0000
0010
,
0000
0100
0000
1000
,
0000
1000
0000
0001
,
0000
0001
0100
0010
,
1000
0100
0010
0001
,
1000
0001
0100
1000
,
0010
0001
0100
1000
,
0100
0001
0100
1000
,
0010
0001
0010
1000
,
0100
1000
0001
0010
,
0100
0010
0001
1000
,
1000
1000
0001
0001
,
0001
0010
0010
0010
,
0100
0100
0100
0100
,
0020
0000
0000
0030
,
1000
1000
0001
0001
,
0200
0000
0000
0300
,
0020
0000
0000
0030
,
0100
0010
1000
0001
,
0200
0000
0000
0300
,
0010
0001
1000
0001
,
0020
0000
0000
0030
,
0001
0001
1000
1000
,
0001
1000
0001
1000
,
2000
0000
0000
3000
,
0002
0000
0000
0003
,
2000
0000
0000
3000
,
0001
2000
0000
3001
;

//---------------dance-single - ANOTHER----------------
#NOTES:
     dance-single:
     ANOTHER:
     Medium:
     5:
     0.276,0.318,0.067,0.134,0.003,257.000,10.000,20.000,0.000,0.000:
0000
0000
0000
0000
,
0000
0000
0000
0000
,
0000
0000
0000
0000
,
0000
0000
0000
0000
0000
0000
0000
0000
0000
0000
0000
0020
0000
0000
0000
0000
,
0000
0000
0000
0000
,
0000
0000
0000
0000
,
0000
0000
0000
0000
,
0000
0000
0000
0030
,
1000
1000
1000
1000
,
0001
0001
0001
0001
,
1000
1000
1000
1000
,
0001
0001
0001
0001
,
1000
1000
1000
1000
,
0001
0001
0001
0001
,
1000
0001
1000
0001
,
1000
0001
1000
0001
,
2000
0000
0100
0000
0000
0001
3001
0000
,
1000
0001
0100
0010
,
0002
0000
0100
0000
0000
1000
1003
0000
,
0100
0010
1000
0001
,
2000
0000
0100
0000
0000
0001
3001
0000
,
0001
0100
1000
0010
,
0002
0000
0010
0000
0000
1000
1003
0000
,
2000
0000
0100
0000
0000
0001
3001
0000
,
0010
0100
1000
0001
,
0010
0000
0001
0001
0000
0000
0010
0000
,
0001
0000
1000
0000
0001
0000
0100
0100
,
0000
0001
1000
0100
,
0010
0000
0100
0100
0000
0000
0010
0000
,
0100
0000
0100
0000
0010
0000
0001
0001
,
0000
0100
0100
1000
,
1000
0000
0001
0001
0000
0000
0010
0000
,
0010
0000
0001
0000
0001
0000
1000
1000
,
0000
1000
1000
0010
,
0001
0001
0100
1000
,
0001
0010
1000
0001
,
1000
0100
0010
0001
,
1000
0100
0010
0001
,
0001
1000
1000
0100
,
0100
0000
0010
0000
1000
0000
0001
0001
,
0001
0020
0001
0001
,
0031
0020
0030
0002
,
0003
0200
0300
2000
,
3000
0020
0000
0000
,
0000
0030
0000
1001
,
0000
0110
0000
1010
,
0000
0011
0000
1100
,
0000
0101
0000
0110
,
0000
1001
1000
1000
,
0001
1000
0001
0000
0010
0000
0100
0000
,
0001
1000
0001
0000
0100
0000
0010
0000
,
1000
0001
1000
0000
1000
0000
0100
0000
,
1000
0100
1000
0000
0010
0000
0001
0000
,
0010
0001
0010
0000
1000
0000
0010
0000
,
1000
0010
1000
0000
0001
0000
0100
0000
,
0001
0100
0001
0000
0001
0000
1000
0000
,
0001
0001
0001
0000
1000
0000
0001
0000
,
1000
1000
1000
0000
0100
0000
0100
0000
,
0100
0100
0100
0000
1001
0000
1001
0000
,
0002
0000
1000
0000
0000
0100
0103
0000
,
0001
1000
0100
0010
,
2000
0000
0001
0000
0000
0100
3100
0000
,
2000
0000
0100
0000
0000
0001
3001
0000
,
0001
1000
0001
1000
,
0002
0000
0100
0000
0000
1000
1003
0000
,
0100
0100
0010
0010
,
0002
0000
0100
0000
0000
1000
1003
0000
,
0010
0010
0100
0100
,
1000
1000
0001
0001
,
2000
0000
0010
0000
0000
0001
3001
0000
,
0002
0000
0010
0000
0000
1000
1003
0000
,
0020
0000
0100
0000
0000
0100
0130
0000
,
1000
0000
0001
0000
0100
0100
0100
0000
;

//---------------dance-single - MANIAC----------------
#NOTES:
     dance-single:
     MANIAC:
     Hard:
     8:
     0.439,0.538,0.323,0.101,0.050,394.000,48.000,15.000,0.000,0.000:
0000
0000
0000
0000
,
0000
0000
0000
0000
,
0000
0000
0000
0000
,
0000
0000
0000
0000
0000
0000
0000
0000
0000
0000
0000
0020
0000
0000
0000
0000
,
0000
0000
0000
0000
,
0000
0000
0000
0000
0000
0000
0000
0000
0000
0000
0000
0000
0000
0200
0000
0000
0000
0000
0000
0000
0000
0000
0000
0000
0000
0000
0000
0000
0000
0000
0000
0000
,
0000
0000
0000
0000
,
0000
0000
0000
0330
,
0001
0001
0001
1000
,
1000
0000
1000
0000
0001
0001
0001
0000
,
1000
1000
1000
0001
,
0001
0000
0001
0000
1000
1000
1000
0000
,
0001
1000
1000
0001
,
0100
0000
1000
0000
0100
1000
0001
0000
,
1000
1000
0001
0000
0001
0001
1000
0000
,
0010
0010
0100
0000
0100
0100
0010
0000
,
1000
0000
0000
0001
0000
0000
1000
0000
0010
0000
0100
0000
0100
0000
0000
0000
,
0001
0000
1000
0000
0010
0100
0010
0000
,
0001
0000
0000
1000
0000
0000
0001
0000
0100
0000
0010
0000
0010
0000
0000
0000
,
0001
0000
1000
0000
0010
0100
0010
0000
,
0001
0000
0000
0101
0000
0000
1000
0000
1100
0000
0010
0000
0001
0000
0000
0000
,
1000
0000
0100
0000
0010
0001
0100
0000
,
1000
0000
0000
1000
0000
0000
0001
0000
0001
0000
1000
0000
0010
0000
0000
0000
,
0001
0000
0000
1000
0000
0000
0001
0000
0100
0000
0010
0000
0010
0000
0000
0000
,
1000
0100
1000
0010
1000
0001
1000
0000
,
0001
0010
0001
0100
0001
1000
0001
0000
,
0100
0010
1000
0001
0100
0010
0100
0000
,
0001
0010
0100
1000
0010
0100
0001
0000
,
0010
1000
0001
0100
0010
0001
0100
0000
,
1000
0100
0010
0001
0100
1000
0001
0000
,
1000
0100
0001
0100
1000
0100
0001
0000
,
0001
0100
1000
0100
0001
0100
1000
0000
,
0010
0001
0100
1000
0010
0001
0100
0000
,
0001
1000
0100
0001
1000
0100
0001
0000
,
1000
0001
1000
0001
0100
0010
0100
0000
,
0010
0100
0010
0100
0001
1000
0001
0000
,
1000
1100
0001
0101
0001
0011
1100
0000
,
0001
1000
0100
0010
0001
0100
0010
0000
,
0001
0100
0010
0001
0100
1000
0100
0000
,
1000
0010
0001
0010
1000
0010
0001
0000
,
0120
1000
0001
1000
,
0130
0202
0303
2020
,
3030
0022
0033
2200
,
3300
0220
0330
1002
,
2003
0000
3001
0000
0010
0001
0011
0000
,
1000
0100
1100
0000
1000
0010
1010
0000
,
0001
0100
0101
0000
1000
0001
1001
0000
,
0010
0100
0110
0000
0001
1000
1001
0000
,
1000
0001
1001
0000
1100
0000
0101
0000
,
1000
0100
0010
0001
0010
0001
0100
1000
,
0100
0001
0010
1000
0010
0100
0001
0100
,
0010
0001
1000
0010
1000
0100
0010
0001
,
0100
0010
1000
0010
1000
0100
0001
0100
,
0010
0001
0100
0001
0100
0001
0100
0010
,
0100
0010
1000
0010
0100
0001
0100
0010
,
1000
0010
1000
0100
0010
0001
0010
0001
,
0100
1000
0100
0001
0010
1000
0010
0100
,
0001
0100
0010
0001
1000
0010
1000
0100
,
0010
0001
1000
0100
0010
0001
1000
0000
,
0001
0000
0000
1000
0000
0000
0001
0000
0100
0000
0010
0000
0010
0000
0000
0000
,
0001
0000
1000
0000
0010
0100
0010
0000
,
0001
0000
0000
1000
0000
0000
0001
0000
0100
0000
0010
0000
0010
0000
0000
0000
,
1000
0000
0000
0001
0000
0000
1000
0000
0010
0000
0100
0000
0100
0000
0000
0000
,
0001
0000
1000
0000
0010
0100
0010
0000
,
0011
0000
0000
1100
0000
0000
0011
0000
0100
0000
1000
0000
1100
0000
0000
0000
,
1001
0000
1001
0000
0110
0110
0110
0000
,
1100
0000
0000
0011
0000
0000
1100
0000
0010
0000
0001
0000
0011
0000
0000
0000
,
1001
0000
0110
0000
1001
1001
1001
0000
,
0001
0000
1000
0000
0010
0100
0010
0000
,
1000
0000
0000
1001
0000
0000
0001
0000
0100
0000
0110
0000
0010
0000
0000
0000
,
0010
0000
0000
0011
0000
0000
0100
0000
1100
0000
0010
0000
0001
0000
0000
0000
,
1000
0000
0000
0001
0000
0000
1000
0000
0010
0000
0100
0000
1000
0000
0000
0000
,
0101
0000
1100
0000
0010
0110
0100
0000
;

//---------------dance-single - BEGINNER----------------
#NOTES:
     dance-single:
     BEGINNER:
     Beginner:
     1:
     0.115,0.145,0.027,0.094,0.000,102.000,4.000,14.000,0.000,0.000:
0000
0000
0000
0000
,
0000
0000
0000
0000
,
0000
0000
0000
0000
,
0000
0000
0000
0000
,
0000
0000
0000
0000
,
0000
0000
0000
0000
,
0000
0000
0000
0000
,
0000
0000
0000
0000
,
2000
0000
0000
0000
,
0000
0000
3000
0000
,
0002
0000
0000
0000
,
0000
0000
0003
0000
,
2000
0000
0000
0000
,
0000
0000
3000
0000
,
0002
0000
0003
0000
,
2000
0000
3000
0000
,
1000
0000
0001
0000
,
0001
0000
0100
0000
,
1000
0000
0100
0000
,
0000
1000
0100
0000
,
1000
0000
0001
0000
,
0001
0000
1000
0000
,
1000
0000
0002
0000
,
0000
0000
0003
0000
,
0000
1000
0100
0000
,
1000
0000
0001
0000
,
0100
0000
0001
0000
,
0001
0000
0010
0000
,
0100
0000
0010
0000
,
0001
0000
1000
0000
,
0010
0000
0100
0000
,
0001
0000
0010
0000
,
0010
0000
0010
0000
,
0100
0000
0100
0000
,
0100
0000
0100
0000
,
0010
0000
0100
0000
,
0010
0000
0100
0000
,
0010
0000
0100
0000
,
0010
0000
0100
0000
,
1000
0000
1000
0000
,
0000
0000
0000
0000
,
1001
0000
0000
0000
,
0110
0000
0000
0000
,
1001
0000
0000
0000
,
0110
0000
0000
0000
,
1000
0000
0001
0000
,
0010
0000
0100
0000
,
1000
0000
1000
0000
,
0001
0000
0001
0000
,
1000
0000
0010
0000
,
1000
0000
0100
0000
,
0010
0000
0100
0000
,
0100
0000
0100
0000
,
0010
0000
0010
0000
,
0100
0000
0001
0000
,
0100
0000
0001
0000
,
1000
0000
0001
0000
,
0001
0000
0010
0000
,
0100
0000
0100
0000
,
0020
0000
0030
0000
,
1000
0000
0001
0000
,
0200
0000
0300
0000
,
0020
0000
0030
0000
,
0100
0000
1000
0000
,
0200
0000
0300
0000
,
0010
0000
1000
0000
,
0020
0000
0030
0000
,
0001
0000
1000
0000
,
0001
0000
0001
0000
,
2000
0000
3000
0000
,
0002
0000
0003
0000
,
2000
0000
3000
0000
,
0001
0000
0000
0000
;
