#TITLE:The Westin Song;
#SUBTITLE:(Westin Hotels);
#ARTIST:Dave Stricker Band;
#TITLETRANSLIT:;
#SUBTITLETRANSLIT:;
#ARTISTTRANSLIT:;
#CREDIT:DWI by Jason "Creamy Goodness" Tenn;
#BANNER:westin.png;
#BACKGROUND:westin-bg.png;
#LYRICSPATH:;
#CDTITLE:CM1-CD.png;
#MUSIC:Dave Stricker Band - The Westin Song.mp3;
#OFFSET:-1.491;
#SAMPLESTART:30.400;
#SAMPLELENGTH:12.000;
#SELECTABLE:YES;
#BPMS:0.000=82.700,8.000=83.000;
#STOPS:;
#BGCHANGES:;
// cache tags:
#FIRSTBEAT:8.000;
#LASTBEAT:124.000;
#SONGFILENAME:Songs/StepMix 2/Westin/Westin.sm;
#HASMUSIC:1;
#HASBANNER:1;
#MUSICLENGTH:93.491;
// end cache tags

//---------------dance-single - ----------------
#NOTES:
     dance-single:
     :
     Medium:
     4:
     0.267,0.282,0.203,0.406,0.021,118.000,19.000,38.000,0.000,0.000:
0000
0000
0000
0000
,
0000
0000
0000
0000
,
2000
0000
0000
3002
0000
0013
0000
0001
,
2020
0000
0000
3030
,
0002
0000
0000
2003
0000
3100
0000
1000
,
0202
0000
0000
0303
,
2200
0000
3000
0310
,
0002
0000
0000
0003
,
0220
0000
0330
2000
,
0002
0000
3003
0000
,
1100
0010
0002
2000
0000
0000
0000
3003
,
1000
0010
0100
0001
0001
0100
0010
1000
,
1100
0001
2000
0020
0000
0000
0000
3030
,
0001
0010
0100
1000
1000
0010
0100
0001
,
0011
1000
0200
0020
0000
0000
0000
0330
,
0100
1000
0010
0100
0100
0001
1000
0001
,
0011
1000
0002
0200
0000
0000
0000
0303
,
0010
0001
0010
0100
0100
1000
0110
0000
,
2002
0000
0000
3003
,
1000
0010
0100
0001
0000
0002
0000
0000
,
2000
0003
0000
0020
3000
0000
0030
0000
,
1000
0001
0100
0010
0000
0000
0011
0000
,
2200
0000
0000
3300
,
0001
0000
0000
0000
0100
0000
0000
0010
0000
1000
0001
1000
0001
1000
0001
0000
,
1100
0010
0002
2000
0000
0000
0000
3003
,
1000
0010
0100
0001
0001
0100
0010
1000
,
1100
0001
2000
0020
0000
0000
0000
3030
,
0010
1000
0100
0010
0010
0100
1000
0001
,
0011
1000
0200
0020
0000
0000
0000
0330
,
1100
0011
0110
2002
0000
0000
0000
0000
,
0000
0000
0000
0000
,
3003
0000
0000
0000
;

//---------------dance-single - ----------------
#NOTES:
     dance-single:
     :
     Beginner:
     2:
     0.138,0.157,0.160,0.000,0.000,75.000,15.000,0.000,0.000,0.000:
0000
0000
0000
0000
,
0000
0000
0000
0000
,
1000
0000
1000
0000
,
0001
0000
0001
0000
,
1000
0000
1000
0000
,
0001
0000
0001
0000
,
1000
1000
1000
0000
,
0001
0001
0001
0000
,
0100
0100
0100
0000
,
0010
0010
0010
0000
,
0100
0000
0000
1001
0000
0000
0000
0000
,
1000
0001
1000
0001
,
0010
0000
0000
1001
0000
0000
0000
0000
,
0001
0100
0010
0010
,
1000
0000
0000
1001
0000
0000
0000
0000
,
0010
1000
0010
0100
,
0001
0000
0000
1001
0000
0000
0000
0000
,
0100
0010
1000
0110
,
1001
0000
1000
0000
,
0001
0000
1000
0100
,
0010
0000
0001
0000
,
1000
0000
0010
1001
,
0110
0000
0100
0000
,
0010
0000
1001
1001
,
0100
0000
0000
1001
0000
0000
0000
0000
,
1000
0001
1000
0001
,
0010
0000
0000
1001
0000
0000
0000
0000
,
1000
0100
0010
0010
,
0001
0000
0000
1001
0000
0000
0000
0000
,
0110
0000
0000
1001
0000
0000
0000
0000
;

//---------------dance-single - ----------------
#NOTES:
     dance-single:
     :
     Hard:
     6:
     0.355,0.365,0.075,0.214,0.273,205.000,7.000,20.000,0.000,0.000:
0000
0000
0000
0000
,
0000
0000
0000
0000
,
1000
0000
0001
0000
0010
0000
0000
0001
0000
0000
1000
0000
0010
0000
0000
0000
,
0100
0000
0000
0000
0100
0000
0000
0001
0000
0000
1000
0000
0010
0000
0000
0000
,
1000
0000
0000
0000
0010
0000
0000
0100
0000
0000
0001
0000
0100
0000
0000
0000
,
0001
0000
0000
0000
0001
0000
0000
0010
0000
0000
0100
0000
1000
0000
0000
0000
,
0002
0000
0000
0000
1000
0000
0000
0100
0000
0000
0010
0000
0103
0000
0000
0000
,
2000
0000
0000
0000
0001
0000
0000
0100
0000
0000
0010
0000
3100
0000
0000
0000
,
0002
0000
0000
0000
0010
0000
0000
0100
0000
0000
0010
0000
1003
0000
0000
0000
,
0020
0000
0000
0000
0100
0000
0000
0130
0000
0001
1000
0000
0010
0100
0010
0000
,
1000
0000
0100
0000
0010
0000
0002
1000
0000
0010
0010
0000
1000
0000
0003
0000
,
0100
0000
1000
0000
0001
0000
0010
0010
0000
0001
0001
0000
1000
0000
0000
0000
,
0010
0000
0100
0000
0001
0000
2000
0001
0000
0100
0100
0000
0001
0000
3000
0000
,
0001
0000
0010
0000
1000
0000
0010
0010
0000
0001
0001
0000
1000
0000
0000
0000
,
0100
0000
0010
0000
0100
0000
2000
0001
0000
0010
0010
0000
0001
0000
3000
0000
,
0001
0000
0100
0000
0010
0000
1000
1000
0000
0100
0100
0000
0010
0000
0000
0000
,
0001
0000
1000
0000
0001
0000
0020
0100
0000
0001
0001
0000
0100
0000
0030
0000
,
0100
0000
1000
0000
0001
0000
0100
0100
0000
0010
0010
0000
2000
0000
0001
3001
,
0200
0000
1000
0000
0001
0000
0010
0010
0300
0100
0100
0000
0010
0000
0000
0000
,
1000
0000
0100
0000
0010
0000
0001
1000
0000
0010
0020
0000
0100
0000
0030
0000
,
0200
0000
0001
0000
1300
0000
0002
1000
0000
0010
0010
0000
1000
0000
0000
0100
,
0100
0000
1000
0000
1000
0000
0003
0100
0100
0000
0001
0000
2000
0000
0000
3000
,
0020
0000
0100
0000
0100
0000
0000
0001
0001
0000
0100
0000
0130
0000
0000
0010
,
0110
0000
0000
0000
1010
0000
0000
0011
0000
1000
0100
1000
0100
1000
0100
0000
,
1000
0000
0100
0000
0010
0000
0002
1000
0000
0100
0100
0000
1000
0000
0003
0000
,
0001
0000
1000
0000
0010
0000
0100
0100
0000
0001
0001
0000
1000
0000
1000
0000
,
0001
0000
0100
0000
0010
0000
2000
0100
0000
0010
0010
0000
0100
0000
3000
0000
,
1000
0000
0001
0000
0100
0000
0010
0010
0000
1000
1000
0000
0100
0000
0100
0000
,
0010
0000
0001
0000
0100
0000
0020
1000
0000
0001
0001
0000
1000
0000
0030
0000
,
0101
1001
1100
2002
0000
0000
0000
0000
,
0000
0000
0000
0000
,
3003
0000
0000
0000
;
